#TITLE:春を告げる;
#SUBTITLE:;
#ARTIST:yama;
#TITLETRANSLIT:Haru wo tsugeru;
#SUBTITLETRANSLIT:;
#ARTISTTRANSLIT:yama;
#GENRE:ANIME;
#CREDIT:;
#MUSIC:Haru wo tsugeru.ogg;
#BANNER:Haru wo tsugeru.png;
#BACKGROUND:Haru wo tsugeru-bg.png;
#CDTITLE:;
#SAMPLESTART:65.428;
#SAMPLELENGTH:15.000;
#SELECTABLE:YES;
#OFFSET:0.000;
#BPMS:0.000=120.000;
#STOPS:;
#BGCHANGES:;
#FGCHANGES:;

//--------------- dance-single - ----------------
#NOTES:
     dance-single:
     :
     Edit:
     16:
     0,0,0,0,0:
0000
0000
0000
0000
,
0011
0000
0000
1000
0000
0000
1100
0000
0010
0000
0000
0001
1000
0000
0000
1010
0000
0000
0000
0000
0000
0000
0000
0100
,
0001
0000
0000
0010
0000
0110
0000
0000
0100
1000
0000
1001
0000
0000
0000
0000
0000
0000
0100
0010
0000
0000
0000
0001
,
0100
0000
0001
1000
0000
0001
0010
0000
0100
1000
0000
1000
0010
0000
0000
0110
0000
0000
1001
0000
0000
0000
0000
0000
,
0011
0000
0100
1000
0000
1000
0001
0000
0001
0100
0000
0100
1000
0000
0000
0100
0000
0000
1001
0000
0000
0010
0000
0000
,
0011
0000
0000
1100
0000
0001
0010
0000
0000
0110
0000
0100
1000
0000
0001
1000
0000
0000
1010
0000
0000
0101
0000
0001
,
1000
0000
1000
0010
0000
0000
0110
0000
0000
0101
0000
0100
0010
0000
0000
1010
0000
0000
1100
0000
0000
0101
0000
0001
,
0100
0000
0100
1000
0000
0001
0010
0000
0010
1000
0000
1000
0001
0000
0000
1000
0000
0100
0010
0000
0000
1100
0000
1000
,
0100
0000
0100
0001
0000
1000
0010
0000
0010
0001
0000
1001
0000
0000
0000
2100
0000
0000
0001
0000
0000
3001
0000
0000
,
1010
0000
0000
0000
0000
0100
0001
0000
0000
0011
0000
0010
0100
0000
0000
0000
0000
0100
1000
0000
1000
0010
0100
0001
,
0010
0000
0000
0000
0000
0010
0001
0000
0000
1001
0000
0100
0010
0000
0000
0110
0000
0000
1001
0000
1000
0100
0000
0001
,
0100
0000
0000
0000
0000
0100
1000
0000
0000
1010
0000
0010
0100
0000
0000
0000
0000
0100
0001
0000
0001
0010
0100
1000
,
0010
0000
0000
0000
0000
0010
1000
0000
0000
1001
0000
0100
0010
0000
0000
0110
0000
0000
1001
0000
0001
0100
0000
1000
,
0100
0000
0000
0000
0000
0100
0001
0000
0000
0011
0000
0010
0100
0000
0000
0000
0000
0100
1000
0000
1000
0100
0010
0001
,
0100
0000
0000
0000
0000
0100
0001
0000
0000
1001
0000
0100
0010
0000
0000
0110
0000
0000
1001
0000
1000
0100
0000
0001
,
0100
0000
0000
0000
0000
0100
1000
0000
0000
1010
0000
0010
0100
0000
0000
0000
0000
0100
0001
0000
0001
0010
0000
0010
,
0100
0000
0000
0000
0000
0100
1000
0000
0000
1001
0000
0100
0010
0000
0000
0110
0000
0000
1001
0000
0001
0100
0000
1000
,
0100
0000
0100
0001
0000
0001
0010
0000
0000
0110
0000
0100
2000
0000
0000
3010
0000
0000
1001
0000
0000
0101
0000
0000
,
1010
0000
0000
0010
0000
0100
0001
0000
0011
0000
0000
0010
0100
0000
0000
1100
0000
0000
0011
0000
0001
1000
0000
1000
,
0010
0000
0100
0001
0000
1000
0010
0000
0100
0001
0000
0001
0010
0000
0100
1000
0000
0000
1001
0000
1000
0001
0000
0001
,
0010
0000
0100
1000
0000
0001
0010
0000
0100
1000
0000
1000
0010
0000
0010
0100
0000
0100
0001
0000
0001
1000
0000
1000
,
0001
0000
0000
0011
0000
0000
1100
0000
0100
1000
0000
1000
0001
0000
0000
0101
0000
0100
0010
0000
0010
1000
0000
1000
,
0001
0000
0001
0010
0000
0000
0110
0000
0100
1000
0000
1000
0001
0000
0001
1000
0000
0000
1010
0000
0000
0110
0000
0000
,
0101
0000
0000
0101
0000
0010
1000
0000
0001
1000
0000
0001
0100
0000
0000
0110
0000
0100
0010
0000
0100
0010
0000
0010
,
0100
0000
0100
0010
0000
0010
1000
0000
1000
0100
0000
0100
0001
0000
0001
1000
0000
0000
1010
0000
0010
0001
0000
0100
,
0101
0000
0000
0100
0000
0010
1010
0000
0000
0010
0000
1000
1100
0000
0000
1000
0000
0001
0011
0000
0000
0001
0000
0100
,
1010
0000
0000
1000
0000
0100
0011
0000
0000
0001
0000
0010
1100
0000
0000
1000
0000
0010
0101
0000
0001
0010
0000
0100
,
1000
0000
0000
1001
0000
1000
0010
0000
0100
0001
0000
0001
1000
0000
0000
1001
0000
0001
0100
0000
0000
0020
0000
0000
,
0000
2030
3200
0302
2003
3020
0031
1001
,
1001
0000
0000
1000
0000
0010
0100
0000
0100
0001
0000
0001
0010
0000
0000
0110
0000
0100
1000
0000
1000
0010
0000
0000
,
0101
0000
1010
0000
0101
0000
0011
0000
1100
0000
0011
0000
2002
0000
0000
0000
3000
0000
0100
0000
0000
0203
0000
0000
,
0320
0000
0230
0000
,
0302
0000
0000
0023
0000
0100
0130
0000
,
1001
0000
1000
0001
0000
0000
0101
0000
0000
0101
0000
0001
0010
0000
0001
1000
0000
0000
1100
0000
1000
0010
0000
1000
,
0001
0000
0000
0101
0000
0100
0010
0000
0010
1000
0000
0000
1100
0000
0010
0001
0000
0000
0101
0000
0000
1010
0000
0100
,
0001
0000
0001
0010
0000
0100
1000
0000
1000
0010
0000
0100
0101
0000
0000
1010
0000
0000
0101
0000
0001
1000
0000
0100
,
1000
0000
1000
0010
0000
0100
0001
0000
0001
0010
0000
0100
0110
0000
0000
1001
0000
0000
0110
0000
0010
1000
0000
0100
,
1000
0000
0100
0010
0000
0010
0001
0000
0000
1001
0000
0001
0100
0000
1000
0100
0000
0000
0110
0000
0100
0001
0000
1000
,
0010
0000
0010
0001
0000
0001
0010
0000
0010
1000
0000
1000
0100
0000
1000
0010
0000
0100
0001
0000
0000
1001
0000
0001
,
0010
0000
0010
1000
0000
0001
0100
0000
0100
1000
0000
1000
0001
0000
0000
1001
0000
0001
0010
0000
0010
0100
0000
2000
,
0002
0000
0000
0000
0000
0000
0000
0000
0000
0000
0000
0000
0000
0000
0000
0000
3000
0000
0100
0000
0000
0103
0000
0100
,
0001
0000
0001
1000
0000
0000
1100
0000
0000
1100
0000
1000
0010
0000
1000
0001
0000
0000
0101
0000
0001
0010
0000
0001
,
1000
0000
0000
1100
0000
0100
0010
0000
0010
0001
0000
0000
0101
0000
0010
1000
0000
0000
1100
0000
0000
0011
0000
0100
,
1000
0000
1000
0010
0000
0100
0001
0000
0001
0010
0000
0100
1100
0000
0000
0011
0000
0000
1100
0000
1000
0001
0000
0100
,
0001
0000
0001
0010
0000
0100
1000
0000
1000
0010
0000
0100
0110
0000
0000
1001
0000
0000
0110
0000
0010
0001
0000
0100
,
0001
0000
0100
0010
0000
0010
1000
0000
0000
1001
0000
1000
0100
0000
0001
0100
0000
0000
0110
0000
0100
1000
0000
0001
,
0010
0000
0010
1000
0000
1000
0010
0000
0010
0001
0000
0001
0100
0000
0001
0010
0000
0100
1000
0000
0000
1001
0000
1000
,
0010
0000
0010
0001
0000
1000
0100
0000
0100
0001
0000
0001
1000
0000
0000
1001
0000
1000
0010
0000
0010
0100
0000
0002
,
2000
0000
0000
0000
0000
0003
0001
3001
,
0011
0000
0000
0000
0000
0100
1000
0000
0000
1010
0000
0010
0100
0000
0000
0000
0000
0100
0001
0000
0001
0010
0100
1000
,
0010
0000
0000
0000
0000
0010
1000
0000
0000
1001
0000
0100
0010
0000
0000
0110
0000
0000
1001
0000
0001
0100
0000
1000
,
0100
0000
0000
0000
0000
0100
0001
0000
0000
0011
0000
0010
0100
0000
0000
0000
0000
0100
1000
0000
1000
0010
0100
0001
,
0010
0000
0000
0000
0000
0010
0001
0000
0000
1001
0000
0100
0010
0000
0000
0110
0000
0000
1001
0000
1000
0100
0000
0001
,
0100
0000
0000
0000
0000
0100
1000
0000
0000
1010
0000
0010
0100
0000
0000
0000
0000
0100
0001
0000
0001
0100
0010
1000
,
0100
0000
0000
0000
0000
0100
1000
0000
0000
1001
0000
0100
0010
0000
0000
0110
0000
0000
1001
0000
0001
0100
0000
1000
,
0100
0000
0000
0000
0000
0100
0001
0000
0000
0011
0000
0010
0100
0000
0000
0000
0000
0100
1000
0000
1000
0010
0000
0010
,
0100
0000
0000
0000
0000
0100
0001
0000
0000
1001
0000
0100
0010
0000
0000
0110
0000
0000
1001
0000
2000
0002
0000
0000
,
3003
0000
0000
0000
;
