#TITLE:春が来てぼくら;
#SUBTITLE:;
#ARTIST:UNISON SQUARE GARDEN;
#TITLETRANSLIT:Haru Ga Kite Bokura;
#SUBTITLETRANSLIT:;
#ARTISTTRANSLIT:UNISON SQUARE GARDEN;
#GENRE:POP;
#CREDIT:;
#MUSIC:Haru Ga Kite Bokura.ogg;
#BANNER:Haru Ga Kite Bokura.png;
#BACKGROUND:Haru Ga Kite Bokura-bg.png;
#CDTITLE:;
#SAMPLESTART:65.242;
#SAMPLELENGTH:13.636;
#SELECTABLE:YES;
#OFFSET:1.803;
#BPMS:0.000=132.000
,114.000=66.000
,115.000=132.000
,121.000=66.000
,122.000=132.000
;
#STOPS:;
#LASTBEATHINT:1.721177;
#BGCHANGES:6.500=Haru Ga Kite Bokura.avi=1.000=0=0=0=StretchNoLoop====,
99999.000=-nosongbg-=1.000=0=0=0=StretchNoLoop====
;
#FGCHANGES:;

//--------------- dance-single - ----------------
#NOTES:
     dance-single:
     :
     Hard:
     13:
     0.536288,0.640892,0.116104,0.278649,0.259298,485,470,15,36,0,0,0.536288,0.640892,0.116104,0.278649,0.259298,485,470,15,36,0,0:
0000
0000
0000
0000
,
0000
0000
0000
0000
,
0000
0000
0000
0000
,
0001
0100
0100
2000
0000
3010
0100
0002
,
0000
0000
1000
0003
0100
0000
0020
0000
0000
0000
0000
0000
0031
0000
1000
0100
,
1000
0000
0100
0010
0100
0000
0010
0001
0010
0000
0001
1000
0001
0000
1000
0010
,
1000
0000
0010
0100
0010
0000
0100
0001
0100
0000
0020
0000
0000
0000
0000
0000
,
1030
0100
0100
0002
0000
0013
0100
2000
,
0000
0000
3001
0000
0100
0000
0020
0000
0000
0000
0000
0000
1030
0000
0001
0100
,
0001
0000
0100
0010
0100
0000
0010
1000
0010
0000
1000
0001
1000
0000
0001
0010
,
0001
0000
0010
0100
0010
0000
0001
0000
1000
0000
2100
0000
0000
0000
0000
0000
,
3010
0100
0001
1000
0001
1000
0001
0020
,
0000
0130
1000
0002
0000
1003
0010
0100
,
0001
0010
0100
0010
0100
0010
0001
1000
,
0000
1000
0010
0100
0001
0000
0001
1000
,
0000
0000
1000
0100
1000
0000
0010
0000
0100
0000
0001
0000
1000
0000
0002
0000
,
0000
0000
0013
0000
0100
0000
1000
0000
0020
0000
0000
0000
0000
0000
0130
0001
,
1000
0010
0100
0010
0100
0001
1000
0010
,
0200
0000
0000
0301
0001
1000
1000
0010
,
0000
0100
0001
0100
0010
0100
0001
1000
,
0000
0001
0010
1000
0000
0010
0100
0010
,
0001
0100
1000
0100
0001
0010
0100
1000
,
0000
1000
0010
0100
0001
0000
1000
0001
,
0000
0000
0100
0001
0100
0000
0001
0000
1000
0000
0001
0000
0010
0000
0100
0000
,
0000
1000
0001
1000
0010
0000
0000
0100
,
0010
0000
1000
0001
0000
0000
0010
0000
0100
0000
1000
0001
0000
0000
0100
0000
,
0010
0100
0010
1000
0000
1000
0001
0000
,
0020
0000
0130
1000
0002
0000
0103
0010
,
0000
0000
0000
0000
0000
0000
0000
0000
0000
0000
0000
0000
0000
0000
0000
0000
0000
0000
0000
0000
0000
0000
0000
0000
0010
0000
0000
0000
0000
0000
0000
0000
0000
0000
0000
0000
0000
0000
0000
0000
0000
0000
0000
0000
0000
0000
0000
0000
1000
0000
0000
0000
0000
0000
0000
0000
0000
0000
0000
0000
0000
0000
0000
0000
0000
0000
0000
0000
0000
0000
0000
0000
0001
0000
0000
0000
0000
0000
0000
0000
0000
0000
0000
0000
0000
0000
0000
0000
0000
0000
0000
0000
0000
0000
0000
0000
0020
0030
0000
0000
0000
0000
0000
0000
0000
0000
0000
0000
0000
0000
0000
0000
0000
0000
0000
0000
0000
0000
0000
0000
0000
0000
0000
0000
0000
0000
0000
0000
0000
0000
0000
0000
0000
0000
0000
0000
0000
0000
0000
0000
0000
0000
0000
0000
0200
0300
0000
0000
0000
0000
0000
0000
0000
0000
0000
0000
0000
0000
0000
0000
0000
0000
0000
0000
0000
0000
0000
0000
1000
0000
0000
0000
0000
0000
0000
0000
0000
0000
0000
0000
0000
0000
0000
0000
0000
0000
0000
0000
0000
0000
0000
0000
,
0100
0001
0200
0000
1300
0020
0000
0130
,
0001
0000
0000
0000
0000
0000
0000
0000
0000
0000
0000
0000
0000
0000
0000
0000
0000
0000
0000
0000
0000
0000
0000
0000
1000
0000
0000
0000
0000
0000
0000
0000
0000
0000
0000
0000
0000
0000
0000
0000
0000
0000
0000
0000
0000
0000
0000
0000
0020
0030
0000
0000
0000
0000
0000
0000
0000
0000
0000
0000
0000
0000
0000
0000
0000
0000
0000
0000
0000
0000
0000
0000
0000
0000
0000
0000
0000
0000
0000
0000
0000
0000
0000
0000
0000
0000
0000
0000
0000
0000
0000
0000
0000
0000
0000
0000
0200
0300
0000
0000
0000
0000
0000
0000
0000
0000
0000
0000
0000
0000
0000
0000
0000
0000
0000
0000
0000
0000
0000
0000
0001
0000
0000
0000
0000
0000
0000
0000
0000
0000
0000
0000
0000
0000
0000
0000
0000
0000
0000
0000
0000
0000
0000
0000
1000
0000
0000
0000
0000
0000
0000
0000
0000
0000
0000
0000
0000
0000
0000
0000
0000
0000
0000
0000
0000
0000
0000
0000
0100
0000
0000
0000
0000
0000
0000
0000
0000
0000
0000
0000
0000
0000
0000
0000
0000
0000
0000
0000
0000
0000
0000
0000
,
0020
0000
0031
2000
0000
3010
0100
0010
,
2000
0000
0000
0000
3001
0000
0010
0100
0010
0000
0000
0000
0001
0000
1000
0000
,
0001
0000
1000
0010
0000
0000
0100
0010
0100
0000
0000
0000
0001
0000
0010
0000
,
0100
0000
1000
0001
0000
0000
1000
0100
1000
0000
0010
0000
0100
0000
0001
0000
,
1000
0001
0010
0100
1100
0000
0011
0000
,
1001
0000
1000
0000
0010
0000
0100
0000
0010
0000
1000
0010
0000
0000
0100
0010
,
0000
0000
1000
0001
0000
0000
0010
0100
0000
0000
1000
0000
0010
0000
0000
0000
,
0100
0000
0001
0000
1000
0000
0100
0000
0010
0000
0000
0000
0010
0000
0100
1000
,
0001
0000
0100
0000
0010
0000
0100
0000
0001
0000
1000
0001
0000
0000
0001
1000
,
0000
0000
0000
0000
0001
0000
0100
0000
0001
0000
1000
0010
0000
1000
0010
0000
,
0101
0000
0000
0000
1000
0000
0100
0000
1000
0000
0001
0010
0000
0000
0001
0000
,
0010
1100
0000
1000
0010
0100
0101
1010
,
1000
0000
0010
0100
0000
0000
0001
0010
0000
0000
0100
0000
1000
0000
0100
0000
,
0010
0000
0001
0000
1000
0000
0001
0100
0001
0000
0010
0100
0000
0000
0010
0001
,
0000
0000
1000
0010
0000
0000
0100
0001
0000
0000
0000
0000
1000
0000
0001
0000
,
0010
0100
1000
0001
0101
0000
1001
1000
,
0010
0000
0100
0000
0010
0000
1000
0000
0001
0000
0010
0100
0000
0000
1000
0000
,
1100
1001
0101
0110
0000
0010
1000
0001
,
0010
0000
0100
1000
0000
0000
0010
0000
0100
0000
0001
0010
0000
0100
0000
0000
,
1000
0000
1000
0010
0100
0001
0100
0001
,
1000
0000
0001
0010
0000
0000
0100
0000
1000
0000
0010
0000
1000
0000
0010
0000
,
0100
0000
0001
1000
0000
0000
0001
0010
0100
0000
1000
0000
0001
0000
1000
0000
,
0010
0000
0100
0001
0000
0000
0100
0001
1000
0000
0100
0000
0010
0000
0100
0000
,
1000
0000
0001
0100
0000
0000
0010
1000
0002
0000
0000
0000
0010
0000
0000
0000
,
0203
0000
0310
1000
0010
0100
0001
0010
,
0100
0000
1000
0001
0000
0000
0100
0010
0200
0000
0000
0000
0000
0000
0301
0000
,
0010
0100
1000
0001
1000
0100
0100
0002
,
0000
0013
0100
2000
0000
3001
0100
0020
,
0000
0000
0000
0000
1030
0000
0001
0010
0001
0000
0010
0100
0010
0000
0100
1000
,
0100
0000
1000
0001
1000
0000
0001
0100
0001
0000
0100
0010
0100
0000
0010
1000
,
0010
0200
0000
0000
0301
0100
0100
2000
,
0000
3010
0100
0002
0000
1003
0100
0020
,
0000
0000
0000
0000
0031
0000
1000
0010
1000
0000
0010
0100
0010
0000
0100
0001
,
0100
0000
0001
1000
0001
0000
1000
0100
1000
0000
0100
0010
0100
0000
0010
0001
,
0010
0100
1000
0001
0000
0000
0220
0000
,
0000
0000
0000
0000
,
0000
0000
0000
0000
,
0000
0000
0000
0000
,
0330
0000
0000
0000
;

//--------------- dance-single - ----------------
#NOTES:
     dance-single:
     :
     Challenge:
     16:
     0.789504,0.801115,0.402492,0.208986,0.735323,714,662,52,27,0,0,0.789504,0.801115,0.402492,0.208986,0.735323,714,662,52,27,0,0:
0000
0000
0000
0000
,
0000
0000
0000
0000
,
0001
0010
0100
1000
0001
0010
0100
1000
0001
0010
0100
1000
0001
0010
0100
1000
,
1100
0000
1000
0010
0100
0000
0201
0000
0010
0000
0301
0010
0100
0000
1200
0000
,
0010
0000
1300
0010
0100
0000
0201
0000
0000
0000
0301
0000
0010
0000
0100
1000
,
0001
0000
0100
0010
0100
0000
0010
1000
0001
0000
0010
0100
0010
0000
0001
1000
,
0010
0000
0100
0001
1000
0100
1000
0010
0100
0001
1000
0001
1000
0001
1000
0001
,
0100
0000
0001
0010
0100
0000
1200
0000
0010
0000
1300
0010
0100
0000
0201
0000
,
0010
0000
0301
0010
0100
0000
1200
0000
0000
0000
0310
0000
0001
0000
1000
0001
,
0100
0000
0010
0100
0010
0000
1000
0001
0010
0000
0100
0010
0100
0000
1000
0001
,
0100
0000
0000
0000
0000
0000
0010
0000
0000
1000
0000
0000
0001
0000
0000
0100
0000
0000
0001
0000
0010
0000
0100
0000
1000
0000
0000
0000
0000
0000
1100
0000
0000
0000
0000
0000
0100
0000
0000
1000
0000
0000
0001
0000
0000
1000
0000
0000
,
0001
0100
0010
0100
1000
0100
0001
0010
,
0000
0010
0100
2000
0000
3001
0100
0110
,
0010
0000
1000
0001
0010
0000
0100
1000
0010
0000
0100
0001
1000
0000
0200
0000
,
0000
0000
0310
0000
0001
0000
1000
0000
0010
0100
0010
0100
0001
0000
1001
0000
,
1000
0000
0010
0100
0010
0000
0001
0000
1000
0000
0100
0010
0100
0000
0001
0000
,
1000
0000
0001
0010
0100
0000
1000
0100
0010
0000
0000
0000
0001
0000
1000
0100
,
1000
0000
0010
0000
0100
0000
0001
0010
0001
0000
1000
0000
0100
0000
0010
0000
,
0110
0000
0000
0000
0000
0000
0000
0000
0000
0000
0000
0000
1000
0000
0000
0000
0000
0000
0001
0000
0000
0000
0000
0000
0001
0000
0000
0000
0000
0000
1000
0000
0100
0000
1000
0000
0100
0000
0000
0010
0000
0000
0001
0000
0000
0000
0000
0000
,
0100
0000
0001
0000
1000
0000
0001
0100
0010
0000
1000
0000
0001
0000
0012
0000
,
0000
0000
0013
0000
0100
0000
1000
0001
0100
0000
0110
0000
0010
0000
1000
0100
,
0010
0001
1000
0001
0100
0110
0010
1000
,
0001
0000
1000
0100
0010
0000
0001
0000
1001
0000
0000
0000
1000
0000
0010
0000
,
0000
0000
0100
0001
0010
0000
0100
0000
1000
0000
0110
0000
0001
0000
0020
0000
,
0000
0130
1000
0001
1000
1001
0001
0010
,
0100
0000
1000
0010
0000
0000
0010
0000
1000
0000
0001
0010
0000
0000
0010
0000
,
0100
0000
1000
0000
0010
0000
0002
0000
0000
0000
0013
0000
1000
0001
1000
0100
,
0010
0000
0100
0000
1000
0000
0001
0000
0200
0000
0000
1000
0000
0000
0010
0000
,
0301
0000
0000
0000
0000
0000
0000
0000
0000
0000
0000
0000
0000
0000
0000
0000
0000
0000
0000
0000
0000
0000
0000
0000
1000
0000
0000
0000
0000
0000
0000
0000
0000
0000
0000
0000
0000
0000
0000
0000
0000
0000
0000
0000
0000
0000
0000
0000
0100
0000
0000
0000
0000
0000
0000
0000
0000
0000
0000
0000
0000
0000
0000
0000
0000
0000
0000
0000
0000
0000
0000
0000
0010
0000
0000
0000
0000
0000
0000
0000
0000
0000
0000
0000
0000
0000
0000
0000
0000
0000
0000
0000
0000
0000
0000
0000
0002
0003
0000
0000
0000
0000
0000
0000
0000
0000
0000
0000
0000
0000
0000
0000
0000
0000
0000
0000
0000
0000
0000
0000
0000
0000
0000
0000
0000
0000
0000
0000
0000
0000
0000
0000
0001
0000
0000
0000
0000
0000
0000
0000
0000
0000
0000
0000
2000
3000
0000
0000
0000
0000
0000
0000
0000
0000
0000
0000
0000
0000
0000
0000
0000
0000
0000
0000
0000
0000
0000
0000
0001
0000
0000
0000
0000
0000
0000
0000
0000
0000
0000
0000
0000
0000
0000
0000
0000
0000
0000
0000
0000
0000
0000
0000
,
0100
0000
0010
0000
1000
0000
0000
1000
0010
0000
0100
0000
0001
0000
0000
1000
,
0100
0000
0000
0000
0000
0000
0000
0000
0000
0000
0000
0000
0000
0000
0000
0000
0000
0000
0000
0000
0000
0000
0000
0000
0010
0000
0000
0000
0000
0000
0000
0000
0000
0000
0000
0000
0000
0000
0000
0000
0000
0000
0000
0000
0000
0000
0000
0000
0002
0003
0000
0000
0000
0000
0000
0000
0000
0000
0000
0000
2000
3000
0000
0000
0000
0000
0000
0000
0000
0000
0000
0000
0002
0003
0000
0000
0000
0000
0000
0000
0000
0000
0000
0000
0000
0000
0000
0000
0000
0000
0000
0000
0000
0000
0000
0000
0200
0300
0000
0000
0000
0000
0000
0000
0000
0000
0000
0000
0000
0000
0000
0000
0000
0000
0000
0000
0000
0000
0000
0000
0010
0000
0000
0000
0000
0000
0000
0000
0000
0000
0000
0000
0000
0000
0000
0000
0000
0000
0000
0000
0000
0000
0000
0000
0100
0000
0000
0000
0000
0000
0000
0000
0000
0000
0000
0000
0000
0000
0000
0000
0000
0000
0000
0000
0000
0000
0000
0000
1000
0000
0000
0000
0000
0000
0000
0000
0000
0000
0000
0000
0000
0000
0000
0000
0000
0000
0000
0000
0000
0000
0000
0000
,
0100
0000
0001
1000
0100
0000
0020
0000
0000
0000
0031
0000
1000
0000
0100
0010
,
0100
0000
1000
0100
0010
0001
1000
0100
1100
0000
0001
0000
1010
0000
0001
0000
,
1100
0000
0100
1000
0000
1000
0001
0100
0101
0000
1000
0000
0011
0000
1000
0000
,
0101
0000
1000
0010
0000
0100
0010
1000
0001
0000
0010
0000
0100
0000
1000
0000
,
0001
0000
0000
0000
0000
0000
1000
0000
0000
0000
0000
0000
0001
0000
1000
0000
0100
0000
0010
0000
0001
0000
0000
0000
0011
0000
0000
0000
0000
0000
1000
0000
0000
0000
0000
0000
1100
0000
0000
0000
0000
0000
0001
0000
0000
0100
0000
0000
,
0010
0000
0100
0010
1000
0001
0010
0100
1000
0000
0001
0100
1000
0000
0100
0001
,
0010
0000
0001
0010
1000
0000
0010
0001
0100
0000
0010
1000
0100
0000
0010
0001
,
0100
0000
0010
0000
1000
0000
0001
0000
0011
0000
1000
0100
0010
0000
0001
0000
,
1100
0000
0001
0100
0010
0000
1000
0000
0101
0000
1000
0010
0000
0010
0100
0001
,
1000
0000
0001
0010
0100
1000
0001
0100
1000
0000
0100
0010
0000
0100
0001
0000
,
1000
0000
0010
0100
0001
0000
1000
0100
0001
0000
0100
0010
0000
0100
1000
0000
,
0001
0000
1000
0000
0001
0010
0100
1000
0001
0000
0001
0100
0010
0000
0010
1000
,
0001
0000
0001
0010
0000
0100
1000
0001
0000
1000
0010
0100
0001
0010
0100
1000
,
0010
0100
0010
0100
0010
0100
0001
0010
1000
0000
0010
0100
0010
0000
0001
0100
,
1000
0000
0100
0010
0100
0000
0001
0010
1000
0000
0010
0001
1000
0010
0100
0001
,
0010
0000
0100
0000
1000
0000
0001
0000
0110
0000
0100
0001
0010
0000
0100
0000
,
1001
0000
1000
0010
0100
0000
0001
0000
0110
0000
1000
0001
0000
0000
0001
0010
,
0100
1000
1100
0000
1001
0000
0101
0000
0001
0000
1000
0001
0010
0000
0011
0000
,
0110
0000
1100
1000
0001
0100
0010
0000
0010
1000
0100
0001
0000
0100
0010
0000
,
0100
1000
0001
1000
0100
1000
0001
0010
1000
0000
0001
0100
1000
0000
0001
0010
,
1000
0000
0001
0100
0000
1000
0001
0000
1001
0000
1000
0010
0001
0000
1000
0100
,
0001
0000
1000
0010
0001
1000
0100
0001
0010
0000
0100
1000
0010
0000
0100
0000
,
0010
0000
1000
0001
0000
0010
0100
1000
0010
0000
0100
0001
1000
0000
0001
0000
,
0010
0000
0100
1000
0000
0001
0100
0010
1010
0000
1000
0000
0110
0000
0001
0000
,
1001
0000
1000
0100
0010
0001
0100
0010
0110
0000
0100
0000
1001
0000
0001
0000
,
0110
0000
1000
0001
0000
0001
0010
0100
1000
0000
0000
0000
0000
0000
1000
0000
,
0100
0000
0010
0000
0001
0100
0001
0100
0010
0000
1000
0010
0100
0000
1200
0000
,
0010
0000
0301
0010
0100
0000
0201
0000
0010
0000
1300
0010
0100
0000
0210
0000
,
0000
0000
0301
0000
1000
0000
0001
0100
0010
0000
0100
1000
0100
0000
0010
0100
,
0001
0000
1000
0001
1000
0000
0100
0010
0001
0000
1000
0010
0100
0001
0010
0100
,
1000
0001
1000
0001
1000
0001
1000
0010
0100
0000
0001
0010
0100
0000
0201
0000
,
0010
0000
1300
0010
0100
0000
1200
0000
0010
0000
0301
0010
0100
0000
0210
0000
,
0000
0000
0310
0000
0001
0000
1000
0100
0010
0000
0100
0001
0100
0000
0010
0100
,
1000
0000
0001
1000
0001
0000
0100
0010
1000
0000
0001
0010
1000
0000
0010
0001
,
0100
0110
1000
0001
0000
0000
0220
0000
,
0000
0000
0000
0000
,
0000
0000
0000
0000
,
0000
0000
0000
0000
,
0330
0000
0000
0000
;
