#TITLE:Happy encount;
#SUBTITLE:;
#ARTIST:TRUE;
#TITLETRANSLIT:Happy encount;
#SUBTITLETRANSLIT:;
#ARTISTTRANSLIT:TRUE;
#GENRE:ANIME;
#CREDIT:;
#MUSIC:Happy encount.ogg;
#BANNER:Happy encount.png;
#BACKGROUND:Happy encount-bg.png;
#CDTITLE:;
#SAMPLESTART:51.503;
#SAMPLELENGTH:14.015;
#SELECTABLE:YES;
#OFFSET:0.395;
#BPMS:0.000=137.000;
#STOPS:103.500=0.219
,104.000=0.219
,104.500=0.219
;
#BGCHANGES:0.750=Happy encount.avi=1.000=0=0=0=StretchNoLoop====,
99999.000=-nosongbg-=1.000=0=0=0=StretchNoLoop====
;
#FGCHANGES:;

//--------------- dance-single - ----------------
#NOTES:
     dance-single:
     :
     Hard:
     11:
     0,0,0,0,0:
0000
0000
0000
0000
,
1000
0000
0001
0100
0000
0100
0010
0000
0010
1000
0000
1000
,
0001
0000
0001
0010
0000
0010
0100
1000
0100
1000
0000
1000
,
0010
0000
0010
0100
0000
0100
0001
0000
0001
0010
0000
0010
,
0100
0000
0000
0000
1000
0000
0000
0000
0000
0001
0000
0000
1001
0000
0000
0000
0000
0000
0110
0000
0000
0000
0000
0000
,
1000
0000
1000
0000
0001
0100
0001
0010
,
0000
0100
1000
0000
1000
0100
1000
0001
,
0100
0100
0010
0010
,
1000
0001
1000
0000
0001
1000
0001
0000
,
1000
0000
1000
0000
0001
0100
0001
0010
,
0000
0100
1000
0000
1000
0010
0100
0001
,
1000
1100
0001
0101
,
1000
0100
1000
0001
0100
0001
0010
0000
,
1100
0000
1000
0000
0001
0000
0100
0001
,
0000
0010
0100
0000
1000
0001
0100
0000
,
0110
0000
1001
0000
1000
0000
0001
0010
,
0000
1000
0010
0000
0001
1000
0001
0100
,
0010
0000
0010
1000
0000
1000
0001
0010
,
0000
0100
1000
0010
0000
0100
0001
1000
,
0000
1000
0010
0000
0110
0000
1000
0001
,
0000
0001
0010
0000
0010
0100
1000
0001
,
1000
0000
0110
0000
1000
0001
0010
0100
,
0000
1000
0001
0100
0000
0010
1000
0100
,
0010
0000
0001
0000
1000
0010
1000
0001
,
0000
0010
0000
0010
0000
0100
1000
0001
,
1000
0000
0000
0000
0000
0000
0000
0000
0000
0000
0000
0000
0000
0000
0000
0000
0000
0000
0000
0000
0000
0000
0000
0000
0000
0000
0000
0000
0000
0000
0000
0000
0000
0000
0000
0000
0000
0000
0000
0000
0000
0000
0000
0000
0000
0000
0000
0000
1010
0000
0000
0000
0000
0000
0000
0000
0000
0000
0000
0000
0000
0000
0000
0000
0000
0000
0000
0000
0000
0000
0000
0000
0000
0000
0000
0000
0000
0000
0000
0000
0000
0000
0000
0000
0000
0000
0000
0000
0000
0000
0000
0000
0000
0000
0000
0000
0100
0000
0000
0000
0000
0000
0000
0000
0000
0000
0000
0000
0000
0000
0000
0000
0000
0000
0000
0000
0000
0000
0000
0000
0000
0000
0000
0000
0000
0000
0000
0000
0000
0000
0000
0000
0000
0000
0000
0000
0000
0000
0000
0000
0000
0000
0000
0000
0001
0000
0000
0000
0000
0000
0000
0000
0000
0000
0000
0000
0000
0000
0000
0000
0000
0000
0000
0000
0000
0000
0000
0000
2000
3000
0000
0000
0000
0000
0000
0000
0000
0000
0000
0000
0000
0000
0000
0000
0000
0000
0000
0000
0000
0000
0000
0000
,
0002
0003
0000
0000
0000
0000
0000
0000
0000
0000
0000
0000
0000
0000
0000
0000
0000
0000
0000
0000
0000
0000
0000
0000
2000
3000
0000
0000
0000
0000
0000
0000
0000
0000
0000
0000
0000
0000
0000
0000
0000
0000
0000
0000
0000
0000
0000
0000
0020
0000
0000
0000
0000
0000
0000
0000
0000
0000
0000
0000
0000
0000
0000
0000
0000
0000
0000
0000
0000
0000
0000
0000
0000
0000
0000
0000
0000
0000
0000
0000
0000
0000
0000
0000
0000
0000
0000
0000
0000
0000
0000
0000
0000
0000
0000
0000
0030
0000
0000
0000
0000
0000
0000
0000
0000
0000
0000
0000
0000
0000
0000
0000
0000
0000
0000
0000
0000
0000
0000
0000
0100
0000
0000
0000
0000
0000
0000
0000
0000
0000
0000
0000
0000
0000
0000
0000
0000
0000
0000
0000
0000
0000
0000
0000
0010
0000
0000
0000
0000
0000
0000
0000
0000
0000
0000
0000
0000
0000
0000
0000
0000
0000
0000
0000
0000
0000
0000
0000
0100
0000
0000
0000
0000
0000
0000
0000
0000
0000
0000
0000
0000
0000
0000
0000
0000
0000
0000
0000
0000
0000
0000
0000
,
0000
0001
1000
0001
0000
0011
0000
1100
,
0000
1010
0000
0101
0000
0001
0010
0100
,
0010
0001
1000
0000
0010
0100
0000
1001
,
0000
0000
0001
0000
0000
1000
0000
0000
0100
0000
0000
0000
0010
0000
0001
0000
,
1000
0000
0010
0100
0010
1000
0000
0001
,
0000
0000
0001
0000
0000
0010
0000
0000
0110
0000
0000
0000
0100
0000
1000
0000
,
0001
0000
0100
0010
0100
0010
0000
1001
,
0000
0100
0000
1001
0000
0010
0001
0100
,
1000
0000
1000
0100
0002
0000
1003
0100
,
1000
0000
0001
0100
0001
0000
0010
0100
,
0000
0100
1000
0001
1000
1010
0000
0101
,
0000
0000
0011
0000
0000
0110
0000
0000
1100
0000
0000
0000
1000
0000
0001
0000
,
1000
0000
0010
1000
0001
1000
0100
0001
,
0100
1000
0001
0100
1000
0000
1000
0100
,
0010
0000
0100
0001
1000
0200
0301
0200
,
1300
0002
0103
0002
1003
0200
2300
3020
,
0032
0000
0010
0013
2000
0000
3100
0010
,
0100
1000
0001
0100
0001
0000
0010
0100
,
0010
0000
0001
1000
0001
1000
0000
1100
,
0000
0001
0000
0100
0001
0000
0011
0000
,
1100
0000
1000
0001
0100
0010
1000
0000
,
0001
0010
0100
1000
0001
0000
0100
0010
,
1000
0010
0100
0000
0001
0000
0010
0100
,
0010
0001
1000
0100
0010
0000
0000
0000
;

//--------------- dance-single - ----------------
#NOTES:
     dance-single:
     :
     Challenge:
     15:
     0.632848,0.478938,0,0,0,399,399,0,0,0,0,0.632848,0.478938,0,0,0,399,399,0,0,0,0:
0000
0000
0000
0000
,
0001
0000
1000
0100
0010
0100
1000
0000
1000
0010
0100
0010
,
1000
0000
0000
0000
1000
0000
0001
0000
0000
0000
0001
0000
1000
0100
0010
0001
1000
0100
0010
0000
0000
0000
0010
0000
,
0001
0000
0001
0100
0010
0100
0001
0000
0001
0010
0100
0010
,
0011
0000
0000
0000
0000
0000
0000
0000
1010
0000
0000
0000
0000
0000
0000
0000
0000
0000
0110
0000
0000
0000
0000
0000
1001
0000
0000
0000
0000
0000
0010
0000
0000
0100
0000
0000
0002
0000
0000
0000
0000
0000
0000
0000
0000
0000
0000
0000
,
0013
0000
0100
0000
0010
0000
0001
0000
0100
0010
0000
2010
0000
0000
3200
0000
,
0000
0000
0301
0100
0010
0000
0001
0000
1000
0010
0000
0110
0000
0000
0100
0000
,
0001
0000
0010
0000
0001
0000
1000
0000
0001
0100
0010
0100
0001
0000
1000
0000
,
0001
0000
0000
0100
0000
0000
0100
0000
0000
1000
0000
0000
0001
0000
0000
1000
0000
0000
0100
0000
0000
0100
0000
0000
0001
0000
0010
0000
0100
0000
1000
0000
0000
0100
0000
0000
0010
0000
0000
0000
0000
0000
0100
0000
0000
1000
0000
0000
,
0001
0000
0100
0000
0001
0000
0100
0000
0010
1000
0000
1020
0000
0000
0230
0000
,
0000
0000
0301
0010
0100
0000
1000
0000
0001
0010
0000
0110
0000
0000
1000
0000
,
0001
0000
1000
0100
1000
0000
0001
0100
0001
0000
1000
0001
1000
0000
0001
0000
,
0100
0000
0010
1000
0001
0000
0001
0010
0100
1000
0100
0010
0001
0000
0000
0000
,
1001
0000
1000
0001
0100
0000
1000
0000
0100
0010
0100
0001
0000
0000
0011
0000
,
0000
0000
0010
0100
0010
0000
0001
0000
1000
0000
0010
0000
0110
0000
0100
0000
,
0000
0000
0100
0000
0001
0000
0000
1000
0100
0000
0010
0100
1000
0001
0200
0000
,
0000
0000
1300
0100
0001
0000
1000
0100
0001
0000
1000
0010
0001
0000
1000
0010
,
0001
1000
0100
0020
0000
0000
1030
0000
0001
0000
1000
0100
1000
0100
0002
0000
,
0000
0000
0103
0000
1000
0000
0020
0000
0000
0000
0130
0001
1000
0000
1010
0000
,
0000
0001
0101
1000
1100
0010
0110
2001
,
0000
0000
3001
0000
0100
0000
0002
0000
1003
0000
0100
0010
0001
0010
0001
0000
,
0011
0000
0000
0001
1000
0000
0010
0100
0010
0000
0100
0001
1000
0000
0100
0000
,
0000
0000
0100
0000
1000
0001
0010
0000
0100
0000
1000
0100
0001
0100
0001
0100
,
1000
0000
0010
0100
0010
0000
0001
0000
1000
0000
0100
0010
0100
0000
0002
0000
,
0000
0000
1003
0000
0010
0000
1000
0000
0100
0000
1000
0000
0001
0010
0100
1000
,
0010
0000
0000
0000
0000
0000
0000
0000
0000
0000
0000
0000
0000
0000
0000
0000
0000
0000
0000
0000
0000
0000
0000
0000
0100
0000
0000
0000
0000
0000
0000
0000
0000
0000
0000
0000
0000
0000
0000
0000
0000
0000
0000
0000
0000
0000
0000
0000
0101
0000
0000
0000
0000
0000
0000
0000
0000
0000
0000
0000
0000
0000
0000
0000
0000
0000
0000
0000
0000
0000
0000
0000
0001
0000
0000
0000
0000
0000
0000
0000
0000
0000
0000
0000
0000
0000
0000
0000
0000
0000
0000
0000
0000
0000
0000
0000
1001
0000
0000
0000
0000
0000
0000
0000
0000
0000
0000
0000
0000
0000
0000
0000
0000
0000
0000
0000
0000
0000
0000
0000
1000
0000
0000
0000
0000
0000
0000
0000
0000
0000
0000
0000
0100
0000
0000
0000
0000
0000
0000
0000
0000
0000
0000
0000
0010
0000
0000
0000
0000
0000
0000
0000
0000
0000
0000
0000
0000
0000
0000
0000
0000
0000
0000
0000
0000
0000
0000
0000
0220
0330
0000
0000
0000
0000
0000
0000
0000
0000
0000
0000
0000
0000
0000
0000
0000
0000
0000
0000
0000
0000
0000
0000
,
0022
0033
0000
0000
0000
0000
0000
0000
0000
0000
0000
0000
0000
0000
0000
0000
0000
0000
0000
0000
0000
0000
0000
0000
2002
3003
0000
0000
0000
0000
0000
0000
0000
0000
0000
0000
0000
0000
0000
0000
0000
0000
0000
0000
0000
0000
0000
0000
0020
0000
0000
0000
0000
0000
0000
0000
0000
0000
0000
0000
0000
0000
0000
0000
0000
0000
0000
0000
0000
0000
0000
0000
0100
0000
0000
0000
0000
0000
0000
0000
0000
0000
0000
0000
0000
0000
0000
0000
0000
0000
0000
0000
0000
0000
0000
0000
0130
0000
0000
0000
0000
0000
0000
0000
0000
0000
0000
0000
0000
0000
0000
0000
0000
0000
0000
0000
0000
0000
0000
0000
0110
0000
0000
0000
0000
0000
0000
0000
0000
0000
0000
0000
0000
0000
0000
0000
0000
0000
0000
0000
0000
0000
0000
0000
0010
0000
0000
0000
0000
0000
0000
0000
0000
0000
0000
0000
0000
0000
0000
0000
0000
0000
0000
0000
0000
0000
0000
0000
1000
0000
0000
0000
0000
0000
0000
0000
0000
0000
0000
0000
0000
0000
0000
0000
0000
0000
0000
0000
0000
0000
0000
0000
,
0001
1000
0001
1000
0001
0101
1000
1100
,
0001
0000
0011
0000
1000
0000
1010
0000
0001
0000
1000
0010
0100
0010
1000
0010
,
0100
0000
0001
0000
0010
0000
0100
0000
0000
0000
0000
0000
1200
0000
0000
0000
0000
0000
0010
0000
0000
0000
0000
0000
1300
0000
0000
0000
0000
0000
1001
0000
0000
0000
0000
0000
0001
0000
0000
0100
0000
0000
0010
0000
0000
0000
0000
0000
,
0010
1000
0001
0000
0010
0100
0000
0000
1100
0000
0000
0000
0001
1000
0010
0000
,
0200
0000
1000
0000
0310
0000
0100
0000
0010
0000
0110
0000
0100
0001
0010
0000
,
0100
1000
0010
0000
0000
0110
0000
0000
1002
0000
0000
0000
0013
0100
1000
0000
,
0001
0000
0010
0000
0100
1000
0100
1000
0100
1000
0001
0000
0100
0000
1010
0000
,
0000
1000
0010
0101
0000
1010
0001
1000
,
0011
0000
0000
0000
0010
0000
0100
0000
0020
0000
0000
0000
0031
1000
0100
0010
,
0001
0000
0100
0000
1000
0000
0100
0000
0002
0000
0000
0000
0013
0100
0010
0000
,
0100
1000
0100
1000
0001
0100
0001
0000
0100
0000
0110
0000
0100
0001
1000
0000
,
1000
0100
0010
0000
0000
0011
0000
0000
0110
0000
0000
0000
0100
1000
0001
0000
,
0100
0000
0000
0000
0000
0000
0010
0000
0000
1000
0000
0000
0010
0000
0000
0100
0000
0000
1000
0000
0000
0100
0000
0000
0001
0000
0010
0000
0100
0000
1000
0000
0000
0000
0000
0000
0001
0000
0000
1000
0000
0000
0100
0000
0000
0010
0000
0000
,
0001
1000
0010
0100
0001
1000
0100
0000
0110
0000
0000
0000
0011
0000
0110
0000
,
1100
0000
1000
0010
0100
0001
0010
0100
1000
0001
2000
0000
3010
0100
0020
0000
,
1030
0001
2000
0000
3100
0010
0200
0000
1300
0001
2000
0000
3010
0100
0010
0100
,
0002
0000
1000
1000
0023
0000
0130
1000
,
0100
0001
0100
1000
0010
0000
0100
0001
,
1001
0000
0000
0000
0001
0000
1000
0100
1000
0100
0010
0000
0100
0000
1100
0000
,
1000
1010
0110
0100
0101
0000
1001
0000
,
1010
0000
0000
0000
0101
0000
0001
1000
0001
1000
0010
0000
0200
0000
0000
0000
,
0302
0000
0023
0000
0230
0000
2300
0000
3002
0000
0000
0000
0103
0010
0100
0000
,
1000
0000
0100
0001
0010
0100
2000
0000
0010
0000
0000
0000
3010
0100
0002
0000
,
0023
0000
0130
1000
0010
0000
0100
0000
0101
0000
0000
0000
0000
0000
0000
0000
;
