#TITLE:Happy Ever After feat. 由薫;
#SUBTITLE:;
#ARTIST:鷲尾伶菜;
#TITLETRANSLIT:Happy Ever After;
#SUBTITLETRANSLIT:;
#ARTISTTRANSLIT:Washio Reina;
#GENRE:ANIME;
#CREDIT:;
#MUSIC:Happy Ever After.ogg;
#BANNER:Happy Ever After.png;
#BACKGROUND:Happy Ever After-bg.png;
#CDTITLE:;
#SAMPLESTART:53.539;
#SAMPLELENGTH:9.768;
#SELECTABLE:YES;
#OFFSET:1.442;
#BPMS:0.000=107.491
,10.500=214.982
,10.750=107.491
,11.750=214.982
,12.000=107.491
;
#STOPS:10.500=0.070
,11.750=0.035
,11.875=0.035
;
#DISPLAYBPM:107.491;
#LASTBEATHINT:0.754861;
#BGCHANGES:2.000=Happy Ever After.avi=1.000=0=0=0=StretchNoLoop====,
99999.000=-nosongbg-=1.000=0=0=0=StretchNoLoop====
;
#FGCHANGES:;

//--------------- dance-single - ----------------
#NOTES:
     dance-single:
     :
     Medium:
     11:
     0,0,0,0,0:
0000
0000
0000
0000
,
0002
1000
0000
2003
3020
0230
0000
0001
,
0320
0000
2030
0000
0000
0000
0000
0000
0000
0000
3001
0100
0000
0010
0000
0100
,
0002
2003
3200
0320
0032
1000
0000
0000
,
2003
0000
3020
0000
0000
0000
0000
0000
0130
0000
0000
0001
0000
1000
0100
0000
,
0010
0000
0001
0000
1000
0000
0001
0100
0001
0000
1000
0000
0001
0000
0010
0000
,
0100
1000
0000
0001
0000
1000
0000
0001
0100
0000
0100
0010
0000
0000
1000
0000
,
1100
1000
0010
0100
0101
0001
0010
0100
,
1000
0000
0000
0000
0001
0100
0000
0010
0000
0000
0100
0000
0001
1000
0000
0000
,
1000
0000
0100
0000
0001
0000
0100
0000
1000
0000
0001
0000
0100
0010
0000
0100
,
0000
0000
0001
0000
1000
0100
0000
0001
0000
0000
0100
0000
1000
0010
0000
0110
,
0000
0000
0100
0001
1000
0000
0001
0000
0010
0100
0000
0010
0000
0001
1000
0000
,
1200
0000
0000
0001
0000
0000
1000
0000
0320
0000
0000
0000
0031
0000
0000
0000
,
1001
0000
0001
0000
0100
0000
1000
0000
0100
0000
0001
0000
1000
0100
0000
0010
,
0000
0000
0100
0000
1000
0000
0010
0000
0001
0000
0010
0000
1000
0100
0000
0010
,
0000
0000
0000
0001
1000
0001
0000
0100
0000
0000
0010
0000
1000
0000
0001
0000
,
0010
0000
0100
0000
1000
0001
0000
1000
0000
0000
0000
0000
0010
0000
0100
0000
,
0010
0000
1000
0001
1000
0000
0001
0010
,
0001
0000
1000
0100
1000
0000
0001
1000
,
0200
0320
0032
2003
,
3002
0000
0203
0000
0320
0000
1030
0001
,
0200
0000
0000
0000
0000
0000
0310
0000
0000
0000
1000
0000
0001
0100
0000
0000
,
0010
0000
1000
0000
0001
0010
0000
0100
0000
0000
1000
0000
0010
0100
0010
0000
,
1000
0000
1000
0000
0001
0000
0001
0000
0100
0000
0100
0010
0100
0000
0110
0000
,
1000
0000
0001
0010
0000
0110
0000
1001
0000
0000
0000
0001
0000
1000
0100
1000
,
0100
0000
0010
0000
0001
0000
1000
0001
1000
0000
0000
0010
0000
0100
0001
0000
,
1000
0000
0001
0000
1000
0100
0000
0010
0000
0001
1000
0000
0010
0000
0100
0001
,
1000
0000
0100
0000
0010
0001
0000
2000
0000
0000
3010
0000
0100
0000
0001
0000
,
0101
0000
0000
0000
1010
0000
0000
0000
1100
0000
0000
0000
1000
0001
0100
0001
,
0100
0000
0110
0000
0010
0000
1000
0001
0010
0000
0000
0100
0000
1000
0001
1000
,
0001
0000
0010
0000
0000
0000
0100
0000
0000
0000
0100
0000
0000
0000
1000
0000
0001
0000
0000
0100
0000
0000
0001
0000
0020
0000
0000
0000
0100
0000
0000
0000
,
0032
0100
2003
0100
3002
0010
2003
0010
,
3001
0100
0010
0000
0110
0000
0110
0000
1000
0001
0010
0000
0100
0000
1000
0000
,
0001
0100
1000
0100
0002
0000
1003
0100
,
0001
0000
0100
0000
1000
0010
1000
0010
0000
0100
0000
0001
0000
1000
0100
1000
,
0000
0001
0100
0001
0000
1000
0010
1000
0000
0001
0010
0100
0000
1000
0000
0020
,
0000
0000
0000
0000
0000
0000
0130
0001
2000
0000
0000
0000
3001
0000
0000
0000
,
1000
0010
0100
0001
1000
0000
0001
1000
,
0100
0010
0000
0010
0000
0000
0001
0000
1000
0010
0000
0000
0100
0001
1000
0000
,
0001
0000
0000
0000
0010
0100
0010
0000
0001
1000
0000
0000
0001
0010
0100
1000
,
0002
0000
0000
0000
,
0003
0000
0000
0000
;

//--------------- dance-single - ----------------
#NOTES:
     dance-single:
     :
     Hard:
     14:
     0,0,0,0,0:
0000
0000
0000
0000
,
0001
2000
0000
3020
0230
0320
0000
1030
,
0001
0000
0020
0000
0000
0000
0000
0000
0000
0000
0130
1000
0000
0001
0000
0100
,
0020
2030
3200
0320
0032
0100
0000
0003
,
1000
0000
0020
0000
0000
0000
0000
0000
0130
0000
0000
0100
0000
0001
1000
0100
,
0010
0000
0110
0000
0100
0000
1000
0100
0001
0000
0100
0010
0000
0100
1000
0010
,
0100
0010
0000
1000
0000
0001
0000
0010
0100
0000
1000
0001
0000
0001
0100
0000
,
1000
0000
0200
0000
0320
0000
2030
0000
3200
0000
0320
0000
0032
0000
1003
0010
,
0000
0100
0001
1000
0100
0010
0000
0010
0001
0100
1000
0100
0001
0100
1000
0100
,
0001
0000
1000
0100
1000
0100
0010
0000
0100
0000
1000
0001
0100
0010
0000
0110
,
0000
0000
1001
0000
0001
0100
0000
1000
0000
0100
0010
0000
1000
0100
0000
0011
,
0000
0000
1000
0001
0100
0000
0010
1000
0001
0010
0000
1100
0000
1000
0010
0000
,
0100
0000
0001
1100
0000
1000
0101
0000
0110
0000
1000
0110
0000
0010
1001
0000
,
1001
0000
0001
0010
0100
1000
0001
0000
0100
0010
0100
0000
0001
1000
0000
0100
,
0000
0010
0001
1000
0010
0000
0100
0001
0010
0000
0100
1000
0001
0100
0000
0101
,
0000
0001
1000
0010
0001
1000
0000
0100
0001
0010
0100
1000
0001
0000
1000
0100
,
0001
0000
0100
0000
1000
0010
0100
0001
0010
0000
0100
0000
1000
0000
0100
0000
,
1100
1000
0001
0100
0101
0001
0010
0100
,
0011
0000
1000
0000
0010
0000
0100
0000
1010
0000
0001
0000
0010
0000
0100
1000
,
0001
0100
0011
0001
1010
0010
1100
1000
,
0101
0000
1000
0001
1000
0000
0010
0100
0010
0100
0001
0000
0011
0000
1100
0000
,
0020
0000
0000
0000
0000
0000
0130
0000
0000
0000
0001
0000
1000
0100
0000
0000
,
1000
0000
0010
0000
0100
0001
0000
0001
0010
0100
1000
0000
1000
0100
0010
0000
,
1001
0000
0001
0010
0100
0000
1000
0010
0100
0000
0001
0000
0110
0000
0110
0000
,
1000
0010
0100
0001
0000
0110
0000
1001
0000
0000
0000
1000
0000
0001
0010
0100
,
1000
0000
0010
0000
0100
0000
0010
1000
0001
0000
0010
0100
0000
1000
0010
0001
,
0010
1000
0001
0100
1000
0100
0000
0110
0000
0010
1000
0001
0010
0100
1000
0100
,
0001
0000
1000
0010
0001
1000
0010
0110
0000
0000
1001
0000
0001
1000
0100
0000
,
1000
0001
0100
0100
1000
0001
0010
0010
1000
0100
0100
0001
1000
0010
0010
0001
,
1000
0000
0110
0000
0010
0000
1000
0100
0001
0000
0000
0100
1000
0010
0100
0010
,
0001
0000
0001
0000
1000
0000
0100
0000
0001
0000
1000
0000
1000
0000
0100
0000
0010
0000
0000
0100
0000
0000
0010
0000
0110
0000
0000
0000
0100
0000
0000
0000
,
2000
0100
3010
0001
2000
0100
3010
0001
2000
0100
3010
0001
2000
0100
3010
0001
,
1000
0100
0001
0000
0101
0000
0100
1000
0010
0100
0010
0100
1000
0000
0100
0000
,
0101
0000
0001
0000
0011
0000
1000
0100
0010
0000
0010
0000
1100
0000
1000
0000
,
1010
0000
0001
0000
1000
0010
0100
0001
0000
0101
0000
1100
0000
1000
0100
0010
,
0000
0100
1000
0001
0000
0100
1000
0100
0000
0010
1000
0001
0000
0010
0000
0200
,
0000
0000
0000
0000
0000
0000
0310
0001
1000
0000
0001
0000
1000
0000
0001
0000
,
0100
0000
0010
1000
0001
0000
0010
0100
1000
0001
0000
0000
0101
0000
1010
0000
,
0010
1000
0100
0010
0000
0000
0100
1000
0001
0100
0000
0100
0010
1000
0001
0000
,
1001
0000
1000
0000
0001
0010
0100
1000
0001
0100
0000
0100
0010
0100
1000
0100
,
0001
0010
0100
1000
0002
0000
0000
0000
,
0003
0000
0000
0000
;

//--------------- dance-single - ----------------
#NOTES:
     dance-single:
     :
     Challenge:
     17:
     0.506889,0.385246,0,0,0,320,320,0,0,0,0,0.506889,0.385246,0,0,0,320,320,0,0,0,0:
0000
0000
0000
0000
,
1010
0102
0000
0023
0230
0320
0000
0031
,
0011
0000
0000
0000
2100
0000
0000
0000
0000
0000
0000
0000
0000
0000
0000
0000
0000
0000
0000
0000
3010
0000
0100
0000
0000
0000
0001
0000
0000
0000
1000
0100
,
1000
2010
3002
0203
0302
0020
0000
0033
,
0011
0000
2100
0000
0000
0000
0000
0000
3010
0000
0000
0001
0000
1000
0010
0100
,
0001
0000
0000
0000
0000
0000
1100
0000
0000
0001
0000
0000
0010
0000
0000
0000
0000
0000
0100
0000
1000
0000
0001
0000
0100
0000
0000
0110
0000
0000
0001
0000
0000
0000
0000
0000
1010
0000
0000
0000
0000
0000
0101
0000
0000
0000
0000
0000
,
0002
0000
0000
0000
0000
0000
1003
0000
0000
0100
0000
0000
0000
0000
0000
0100
0000
0000
1000
0000
0010
0000
0100
0000
0001
0000
0000
0010
0000
0000
0000
0000
0000
0010
0000
0000
0001
0000
0000
1000
0000
0000
0020
0000
0000
0000
0000
0000
,
0130
0001
0000
0110
0000
1000
0010
0000
0100
0001
0000
1000
0100
0010
0001
1000
,
0001
0000
0000
0100
0000
0000
0001
0000
0000
0100
0000
0000
0001
0000
0000
0100
0000
0000
0001
0000
0000
0100
0000
0000
0020
0000
0000
0000
0000
0000
0000
0000
0000
0000
0000
0000
0000
0000
0000
0000
0000
0000
0000
0000
0000
0000
0000
0000
1030
0000
0000
0000
0100
0000
0000
0000
0010
0000
0000
0000
0001
0000
0000
0000
1000
0000
0000
0000
0001
0000
0000
0000
0010
0000
0000
0000
0100
0000
0000
0000
1000
0000
0000
0000
0001
0000
0000
1000
0000
0000
0100
0000
0000
0010
0000
0000
,
0001
0000
0000
0000
0000
0000
0000
0000
0000
0000
0000
0000
0100
0000
0000
0000
0000
0000
0001
0000
0000
0000
0000
0000
1000
0000
0000
0010
0000
0000
1000
0000
0000
0010
0000
0000
0100
0000
0000
0000
0000
0000
0000
0000
0000
0000
0000
0000
0101
0000
0000
0000
0000
0000
0000
0000
0000
0000
0000
0000
0001
0000
0000
0000
0010
0000
0000
0000
0100
0000
0000
0000
1000
0000
0000
0000
0000
0000
0010
0000
0000
0000
0000
0000
0000
0000
0000
0000
0000
0000
0000
0000
0000
0000
0000
0000
,
0110
0000
0000
0000
0000
0000
0100
0001
1000
0000
0100
0000
0001
0000
0100
0000
1000
0000
0000
0000
0001
0000
0100
0000
1000
0000
0100
0000
0000
0000
0110
0000
,
0001
0000
0000
0000
0000
0000
1000
0000
0000
0110
0000
0000
0000
0000
0000
0001
0000
0000
0010
0000
0000
0100
0000
0000
1000
0000
0000
0001
0000
0000
0000
0000
0000
0100
0000
0000
0001
0000
0010
0000
0100
0000
1000
0000
0000
0000
0000
0000
,
1100
0000
0000
0000
0000
0000
0011
0000
0000
0000
0000
0000
1100
0000
0000
0000
0101
0000
0000
0000
0001
1000
0001
1000
0100
0000
0000
0000
0010
0000
0000
0000
,
1001
0000
0010
1000
0100
0010
2000
0000
3001
0100
1000
0001
0101
1020
0000
1030
,
0001
0000
0100
0000
1000
0000
0100
0010
0100
0000
0001
0000
1000
0000
0100
0000
0002
0000
0000
0000
0103
0010
0100
0010
0001
0000
1000
0000
0000
0000
0100
0000
,
1100
0000
0000
1000
0000
0000
0000
0000
0000
0001
0000
0000
1000
0000
0000
0001
0000
0000
1000
0000
0100
0000
0010
0000
0100
0000
1000
0000
0100
0000
0010
0000
0001
0000
1000
0000
0010
0000
0000
0100
0000
0000
1000
0000
0000
0100
0000
0000
,
0002
0000
0000
0023
0000
0000
0130
1000
0001
1000
0100
0010
0001
1000
0100
0010
0000
0000
0001
0000
0000
0011
0000
0000
,
1100
0000
0000
1000
0010
0100
0001
0000
0000
1010
0000
0000
0201
0000
0000
0010
0000
0000
0301
0000
0000
1000
0100
0010
,
0001
0000
0000
0000
0000
0000
1000
0000
0010
0000
0100
0000
0001
0000
0000
0000
0000
0000
1001
0000
0000
0000
0000
0000
1000
0000
0000
0010
0000
0000
1000
0000
0000
0010
0000
0000
0001
0000
0000
1000
0000
0000
0100
0000
0000
0001
0000
0000
,
0021
0130
1020
0130
0201
0310
1200
0310
,
1002
0000
0000
0000
1003
0100
0010
0001
1000
0000
0000
0000
0001
0000
1000
0000
0001
0100
0010
1000
0001
0000
0000
0000
0110
0000
0000
0000
1001
0000
0000
0010
,
0200
0000
0000
0000
0000
0000
0000
0000
0000
0320
0000
0000
0000
0000
0000
1030
0000
0000
0001
0010
0001
0010
0000
0000
,
0100
0000
0000
0000
0000
0000
0000
0000
0000
0000
0000
0000
1000
0000
0000
0000
0000
0000
0000
0000
0000
0000
0000
0000
0010
0000
0000
0000
0000
0000
0000
0000
0100
0000
0000
0000
0000
0000
0000
0000
0000
0000
0000
0000
0100
0000
0000
0000
0001
0000
0000
0000
0100
0000
0000
0000
0001
0000
0000
0000
1000
0000
0000
0000
0000
0000
0000
0000
0000
0000
0000
0000
0001
0000
0000
0010
0000
0000
0100
0000
0000
1000
0000
0000
0001
0000
0000
0010
0000
0000
0100
0000
0000
1000
0000
0000
,
0001
0000
0000
0110
1000
0001
0010
0000
0000
0110
0000
0000
0110
0001
1000
0010
0000
0000
0110
0000
0000
1010
0000
0000
,
0101
0000
0000
0000
0001
0000
0000
0000
0010
0000
0000
0000
0100
0000
0000
0000
0000
0000
1000
0000
0000
0000
0000
0000
0000
0000
0000
0000
0000
0000
0110
0000
0000
0000
0000
0000
0000
0000
0000
0000
0000
0000
1001
0000
0000
0000
0000
0000
0000
0000
0000
0000
0000
0000
0000
0000
0000
0000
0000
0000
0000
0000
0000
0000
0000
0000
0001
0000
0000
0000
0000
0000
0000
0000
0000
0000
0000
0000
1000
0000
0000
0000
0000
0000
0001
0000
0000
0100
0000
0000
0001
0000
0000
0100
0000
0000
,
0010
0000
0000
0000
0000
0000
1010
0000
0100
0000
0001
0000
0010
0000
0000
0100
0000
0000
1000
0000
0000
1100
0000
0000
0000
0000
0000
0011
0000
0000
0001
0000
0000
1000
0000
0000
0001
0000
0000
0010
0000
0000
0110
0000
0000
1000
0000
0000
,
0001
0000
0000
0000
0000
0000
0010
0000
0000
0000
0000
0000
0100
0000
0000
0000
0000
0000
1000
0000
0000
0000
0000
0000
0001
0000
0000
0000
0000
0000
0101
0000
0000
0000
0000
0000
0000
0000
0000
0000
0000
0000
1010
0000
0000
0000
0000
0000
0000
0000
0000
0000
0000
0000
0001
0000
0000
0000
0000
0000
1000
0000
0000
0000
0000
0000
0010
0000
0000
0000
0000
0000
0100
0000
0000
0010
0000
0000
0100
0000
0000
0010
0000
0000
1000
0000
0000
0000
0100
0000
0000
0000
0010
0000
0000
0000
,
0001
0000
1001
0100
0010
0100
0010
1001
0000
0000
0011
0000
1100
1000
0010
0000
,
1010
0000
0000
0000
0000
0000
1000
0000
0000
0000
0000
0000
0100
0000
0000
0000
0000
0000
0010
0000
0000
0000
0000
0000
0011
0000
0000
0000
0000
0000
1100
0000
0000
0000
0000
0000
0001
0000
0000
0000
0000
0000
0100
0000
0000
0000
0000
0000
1010
0000
0000
0000
0000
0000
0101
0000
0000
0000
0000
0000
1000
0000
0000
0000
0000
0000
0100
0000
0000
0000
0000
0000
0010
0000
0000
0000
0001
0000
0000
0000
0010
0000
0000
0000
0100
0000
0000
1000
0000
0000
0001
0000
0000
1000
0000
0000
,
0001
0000
0000
0000
0110
0000
0000
0000
0101
0000
1000
0000
0010
0000
0100
0000
1010
0000
0001
0000
0010
0100
1000
0001
1000
0000
0010
0000
0100
0000
0001
0000
,
1000
0000
0000
0100
0000
0000
1000
0000
0000
0001
0000
0000
1000
0000
0000
0000
0000
0000
0010
0000
0000
0000
0000
0000
0100
0000
0000
0000
0000
0000
0001
0000
0000
0000
0000
0000
0010
0000
0000
0000
0000
0000
0100
0000
0000
0000
0000
0000
1100
0000
0000
0000
0000
0000
0000
0000
0000
0110
0000
0000
0000
0000
0000
0000
0000
0000
0011
0000
0000
0000
0000
0000
1001
0000
0000
0000
0001
0000
0000
0000
0100
0000
0000
0000
0010
0000
0000
0000
1000
0000
0000
0000
0100
0000
0000
0000
,
1100
0001
1000
0010
0101
1000
0001
0010
1100
0001
1000
0010
0101
1000
0001
0010
,
1100
0110
0110
0000
1001
0000
0001
0010
0100
1100
0101
0110
0110
0001
1000
0100
,
1100
0000
0000
0000
1000
0000
0000
0000
0010
0000
0000
0000
0100
0000
0000
0000
0000
0000
0000
0000
0000
0000
0000
0000
0101
0000
0000
0000
0000
0000
1000
0000
0000
0000
0000
0000
0001
0000
0000
0010
0000
0000
0001
0000
0000
0010
0000
0000
0100
0000
0000
0000
0000
0000
1000
0000
0000
0000
0000
0000
1100
0000
0000
0000
0000
0000
0000
0000
0000
0000
0000
0000
0011
0000
0000
0000
0000
0000
1000
0000
0000
0000
0000
0000
0100
0000
0000
0000
0000
0000
1000
0000
0000
0000
0000
0000
,
0011
0000
0110
0000
1100
0001
1000
0101
0000
1100
0000
0101
0000
1000
0001
0110
,
0000
0010
0100
1001
0000
0001
1000
0110
0000
0001
1000
0001
0000
0010
0000
0100
,
1000
0000
0000
0100
0000
0000
0010
0000
0000
0100
0000
0000
1000
0000
0000
0100
0000
0000
0010
0000
0000
0001
0000
0000
0010
0000
0000
0100
0000
0000
0010
0000
0000
0001
0000
0000
1000
0000
0000
0100
0000
0000
0010
0000
0000
0001
0000
0000
1000
0000
0000
0000
0100
0000
0000
0000
0010
0000
0000
0000
0100
0000
0000
0000
1000
0000
0000
0000
0100
0000
0000
0000
0010
0000
0000
0000
0001
0000
0000
0000
0010
0000
0000
0000
0100
0000
0000
1000
0000
0000
0001
0000
0000
1000
0000
0000
,
0020
0000
0000
0000
0000
0000
1030
0000
0000
0001
0000
0000
0101
0000
0000
0000
0000
0000
0100
0000
0010
0000
0100
0000
0001
0000
0000
1000
0000
0000
0100
0000
0000
0000
0000
0000
0011
0000
0000
0000
0000
0000
1100
0000
0000
1000
0000
0000
,
0010
0000
0000
0001
0000
0000
0010
0000
0000
1000
0000
0000
0000
0000
0000
1000
0000
0000
0001
0000
0010
0000
0100
0000
1000
0000
0000
0100
0000
0000
0000
0000
0000
0100
0000
0000
0010
0000
0000
0001
0000
0000
1000
0000
0000
0000
0000
0000
,
0101
0000
0000
0000
0000
0000
0000
0000
0000
0000
0000
0000
1000
0000
0000
0010
0000
0000
0000
0000
0000
0000
0000
0000
0100
0000
0000
0001
0000
0000
0010
0000
0000
0100
0000
0000
1000
0000
0000
0000
0000
0000
0001
0000
0000
0000
0000
0000
1000
0000
0000
0000
0000
0000
0001
0000
0000
0000
0000
0000
0000
0000
0000
1000
0000
0000
0010
0000
0000
0000
0000
0000
0100
0000
0000
0000
0000
0000
0001
0000
0000
0000
0000
0000
1000
0000
0000
0000
0100
0000
0000
0000
0010
0000
0000
0000
,
0001
0000
0000
0000
1000
0010
0000
0000
0100
0010
0000
0000
1000
0001
0000
0000
0010
0200
0000
0000
0000
0000
0000
0000
0000
0000
0000
0000
0000
0000
0000
0000
,
0300
0000
0000
0000
;
