#TITLE:Happiness World;
#SUBTITLE:;
#ARTIST:宝鐘マリン/白上フブキ;
#TITLETRANSLIT:Happiness World;
#SUBTITLETRANSLIT:;
#ARTISTTRANSLIT:Houshou Marine / Shirakami Fubuki;
#GENRE:POP;
#CREDIT:;
#MUSIC:Happiness World.ogg;
#BANNER:Happiness World.png;
#BACKGROUND:Happiness World-bg.png;
#CDTITLE:;
#SAMPLESTART:55.426;
#SAMPLELENGTH:13.400;
#SELECTABLE:YES;
#OFFSET:1.574;
#BPMS:0.000=150.000;
#STOPS:36.000=0.200
,36.500=0.200
,37.000=0.200
,37.500=0.200
;
#LASTBEATHINT:1.435000;
#BGCHANGES:5.125=Happiness World.avi=1.000=0=0=0=StretchNoLoop====,
99999.000=-nosongbg-=1.000=0=0=0=StretchNoLoop====
;
#FGCHANGES:;

//--------------- dance-single - ----------------
#NOTES:
     dance-single:
     :
     Hard:
     12:
     0,0,0,0,0:
0000
0000
0000
0000
,
0000
0000
0000
0000
,
0001
0000
0100
0000
1000
0000
0100
0000
0002
0000
0000
0010
0000
0000
1003
0000
,
1000
0000
0100
0000
0001
0000
0100
0000
2000
0000
0000
0010
0000
0000
3001
0000
,
0001
0000
0100
0000
1000
0000
0100
0000
0002
0000
0000
0100
0000
0000
0013
0000
,
0100
0100
1000
1000
0010
0010
0100
0100
,
0010
0000
1001
0000
0000
0000
0000
0000
0011
0000
0000
0110
0000
0000
1100
0000
,
0001
0000
1001
0000
0000
0000
0000
0000
1010
0000
0000
0110
0000
0000
0101
0000
,
1000
0000
1001
0000
0000
0000
0000
0000
0011
0000
0000
0110
0000
0000
1000
0000
,
2200
3300
0000
0000
0000
0000
0000
0000
0000
0000
0000
0000
0000
0000
0000
0000
0000
0000
0000
0000
0000
0000
0000
0000
0202
0303
0000
0000
0000
0000
0000
0000
0000
0000
0000
0000
0000
0000
0000
0000
0000
0000
0000
0000
0000
0000
0000
0000
0022
0033
0000
0000
0000
0000
0000
0000
0000
0000
0000
0000
0000
0000
0000
0000
0000
0000
0000
0000
0000
0000
0000
0000
2002
3003
0000
0000
0000
0000
0000
0000
0000
0000
0000
0000
0000
0000
0000
0000
0000
0000
0000
0000
0000
0000
0000
0000
0001
0000
0000
0000
0000
0000
0000
0000
0000
0000
0000
0000
0000
0000
0000
0000
0000
0000
0000
0000
0000
0000
0000
0000
0100
0000
0000
0000
0000
0000
0000
0000
0000
0000
0000
0000
0000
0000
0000
0000
0000
0000
0000
0000
0000
0000
0000
0000
1000
0000
0000
0000
0000
0000
0000
0000
0000
0000
0000
0000
0000
0000
0000
0000
0000
0000
0000
0000
0000
0000
0000
0000
0100
0000
0000
0000
0000
0000
0000
0000
0000
0000
0000
0000
0000
0000
0000
0000
0000
0000
0000
0000
0000
0000
0000
0000
,
0010
0000
0000
1000
0000
0000
0100
0000
0010
0000
0000
0100
0000
0000
2000
0000
,
0000
0001
3001
0000
1000
0100
0001
0100
,
0010
0000
0000
0001
0000
0000
1000
0000
0010
0000
0000
0100
0000
0000
0002
0000
,
0000
1000
1003
0000
0001
0100
1000
0001
,
0010
0000
0000
0100
0000
0000
0001
0000
0010
0000
0000
0100
0000
0000
2000
0000
,
0000
0001
3001
0000
0011
0000
1100
0000
,
1010
0000
0000
0000
0101
0000
0000
0000
0001
0010
0000
0100
0010
0000
0001
1000
,
0000
1001
1001
0000
0001
0100
0001
0000
,
1000
0010
1000
0000
0001
1000
0001
0010
,
0100
0000
1001
0000
1000
0100
1000
0000
,
0001
0010
0001
0000
1001
0000
0110
0000
,
1001
0000
0110
0000
1000
0001
0100
0000
,
0001
1000
0100
0000
0010
0001
0100
0010
,
1000
0000
0001
0000
0010
0100
0010
0000
,
0001
0000
1000
0000
0001
0000
0000
0000
0100
0000
0010
0000
0100
0000
0001
1000
,
0000
0001
0010
0001
2000
0000
0010
3020
,
0000
0130
0001
0010
0200
0000
1000
2300
,
0000
3001
0100
0001
0020
0000
0100
0230
,
0000
1300
0001
0100
1010
0000
0011
0000
,
0101
0000
1001
0000
1000
0100
1000
0001
,
0100
0002
1000
1003
0001
0010
0001
1000
,
0010
2000
0001
3001
0020
0000
0230
0000
,
2300
3002
0203
2300
,
3200
0301
0011
1100
,
1010
0000
0100
0001
0000
0001
0010
0100
,
1001
0000
1001
0000
0001
0100
1000
0100
,
0001
0100
1000
0002
0000
0013
1000
0100
,
0010
0011
1001
0000
1000
0100
1000
0100
,
0010
0000
0000
0001
0000
0000
0100
0000
0010
0000
1000
0000
0010
0000
1000
0000
,
1010
0000
1001
0000
0110
0000
0001
0010
,
0000
0100
1000
0010
0000
0100
0001
1000
,
0100
0001
0100
1000
0001
0100
0101
0000
,
1000
0000
0100
0000
1100
0000
0000
0000
0011
0000
0000
0110
0000
0000
1100
0000
,
1001
0000
1001
0000
0001
0000
1000
0100
,
0000
0010
0001
1000
0000
0010
0100
0010
,
1000
0100
0002
0000
0103
1000
0001
0100
,
1000
0000
0000
0100
0000
0000
0001
0000
1000
0000
0100
0000
1000
0000
0001
0000
,
0011
0000
1100
0000
1001
0000
0001
0100
,
0000
0010
1000
0001
0000
0010
0100
0010
,
0001
1000
0001
0100
1000
0100
0110
0000
,
0100
0001
1001
0020
0000
0130
1000
0001
,
0101
0000
1010
0000
1000
0100
0010
0001
,
1000
0000
0010
0010
0000
0100
0001
1000
,
0100
0000
0010
0001
1000
0010
1010
0000
,
0001
0000
0100
0000
0101
0000
0000
0000
1010
0000
0000
0110
0000
0000
0011
0000
,
0011
0000
0000
0110
0000
0000
1010
0000
1010
0000
0000
0101
0000
0000
1010
0000
,
1001
0000
1001
0000
1000
0100
0001
0100
,
0010
0000
0000
0001
0000
0000
0100
0000
0010
0000
0000
0100
0000
0000
0002
0000
,
0000
1000
1003
0000
0001
0100
1000
0100
,
0010
0000
0000
1000
0000
0000
0001
0000
0010
0000
0000
0100
0000
0000
2000
0000
,
0000
0001
3001
0000
1000
0100
0001
1000
,
0010
0000
0000
0100
0000
0000
1000
0000
0010
0000
0000
0100
0000
0000
0002
0000
,
0000
1000
1003
0000
1010
0000
0101
0000
,
0011
0000
0000
0000
1100
0000
0000
0000
1000
0010
0000
0100
0010
0000
1000
0001
,
0000
0000
1001
0000
1001
0000
0000
0000
0011
0000
0000
0110
0000
0000
1010
0000
,
1010
0000
0000
0110
0000
0000
0011
0000
0011
0000
0000
1100
0000
0000
0011
0000
,
1001
1001
0000
0000
;

//--------------- dance-single - ----------------
#NOTES:
     dance-single:
     :
     Challenge:
     15:
     0.690993,0.528779,0,0,0,519,519,0,0,0,0,0.690993,0.528779,0,0,0,519,519,0,0,0,0:
0000
0000
0000
0000
,
0000
0000
0000
0000
,
0102
0000
0103
0000
1000
0010
0100
0000
0002
0000
0000
0100
0000
0000
0013
0000
,
2100
0000
3100
0000
0010
0001
1000
0000
0020
0000
0000
1000
0000
0000
0130
0000
,
0102
0000
0103
0000
1000
0001
0010
0000
0200
0000
0000
0010
0000
0000
1300
0000
,
0011
0001
1100
0100
1010
1000
0102
0103
,
0011
0000
1001
0000
0001
0010
0001
0010
0100
0000
1000
0010
0000
0100
0001
0000
,
1010
0000
1001
0000
1000
0010
1000
0010
0100
0000
0001
0010
0000
0100
1000
0000
,
0011
0000
1001
0000
0001
0100
0001
0100
0010
0000
1000
0100
0000
0001
0100
0000
,
2200
3300
0000
0000
0000
0000
0000
0000
0000
0000
0000
0000
0000
0000
0000
0000
0000
0000
0000
0000
0000
0000
0000
0000
0220
0330
0000
0000
0000
0000
0000
0000
0000
0000
0000
0000
0000
0000
0000
0000
0000
0000
0000
0000
0000
0000
0000
0000
0022
0033
0000
0000
0000
0000
0000
0000
0000
0000
0000
0000
0000
0000
0000
0000
0000
0000
0000
0000
0000
0000
0000
0000
2002
3003
0000
0000
0000
0000
0000
0000
0000
0000
0000
0000
0000
0000
0000
0000
0000
0000
0000
0000
0000
0000
0000
0000
0001
0000
0000
0000
0000
0000
0000
0000
0000
0000
0000
0000
0000
0000
0000
0000
0000
0000
0000
0000
0000
0000
0000
0000
0100
0000
0000
0000
0000
0000
0000
0000
0000
0000
0000
0000
0000
0000
0000
0000
0000
0000
0000
0000
0000
0000
0000
0000
1000
0000
0000
0000
0000
0000
0000
0000
0000
0000
0000
0000
0000
0000
0000
0000
0000
0000
0000
0000
0000
0000
0000
0000
0100
0000
0000
0000
0000
0000
0000
0000
0000
0000
0000
0000
0001
0000
0000
0000
0000
0000
0000
0000
0000
0000
0000
0000
,
1000
0000
0000
2100
0000
0000
3010
0000
0200
0000
0000
0301
1000
0000
2100
0000
,
0000
0000
0010
0000
3010
0000
0000
0000
0100
0000
0001
0000
1000
0000
0001
0010
,
0100
0000
0000
1200
0000
0000
0310
0000
0002
0000
1003
0010
0100
0000
0110
0000
,
0000
0000
1001
0000
1001
0000
0000
0000
1000
0000
0100
0000
0001
0000
0100
1000
,
0001
0000
0000
0102
0000
0000
0013
0000
0200
0000
0000
1300
0010
0000
0200
0000
,
0000
0000
0001
0000
0301
0000
0000
0000
0001
0010
0100
1000
0001
0010
0100
1000
,
0010
0100
0001
1000
0010
0100
0001
2000
0010
3020
0000
0100
0230
0000
0001
0301
,
0000
0000
1001
0000
1001
0000
0000
0000
0001
0000
0010
0000
0100
0000
1000
0010
,
1000
0010
0000
0110
0000
0000
0100
0000
0001
0000
1000
0000
0001
0000
0010
0100
,
0010
0100
0000
1100
0000
0000
1000
0001
0100
0000
1000
0000
0100
0000
0001
0010
,
0100
0010
0000
0002
0000
0000
1003
0000
1010
0000
0100
0000
0001
0000
0010
0000
,
0011
0000
0100
0000
1000
0000
0020
0000
0000
0000
0130
0000
0001
0000
1000
0100
,
1000
0010
0000
0101
0000
0001
0010
0000
0100
0000
1000
0000
0010
0000
0100
0001
,
1000
0001
0000
0011
0000
0000
0010
0100
0010
0000
0002
0000
0203
0000
2300
0000
,
3001
0010
0000
1020
0000
0000
1030
0000
0110
0000
0110
0000
0110
0000
0001
1000
,
0000
0000
0001
0010
0100
1000
0001
0000
0200
0000
0000
0310
1000
0000
0100
0000
,
0010
0000
0100
0000
1000
0000
1000
0000
0200
0000
0000
0310
0001
0000
0010
0000
,
0100
0000
1000
0000
0001
0000
0001
0000
0200
0000
0000
0310
1000
0000
0010
0000
,
0100
0100
0001
0001
0011
0000
1100
0000
,
1010
0000
0000
0000
0101
0000
0000
0000
0001
0100
0001
0100
0001
0000
1000
0100
,
1000
0100
2000
0000
0001
0000
3001
0000
1000
0010
1000
0010
1000
0000
0001
0010
,
0001
0010
0002
0000
1000
0000
1003
0000
0001
0010
0100
1000
0001
0010
0100
1000
,
0001
0100
0010
1000
0001
0100
0010
1000
0001
0010
0100
1000
0001
0010
0100
1000
,
0001
0100
0010
1000
0001
0100
0010
1000
0001
0000
1000
0100
1000
0000
0001
0100
,
0001
0000
1000
0100
1000
0000
0001
0010
0100
0010
0100
1000
0001
0100
0010
0100
,
0010
1000
0100
0010
0001
1000
0100
0010
0001
0000
0000
0100
0010
0000
0100
0000
,
0010
0000
0100
0001
1000
0000
1000
0000
0001
0000
0010
0100
0010
0000
0100
0010
,
0100
1000
1001
0000
0001
1010
0100
0011
,
0100
0000
1010
0000
0100
0000
0011
0000
0100
0000
1000
0010
0100
0000
0001
0010
,
0200
0000
0000
0000
0310
0000
0000
0000
0110
0000
0000
0010
0001
0000
1000
0000
,
0010
0000
0100
0001
0100
0000
0010
0000
1010
0000
0100
0001
0010
0000
0100
0000
,
1100
0010
0101
0001
1000
1000
0011
0000
,
0001
0000
0001
0000
1010
0000
0000
0000
0101
0000
0000
0110
0000
0000
1010
0000
,
1000
0001
0010
0100
0010
0001
0010
0100
1000
0000
1000
0002
0100
0000
0103
0000
,
0010
0000
0010
2000
0001
0000
3001
0000
0010
0000
0100
1000
0010
0100
0010
1000
,
0001
0010
0100
1000
0020
0000
0000
0000
0130
0000
0100
0001
0100
0000
0101
0000
,
0110
0000
0010
0100
0010
0000
0110
0000
1010
0000
1000
0000
1001
0000
0001
0010
,
2000
0000
3020
0000
0031
1000
1010
0100
,
0001
0000
0010
0100
0010
0000
0001
0000
1000
0000
0010
0100
0010
0100
0001
0010
,
0100
1000
0100
0010
0001
0000
0100
0000
1000
0100
0001
0010
2000
0000
0000
0000
,
3001
0100
1000
0010
0001
0000
0011
0000
0000
0000
1010
0000
0000
0000
1001
0000
,
0001
0010
0001
0010
0100
0000
0000
0000
1100
0000
1000
0000
0001
0000
0100
0000
,
1000
0100
0001
0001
1000
0100
0001
0100
,
1000
0000
0010
0100
0001
0010
0100
1000
0001
0000
0001
0000
1100
0000
0000
0000
,
1000
0000
1000
0000
0101
0000
0000
0000
0011
0000
0000
0110
0000
0000
1100
0000
,
1010
0000
0000
0110
0000
0000
0101
0000
0011
0000
0000
1100
0000
0000
0101
0000
,
1001
0000
0000
0000
1001
0000
0000
0000
1000
0000
0100
0000
0001
0000
0100
1000
,
0001
0000
0000
0102
0000
0000
0013
0000
0200
0000
0000
1300
0001
0000
0102
0000
,
0000
0000
0010
0000
0013
0000
0000
0000
0100
0000
1000
0000
0001
0000
1000
0010
,
0100
0000
0000
0201
0000
0000
0310
0000
2000
0000
3001
0010
0100
0000
0110
0000
,
0000
0000
1001
0000
1001
0000
0000
0000
0001
0000
0100
0000
1000
0000
0100
0001
,
1000
0000
0000
2100
0000
0000
3010
0000
0200
0000
0000
0301
0010
0000
0200
0000
,
0000
0000
1000
0000
1300
0000
0000
0000
1000
0010
0100
0001
1000
0010
0100
0001
,
0010
0100
1000
0001
0010
0100
1000
0002
0010
0023
0000
0100
0230
0000
1000
1300
,
0000
0000
1001
0000
1001
0000
0000
0000
0011
0000
0000
0110
0000
0000
1100
0000
,
1010
0000
0000
0110
0000
0000
0101
0000
1001
0000
0000
1100
0000
0000
0101
0000
,
0110
1001
0000
0000
;
