#TITLE:花となれ;
#SUBTITLE:;
#ARTIST:雄之助 Covered by カシ・オトハ;
#TITLETRANSLIT:Hana to Nare;
#SUBTITLETRANSLIT:;
#ARTISTTRANSLIT:Yunosuke feat. KAF & KAFU;
#GENRE:POP;
#CREDIT:;
#MUSIC:Hana to Nare.ogg;
#BANNER:Hana to Nare.png;
#BACKGROUND:Hana to Nare-bg.png;
#CDTITLE:;
#SAMPLESTART:60.944;
#SAMPLELENGTH:14.769;
#SELECTABLE:YES;
#OFFSET:1.825;
#BPMS:0.000=130.000;
#STOPS:;
#ORIGIN:;
#PREVIEWVID:;
#JACKET:Hana to Nare-jacket.png;
#CDIMAGE:;
#DISCIMAGE:;
#BGCHANGES:8.000=Hana to Nare.avi=1.000=0=0=0=StretchNoLoop====,
99999.000=-nosongbg-=1.000=0=0=0=StretchNoLoop====
;
#FGCHANGES:;

//--------------- dance-single - ----------------
#NOTES:
     dance-single:
     :
     Hard:
     13:
     0,0,0,0,0:
0000
0000
0000
0000
,
0000
0000
0000
0000
,
0011
0000
0000
0000
1100
0000
0000
0000
0001
0100
0000
0001
0000
0001
0020
0000
,
0000
0000
0230
0000
1000
1300
0000
0000
0010
0000
1000
0100
0000
1000
0001
0000
,
1010
0000
0000
0000
0101
0000
0000
0000
1000
0010
0000
0100
0000
0100
0002
0000
,
0000
0000
0013
0000
0010
0100
0000
1000
0001
0000
0100
0010
0000
0010
1000
0000
,
0101
0000
0000
0000
1010
0000
0000
0000
0001
1000
0000
0010
0000
0010
0200
0000
,
0000
0000
0302
0000
0010
0013
0000
0000
0100
0000
1000
0010
0000
0100
0001
0000
,
1100
0000
0000
0000
0011
0000
0000
0000
1000
0001
0000
0010
0000
0010
0200
0000
,
0000
0000
2300
0000
3001
0100
0000
0010
0100
0000
0100
0001
0000
0001
1000
0000
,
0101
1010
0000
0002
0000
1003
0010
0200
,
0000
0302
0000
0023
0000
0130
1000
0001
,
1100
0000
0000
0000
0011
0000
0000
0000
1000
0100
0000
1000
0000
1000
0002
0000
,
0000
0000
0013
0000
0100
0000
0010
0000
0001
0000
1000
0010
0000
0100
0001
0000
,
1010
0101
0000
2000
0000
3010
1000
0002
,
0000
0203
0000
0320
0000
2030
0000
3001
,
1010
0000
0101
2000
0000
0000
3010
0200
,
0000
0000
0302
0000
0000
0000
0013
0000
0100
0000
1000
0001
0000
0001
1000
0000
,
0101
0000
0000
0010
0000
0000
0001
0000
1100
0000
0000
0010
0000
0000
1000
0000
,
0011
0000
0000
0100
0000
0001
1000
0000
0101
0000
0000
0000
1001
0000
0000
0000
,
1100
0000
0000
0011
0000
0000
1000
0000
0101
0000
0000
1010
0000
0001
0100
0000
,
0011
0000
1000
0001
0000
0010
0100
0000
1010
0000
0000
0000
0101
0000
1000
0000
,
0011
0000
0000
1100
0000
0000
0001
0000
1010
0000
0000
0101
0000
0000
1000
0000
,
0011
0000
1000
0010
0000
0100
0001
0000
1100
0000
0000
0000
1001
0000
0000
0000
,
0110
0000
0101
0000
0011
0000
1010
1001
,
0000
0000
1000
0000
0001
0000
0100
0000
0011
0000
1000
0010
0000
0010
1000
0000
,
0101
1000
0010
0100
0010
1000
0100
0001
,
0100
0000
0000
1000
0000
0000
0010
0000
0000
0001
0000
0000
1000
0000
0100
0000
0010
0000
1000
0000
0000
0001
0000
0000
,
1010
0000
0000
0001
0000
0000
0100
0000
0000
1000
0000
0000
0001
0000
0010
0000
0100
0000
0001
0000
0000
0010
0000
0000
,
0101
0000
0000
1000
0000
0000
0001
0000
0010
0000
1000
0000
0001
0000
0000
0100
0000
0000
1000
0000
0010
0000
0100
0000
,
1000
0001
0010
1000
0100
1000
0010
0100
,
0001
0000
0000
0010
0000
0000
0001
0000
0000
0100
0000
0000
1000
0000
0100
0000
0001
0000
0010
0000
0000
0100
0000
0000
,
1010
0000
0000
0001
0000
0000
1000
0000
0011
0000
0000
0100
0000
0000
0010
0000
,
1100
0000
0000
0001
0010
0100
1000
0000
0001
0100
1000
0100
0011
0000
0000
0000
,
0110
0000
1001
0000
0001
0010
0101
0000
,
1100
0000
0010
0000
1100
0000
0001
0000
1010
0000
0001
1000
0000
0000
0011
0000
,
1100
0001
1010
0000
0101
1000
0011
0000
,
1100
0001
0010
1000
0001
0100
1010
0000
,
0001
0100
0011
0000
1000
0100
1010
0000
,
0001
0010
0101
1000
0010
0100
0011
0000
,
0110
0000
0001
1000
0101
0000
1000
0001
,
1100
0000
0001
0100
0001
0000
1000
0100
1000
0000
0001
1000
0101
1000
0101
1000
,
0010
0000
1001
0000
1000
0010
1100
0001
,
1010
0000
0100
0000
1010
0000
0001
0000
1100
0000
0010
2000
0000
0000
3001
0000
,
1100
0010
1100
0000
0101
0010
0101
0000
,
1010
0001
0100
1000
0001
0010
1100
0000
,
0011
0000
0000
1000
0000
0000
0100
0000
1010
0000
0000
0001
0000
0000
1000
0000
,
0012
0103
0021
1030
0102
0013
0201
0000
,
2300
3020
0032
2003
,
3100
0000
0001
0010
0100
0000
1000
0010
0100
0000
0001
1000
0000
0100
0010
0100
,
1010
0000
0000
0001
0010
0000
0100
0000
0010
0000
0001
0100
0000
0001
1000
0000
,
0010
0000
0100
0001
0100
0000
0010
1000
0010
0000
0100
0001
0000
1000
0100
0010
,
0001
0000
0000
1000
0010
0000
0100
0000
0010
0000
1000
0100
0000
1000
0001
0000
,
0010
0101
1010
0001
1100
0011
1001
0000
,
1000
0000
0001
0000
1010
0000
0000
0000
0001
0000
0010
0100
0000
1000
0001
0000
,
0100
0000
1000
0100
1000
0000
0100
0010
0100
0000
0001
1000
0000
0001
0010
0100
,
1000
0000
0000
0001
0100
0000
0010
0000
1100
0000
0000
0001
0010
0000
0100
0000
,
1010
0000
0001
0010
0000
0010
0100
0000
1000
0000
0001
0100
0000
0100
0001
1000
;

//--------------- dance-single - ----------------
#NOTES:
     dance-single:
     :
     Challenge:
     17:
     1.045166,1.054294,0.979843,0.382605,1.376446,784,679,105,41,0,0,0,0,0,1.045166,1.054294,0.979843,0.382605,1.376446,784,679,105,41,0,0,0,0,0:
0000
0000
0000
0000
,
0000
0000
0000
0000
,
0011
0000
0000
0000
1100
0000
0000
0000
0001
0100
0000
0010
0100
0001
0020
0000
,
0000
0000
0000
0000
0230
0000
0000
0000
1000
0000
1300
0000
0000
0000
0000
0000
0001
0000
1000
0000
0010
0000
0100
0000
0000
0000
0001
1000
0001
0000
0000
0000
,
1010
0000
0000
0000
0101
0000
0000
0000
1000
0010
0000
0100
0001
0010
0200
0000
,
0000
0000
0000
0000
0310
0000
0000
0000
0010
0000
0001
0000
1000
0000
0001
0000
0100
0000
0000
0000
0010
0100
0010
0000
0000
0000
1000
0000
0001
0000
0010
0000
,
0101
0000
0000
0000
0000
0000
0000
0000
1010
0000
0000
0000
0000
0000
0000
0000
0001
0000
0100
0000
0000
0000
0010
0000
1000
0001
1000
0000
0200
0000
0000
0000
,
0000
0000
0000
0000
0320
0000
0000
0000
0001
0000
0031
0000
0000
0000
0000
0000
1000
0000
0001
0000
0100
0000
0010
0000
0100
0000
0001
1000
0001
0000
0000
0000
,
1001
0000
0000
0000
0000
0000
0000
0000
0110
0000
0000
0000
0000
0000
0000
0000
1000
0000
0001
0000
0000
0000
0001
0000
1000
0100
1000
0000
0020
0000
0000
0000
,
0000
0000
0000
0000
0130
0000
0000
0000
0001
0000
0010
0000
1000
0000
0010
0000
0100
0000
0000
0000
1000
0001
1000
0000
0000
0000
0001
0000
1000
0000
0010
0000
,
1100
0000
0012
0000
1000
0000
0023
0000
0130
1000
0000
1000
0001
0100
2000
0000
,
0000
0000
0000
0000
3200
0000
0000
0000
0301
0000
0010
0000
0100
0000
0000
0000
1010
0000
0000
0000
0001
0000
1000
0000
0001
0000
0010
0100
0010
0000
0000
0000
,
0101
0000
0000
0000
1010
0000
0000
0000
0001
1000
0000
0001
0010
0100
0020
0000
,
0000
0000
0000
0000
2030
0000
0000
0000
3001
0000
0100
0000
0001
0000
0100
0000
2000
0000
0000
0000
3010
0100
0010
0000
0000
0000
0010
0000
1000
0000
0001
0000
,
0010
0000
0200
0000
1000
0000
2300
0000
3001
0100
0010
0100
1000
0100
0002
0000
,
0000
0000
0000
0000
2003
0000
0000
0000
3010
0000
0100
0000
0002
0000
0000
0000
0103
0000
0001
0000
0010
0000
2000
0000
0000
0000
3010
0100
0010
0000
0000
0000
,
0101
0000
0000
0000
1001
0000
2000
0000
3001
0100
0000
1000
0000
0100
0002
0000
,
0000
0000
0000
0000
0023
0000
0000
0000
0130
0000
1000
0000
0100
0000
1000
0000
0002
0000
0000
0000
1003
0010
1000
0000
0000
0000
0010
0000
0100
0000
0001
0000
,
2100
0000
0000
3001
1010
0000
0100
0000
0101
1000
0000
0001
1100
0010
0100
0000
,
1001
0000
0000
0000
0001
0000
0010
0000
0101
0000
1000
0000
0010
0000
0000
0000
0110
0000
0000
0000
1000
0000
0001
0000
0100
0000
0010
1000
0010
0000
0000
0000
,
1001
0000
0000
1000
0101
0000
0010
0000
0101
1000
0010
0100
0011
1000
0001
0000
,
1001
0000
0000
0000
1000
0000
0001
0000
1100
0000
0010
0000
0100
0000
0001
0000
1010
0000
0000
0000
0001
0010
0001
0000
1100
0000
0010
0000
0100
0000
0010
0000
,
1100
0000
0000
1000
0011
0000
1000
0000
0101
0010
0000
0001
1010
0100
1000
0000
,
0110
0000
0000
0000
0001
0000
1000
0000
0101
0000
0010
0000
0100
0000
0000
0000
1001
0000
0000
0000
1000
0000
0010
0000
1100
0000
0001
1000
0001
0000
0000
0000
,
1010
0000
0000
0000
0101
0000
0000
0000
0101
1000
0010
1000
0101
1000
0020
0000
,
0030
0000
0000
0000
1100
0000
0000
0000
0011
0000
1000
0000
0001
0000
0000
0000
1001
0000
0000
0000
1000
0010
1000
0000
0001
0000
0010
0000
0100
0000
1000
0000
,
0101
0000
0000
0000
0001
0000
1000
0000
0010
0100
0010
0000
1000
0000
0100
0000
0010
0000
0000
0000
0001
1000
0001
1000
0001
0000
0100
0000
0000
0000
0100
0000
,
0010
0000
0000
0000
0000
0000
0100
0000
0000
0000
0000
0000
0001
0000
0000
0010
0000
0000
0001
0000
0000
0000
0000
0000
1000
0000
0000
0000
0000
0000
0100
0000
0000
0000
0000
0000
0010
0000
0000
0000
0000
0000
0001
0000
0000
0000
0000
0000
1000
0000
0000
0000
0000
0000
0000
0000
0010
0000
0000
0000
0000
0000
0000
0000
0001
0000
0000
0000
0000
0000
0000
0000
1000
0000
0000
0100
0000
0000
1000
0000
0000
0000
0000
0000
0100
0000
0000
0010
0000
0000
0100
0000
0000
0000
0000
0000
,
0001
0000
0000
0000
0000
0000
0000
0000
0000
0000
0000
0000
0001
0000
0000
0000
0000
0000
1000
0000
0000
0000
0000
0000
0100
0000
0000
0000
0000
0000
0010
0000
0000
0000
0000
0000
0001
0000
0000
0000
0000
0000
1000
0000
0000
0000
0000
0000
0001
0000
0000
0000
0000
0000
0000
0000
0010
0000
0000
0000
0000
0000
0000
0000
1000
0000
0000
0000
0000
0000
0000
0000
0001
0000
0000
0100
0000
0000
0001
0000
0000
0000
0000
0000
0100
0000
0000
0010
0000
0000
0100
0000
0000
0000
0000
0000
,
1000
0000
0000
0000
0000
0000
1001
0000
0000
0000
0000
0000
0001
0000
0000
0000
0010
0000
0000
0000
0100
0000
0000
0000
1000
0000
0000
0001
0000
0000
0100
0000
0000
0001
0000
0000
1000
0000
0000
0000
0010
0000
0000
0000
0100
0000
0000
0000
,
1001
0000
0000
0000
0001
0000
0000
0000
0100
0010
0100
0000
1000
0000
0100
0000
0002
0000
0000
0000
1003
0000
0100
0000
0010
0000
0001
0000
0000
0000
1000
0000
,
0010
0000
0000
0000
0000
0000
0100
0000
0000
0000
0000
0000
0001
0000
0000
1000
0000
0000
0001
0000
0000
0000
0000
0000
0010
0000
0000
0000
0000
0000
1000
0000
0000
0000
0000
0000
0010
0000
0000
0000
0000
0000
0001
0000
0000
0000
0000
0000
1000
0000
0000
0000
0000
0000
0000
0000
0010
0000
0000
0000
0000
0000
0000
0000
0001
0000
0000
0000
0000
0000
0000
0000
0010
0000
0000
0100
0000
0000
0010
0000
0000
0000
0000
0000
1000
0000
0000
0001
0000
0000
1000
0000
0000
0000
0000
0000
,
0100
0000
0000
1010
0000
0000
0101
0000
1000
0000
0000
0011
0000
0000
1100
0000
,
0001
0000
0000
0001
1000
0100
0010
0000
0001
0100
1000
0100
0011
0000
0000
0000
,
1001
0000
0000
0001
1010
0000
0100
1000
0001
0100
0010
0100
0001
0010
0100
1000
,
0101
0000
1000
0001
1100
0000
0001
1000
0011
0000
0100
0001
0010
0100
1000
0001
,
1100
0000
0010
0100
0011
1000
0100
0010
0101
0000
1000
0010
1100
0010
1000
0010
,
0002
0000
2003
0000
3200
0000
0301
0010
2000
0000
3001
0100
1000
0001
0100
0001
,
1100
0000
0011
0000
1001
0000
1000
0010
0100
0000
1000
0100
0001
0010
0100
1000
,
0011
0000
1000
0010
1100
0001
0010
0001
1010
0000
0001
0010
0101
0000
1000
0010
,
1100
0000
0000
0100
0001
1000
0100
0010
0100
0000
0100
0010
0001
1000
0001
0100
,
0010
0000
1000
0000
0100
0000
0010
0000
0000
0001
0000
0000
1000
0000
0001
0000
0100
0000
0010
0000
0000
1000
0000
0000
0001
0000
0010
0000
0100
0000
1000
0000
0000
0010
0000
0000
1100
0000
0000
0011
0000
0000
1100
0000
0000
0011
0000
0000
,
1001
0000
0000
0000
1001
0000
0001
0100
0010
0000
0010
1000
0101
0010
0100
1000
,
0010
0000
0100
0001
1010
0000
0100
1000
0011
0000
1000
0100
1010
0001
0100
0010
,
1100
0000
0001
0100
0011
1000
0100
0010
0101
0000
1000
0100
1010
0001
0100
0010
,
1100
0000
0001
0100
0011
0000
0100
0001
1010
0000
0100
1000
0011
0100
0001
0010
,
2000
0000
3010
0001
1100
0000
0001
0100
2000
0000
3001
0010
1100
0010
1000
0100
,
0002
0000
0103
1000
0012
0000
1003
0100
0002
0000
0103
1000
0011
0100
1000
0100
,
0002
0000
0013
0100
1010
0000
0001
0100
0011
0000
1000
0001
1100
0010
1000
0100
,
0020
0000
0031
0100
0020
0000
1030
0100
0020
0000
0031
1000
0000
0011
1100
0011
,
1100
0000
0000
0001
0100
0010
1000
0010
0100
0000
0001
0010
1000
0001
0100
1000
,
0010
0000
0100
0001
0010
0000
0100
1000
0010
0000
1000
0010
0100
1000
0100
0001
,
0010
0000
0000
0100
1000
0001
0010
0100
1000
0000
1000
0010
0100
0001
1000
0010
,
0100
0000
0001
0010
0101
0000
1000
0010
1100
0000
0001
1000
0101
0010
0100
0010
,
0101
0000
0110
0000
1001
0000
0001
0010
0100
0000
0100
1000
0001
0100
0010
0100
,
1000
0000
1000
0100
0010
0000
1000
0100
0010
0000
1000
0010
0100
1000
0010
0100
,
2000
0000
0000
3001
0010
0100
0001
0010
0100
0000
0010
0001
0100
0010
0100
1000
,
0100
0000
0001
1000
0100
0100
0100
0100
0100
0100
0100
0200
0000
0310
1000
0100
;
