#TITLE:半永久的に愛してよ;
#SUBTITLE:;
#ARTIST:堀江由衣;
#TITLETRANSLIT:Han Eikyuu Teki ni Aishiteyo;
#SUBTITLETRANSLIT:;
#ARTISTTRANSLIT:Horie Yui;
#GENRE:ANIME;
#CREDIT:;
#MUSIC:Han Eikyuu Teki ni Aishiteyo.ogg;
#BANNER:Han Eikyuu Teki ni Aishiteyo.png;
#BACKGROUND:Han Eikyuu Teki ni Aishiteyo-bg.png;
#CDTITLE:;
#SAMPLESTART:62.030;
#SAMPLELENGTH:13.335;
#SELECTABLE:YES;
#OFFSET:2.541;
#BPMS:0.000=143.986;
#STOPS:;
#DISPLAYBPM:144.000;
#LASTBEATHINT:3.778243;
#BGCHANGES:5.000=Han Eikyuu Teki ni Aishiteyo.avi=1.000=0=0=0=StretchNoLoop====,
99999.000=-nosongbg-=1.000=0=0=0=StretchNoLoop====
;
#FGCHANGES:;

//--------------- dance-single - ----------------
#NOTES:
     dance-single:
     :
     Hard:
     11:
     0,0,0,0,0:
0000
0000
0000
0000
,
0000
0000
0000
0000
0000
0001
0001
0001
,
0001
0000
0001
0010
0200
0000
1300
0002
,
0000
1003
0100
0000
0110
0000
1001
0000
,
2000
0000
3001
0100
0010
1000
0001
0020
,
0000
0130
1000
0002
0000
0003
1001
0000
,
1001
0000
0001
0010
0200
0000
1300
0200
,
0000
0301
0200
0000
2300
0000
3100
0010
,
0001
0010
0001
0010
0100
1000
0010
0200
,
0000
0010
0310
0000
0110
0000
1001
0000
,
0000
0000
0000
0000
,
1001
0000
1000
0100
0000
0001
0100
0001
,
0000
0000
0010
0100
0010
0000
0100
1000
,
0001
0000
0000
0101
0101
0000
0000
1100
,
1100
1000
0100
0010
0001
0000
0010
0001
,
0100
0000
0010
1000
0010
0000
0100
0001
,
0100
0000
0001
1000
0001
0000
0010
0011
,
0011
0000
0000
1010
1010
0000
0000
1000
,
0001
0010
0100
1000
1001
0000
0110
0000
,
0011
0000
0101
0000
0011
0000
0000
1100
,
0000
1000
0001
0000
1001
0000
1001
0000
,
1010
0000
1100
0000
1010
0000
0000
0101
,
0000
0001
1000
0000
1001
0000
1001
0000
,
1000
0100
0010
0001
0000
0001
1000
0100
,
0000
0100
1000
0010
0000
0010
1000
0001
,
0000
0001
0001
0010
0100
1000
1000
0010
,
0100
0001
1000
0100
1000
0000
0001
0010
,
0200
0000
0010
0320
0000
0001
0031
2000
,
0000
0000
0100
3200
0000
0000
0310
0001
,
1000
0001
0001
0100
0010
1000
1000
0100
,
0020
0032
2003
3200
0320
0032
2003
3000
,
1001
1010
1010
0011
,
0011
1100
1100
0101
,
0101
1010
1100
0011
,
0101
1010
0011
0101
,
1100
0000
1000
0100
0010
0000
0010
0001
,
0100
0000
0100
0001
1000
0000
1000
0010
,
0100
0001
0100
0001
1000
0010
1000
0010
,
0100
0001
1000
0001
0010
0000
1001
0000
,
0001
0100
0010
1000
0001
0100
0010
1000
,
0001
0010
0100
1000
0001
0010
0100
1000
,
1100
0101
1100
0101
,
1001
0000
0110
0000
1001
0010
0010
0010
,
1000
0100
0010
0001
1000
0100
0010
0001
,
1000
0010
0100
0001
1000
0010
0100
0001
,
2000
0000
0000
3001
0200
0000
0000
0310
,
2000
0000
0000
3001
0010
0000
1001
0000
,
1000
0100
0100
0001
1000
0100
0100
0010
,
1000
0100
0100
0001
0010
0100
0100
0001
,
2000
0000
3200
0000
0310
0001
1000
0001
,
0100
0001
0010
0100
0000
1000
1000
1000
,
0001
0100
0100
1000
0001
0100
0100
0010
,
0001
0100
0100
1000
0001
0100
0100
0010
,
0001
0101
0101
0001
1000
1100
1100
1000
,
0001
0010
1000
0010
0001
0100
0010
1000
,
0001
0000
0000
0000
;

//--------------- dance-single - ----------------
#NOTES:
     dance-single:
     :
     Challenge:
     16:
     0.281988,0.247433,0,0.18852,0,178,178,0,17,0,0,0.281988,0.247433,0,0.18852,0,178,178,0,17,0,0:
0000
0000
0000
0000
,
0000
0000
0000
0000
0000
0100
0100
0100
,
1001
0000
0011
0010
0200
0000
1300
0002
,
0000
0000
0010
0000
1003
0000
0100
0000
0110
0000
0000
0000
1001
0000
1000
0100
,
0020
0000
0031
0010
0100
1100
1000
0002
,
0000
0000
1000
0000
0010
0000
0203
0000
0000
0000
0301
1000
0010
0000
0100
0000
,
0110
0000
1100
0110
0012
0000
0013
0200
,
0000
0000
1300
0000
0020
0000
0000
0000
2030
0000
0000
0000
3010
0100
0010
0000
,
0001
0000
0010
0100
0010
0000
1000
0001
2000
0000
0100
0000
0010
0000
3002
0000
,
0000
0010
0013
0000
0011
0000
1001
0000
,
1100
0000
0011
0000
1001
0000
0010
0100
0010
1000
0001
0000
1001
0000
0000
0000
,
1000
0000
0000
0001
0010
0100
1000
0000
0000
0100
0000
0000
0010
0000
0000
0001
0100
0010
1000
0000
0000
0100
0000
0000
,
0010
0000
0000
0000
0000
0000
0100
0000
0000
1000
0000
0000
0010
0000
0000
0000
0000
0000
0100
0000
0000
0000
0000
0000
0010
0000
1000
0000
0100
0000
1000
0000
0000
0000
0000
0000
0100
0000
0000
0000
0000
0000
0010
0000
0000
0000
0000
0000
,
0011
0000
0000
0000
0000
0000
0000
0000
0000
1010
0000
0000
1100
0000
0000
1000
0100
0010
0001
0000
0000
0011
0000
0000
,
0101
0000
0000
0000
0000
0000
0001
0000
0100
0000
0010
0000
1000
0000
0000
0000
0000
0000
0010
0000
0000
0000
0000
0000
0100
0000
0000
0000
0000
0000
0001
0000
0010
0000
0100
0000
0010
0000
0000
0001
0000
0000
1000
0000
0000
0010
0000
0000
,
0100
0000
0000
0000
0000
0000
0010
0000
1000
0000
0001
0000
0010
0000
0000
0000
0000
0000
0100
0000
0000
1000
0000
0000
0001
0000
0000
0000
0000
0000
0100
0000
0000
0001
0000
0000
0010
0000
0000
0000
0000
0000
0100
0000
0000
0000
0000
0000
,
1000
0000
0000
0000
0000
0000
0100
0000
0010
0000
0001
0000
1000
0000
0000
0100
0000
0000
0010
0000
0000
0001
0000
0000
0100
0000
0000
1000
0000
0000
0100
0000
0000
0010
0000
0000
1000
0000
0000
0100
0000
0000
0010
0000
0000
0001
0000
0000
,
1000
0000
0000
0000
0000
0000
0000
0000
0000
0000
0000
0000
0000
0000
0000
0000
0000
0000
0011
0000
0000
0000
0000
0000
0101
0000
0000
0000
0000
0000
0100
0000
0001
0000
1000
0000
0010
0000
0000
0000
0000
0000
0100
0000
0000
0001
0000
0000
,
0011
0010
0100
0100
1100
0000
0011
0000
,
1001
0000
0000
0000
1000
0000
0000
0000
0001
0100
0001
0100
0001
0100
0001
0100
0001
0000
0000
0000
0001
0000
0000
0000
1000
0100
1000
0100
1000
0100
1000
0100
,
1000
0000
0000
0000
0001
0000
0000
0000
0010
0000
0000
0000
0100
0000
0000
0000
1001
0000
0000
0000
0000
0000
0000
0000
0001
0100
0001
0100
0001
0100
0001
0100
,
0001
0000
0000
0000
0001
0000
0000
0000
1000
0100
1000
0100
1000
0100
1000
0100
1000
0000
0000
0000
1000
0000
0000
0000
0001
0100
0001
0100
0001
0100
0001
0100
,
0001
0000
0000
0000
0100
0000
0000
0000
1001
0000
0000
0000
0000
0000
0000
0000
1001
0000
0000
0000
0000
0000
0000
0000
0010
0100
0010
0100
0010
0100
0010
0100
,
0010
1000
0100
0010
0001
0001
0010
0100
,
1000
1000
0010
0100
0001
0001
0100
0010
,
2000
0000
0001
0000
3001
0000
0011
0000
0012
0000
1000
0000
1003
0010
0100
0000
,
1000
0000
0100
0000
0001
0000
0100
0000
1000
0000
0100
0000
0001
0010
0100
0000
,
0210
0000
1000
2300
0000
0010
3020
0100
,
0000
0000
1000
2030
0000
0000
0001
3001
,
0012
0000
0010
0000
0013
0000
0110
0000
2100
0000
0100
0000
3100
1000
0010
0000
,
2010
0000
3020
0000
0230
0000
0302
0000
0023
0000
0230
0000
1300
0010
0001
0000
,
0110
0000
0000
0000
1010
0000
0000
0000
1001
0000
1000
0100
0010
1000
0010
0000
,
0011
0000
0001
0000
0100
0000
0010
0000
0001
0010
1000
0100
0010
0000
0110
0000
,
1001
0000
0001
0000
0010
0000
0010
0000
0100
1000
0001
0000
0100
0000
0010
0000
,
0010
1000
0100
0010
0001
0000
0001
0000
0010
0000
0010
0000
0100
0000
0100
0000
,
1100
0000
0000
0000
0011
0000
0001
0000
0001
0000
0010
0001
0100
0010
0001
0000
,
0010
0000
1000
0000
0001
0000
1000
0010
0100
1000
0100
0000
0001
0000
0001
0010
,
0200
1000
1000
1000
2300
0010
0010
3010
,
0110
0000
1000
0010
0100
0010
1000
0100
0001
0100
1000
0001
0100
0000
0000
0000
,
1001
0100
0001
0100
0010
1000
0010
1000
0001
0010
0001
0010
0100
1000
0100
1000
,
0001
0100
0010
1000
0001
0100
0010
1000
0001
0010
0100
1000
0001
0010
0100
1000
,
1100
1000
0011
0001
1010
1000
0101
0001
,
0011
0010
0110
1000
2001
0010
0010
3010
,
1000
0100
1000
0100
0010
0001
0010
0001
1000
0010
1000
0010
0100
0001
0100
0001
,
1000
0100
0010
0001
1000
0010
0100
0001
2000
0000
3020
0000
0230
0000
0310
1000
,
0200
0001
0010
1000
0310
0000
1001
1000
,
0001
0000
0100
0001
0010
0100
1000
0001
0100
0010
1000
0001
1000
0000
1001
0000
,
1000
0100
0100
0010
1000
0100
0100
0001
0010
0100
0100
0001
1000
0100
0100
0010
,
1000
0100
0100
0001
0010
0100
0100
0010
1000
0100
0100
0001
1000
0100
0100
0001
,
0010
0000
0120
0000
0001
0100
1000
0230
,
0000
0010
0310
0210
0000
1000
1000
1300
,
0001
0100
0100
0010
0001
0100
0100
1000
0010
0100
0100
1000
0001
0100
0100
0010
,
0001
0100
0100
1000
0010
0100
0100
1000
0001
0100
0100
1000
0010
0000
1000
0000
,
1000
0011
0011
0001
0001
1010
1010
1000
,
0001
1001
1001
0010
0100
0010
0001
1000
,
0001
0000
0000
0000
;
