#TITLE:ハルジオン;
#SUBTITLE:;
#ARTIST:YOASOBI;
#TITLETRANSLIT:Halzion;
#SUBTITLETRANSLIT:;
#ARTISTTRANSLIT:YOASOBI;
#GENRE:POP;
#CREDIT:;
#MUSIC:Halzion.ogg;
#BANNER:Halzion.png;
#BACKGROUND:Halzion-bg.png;
#CDTITLE:;
#SAMPLESTART:43.643;
#SAMPLELENGTH:15.000;
#SELECTABLE:YES;
#OFFSET:1.306;
#BPMS:0.000=130.000;
#STOPS:;
#LASTBEATHINT:0.783079;
#BGCHANGES:4.000=Halzion.avi=1.000=0=0=0=StretchNoLoop====,
99999.000=-nosongbg-=1.000=0=0=0=StretchNoLoop====
;
#FGCHANGES:;

//--------------- dance-single - ----------------
#NOTES:
     dance-single:
     :
     Hard:
     12:
     0,0,0,0,0:
0000
0000
0000
0000
,
1001
0000
0000
1010
0000
0010
0100
0000
0000
0000
0001
0000
0010
0000
0001
0000
,
1001
0000
0000
0011
0000
0100
1000
0000
0000
0000
1000
0000
0100
0000
0010
0000
,
0110
0000
0000
1001
0000
0001
0010
0000
0000
0000
0010
0000
0100
0000
1000
0000
,
0101
0000
0000
0110
0000
0100
0010
0000
0000
0000
1000
0000
0010
0000
0100
0000
,
0001
0000
0000
1001
0000
1000
0100
0000
0010
0000
0100
0000
1000
0000
0010
0000
,
0110
0000
0000
1001
0000
0100
0001
0000
0100
0000
0010
0000
0100
0000
0001
0000
,
1001
0000
0000
1010
0000
0001
0100
0000
0010
0000
1000
0000
0010
0000
1000
0000
,
0100
0010
0100
0000
1000
0001
0000
1000
0000
0001
0100
0000
0010
0000
1000
0000
,
0001
0010
0100
2000
0000
3020
0000
0230
,
0000
0301
1000
0001
0000
0010
0100
0000
,
1000
0001
0100
0002
0000
0023
0000
0230
,
0000
1300
0001
0000
0011
0000
1001
0000
,
1000
0010
1000
0001
0000
0001
0010
0001
,
0000
1000
0100
1000
0000
0001
0010
0100
,
0000
1000
0010
0100
0000
0001
0010
1000
,
0000
0010
0001
0000
1000
0001
0010
0001
,
0100
0010
0010
1000
1000
0100
0010
0001
,
0100
0001
0001
1000
1000
0010
0100
0001
,
1000
0100
1000
0001
0100
0001
1000
0020
,
0000
0100
0100
0130
0110
0000
1001
0000
,
1100
1000
0001
0100
0100
1000
0100
0001
,
0100
0100
0001
1000
1001
0000
1100
0000
,
0011
0100
1000
0100
0010
0001
0100
0010
,
1001
0000
0000
1001
0000
0000
0002
0000
2003
0000
3020
0000
0230
0000
0302
0000
,
1003
0000
0001
0010
0000
0000
0100
0000
1000
0000
0001
0100
0000
0000
0010
0000
,
1000
0000
0001
0000
0100
0000
0010
0000
1000
0000
0001
0010
0000
0000
0100
0000
,
0010
0001
0100
1000
0100
0001
0010
1000
,
0001
0000
0100
1000
0000
1000
0000
0000
1100
0000
0000
0000
0001
0000
0010
0000
,
0100
0000
1000
0000
1000
0000
0001
1000
0000
0000
1001
0000
1000
0000
0010
0000
,
0100
0000
0001
0000
0001
0000
1000
0001
0000
0000
0001
0000
0010
0000
0100
0000
,
0011
0000
0110
1100
0000
1000
0010
1010
,
0201
0000
0000
0001
0000
0000
0310
0000
1000
0000
0100
0000
0001
0000
0100
0000
,
1000
0000
0100
0010
0000
0000
0001
0000
1000
0000
0010
0100
0000
0000
0100
0000
,
0001
0000
1000
0000
0001
0000
1000
0000
0010
0000
0100
0001
0000
0000
0010
0000
,
0100
1000
0010
0100
0001
0010
1000
0001
,
0100
0000
1000
0001
0000
0011
0000
0000
1100
0000
0000
0000
0001
0000
0010
0000
,
0001
0000
0000
0011
0000
0000
1000
0000
0100
0000
0000
1100
0000
0000
1000
0000
,
0010
0000
0000
0110
0000
0000
1000
0000
0001
0000
0000
1001
0000
0000
1000
0000
,
0001
0000
1000
0010
0000
1000
0010
0000
0000
0100
0001
0100
0010
0000
1000
0000
,
0001
0000
1000
0100
0000
1000
0100
0000
0000
0010
0001
0010
0100
0000
1000
0000
,
0001
0000
0100
0001
0000
0010
0001
0000
0000
0010
0100
0010
0001
0000
1000
0000
,
0010
0000
1000
0001
0000
1000
0010
0000
0000
0100
0001
0100
0001
0000
1000
0000
,
0010
0000
1000
0010
0000
0010
0100
0000
0000
0100
0001
0100
0010
0000
1000
0000
,
0010
0000
0100
0001
0000
0001
1000
0000
0000
1000
0100
0000
0100
0010
0000
0010
,
0001
0000
0001
0010
0000
0010
1000
0000
0000
1000
0010
0001
0100
0000
0010
1000
,
0010
0000
0100
0001
0000
0101
0000
0011
0000
1010
0000
1000
0100
0000
0010
0000
,
0001
0000
0100
0000
0010
0000
0100
0000
0001
0000
1000
0200
0000
0010
0000
1300
,
0000
0000
0100
0000
0010
0000
0001
0000
1000
0000
0001
0100
0000
0001
0100
0000
,
0010
0000
1000
0000
0001
0000
1000
0000
0100
0000
0010
0002
0000
1003
0000
1100
,
0000
0011
1100
0000
0101
1010
0101
0000
,
0001
0000
0100
0000
0010
0000
0001
0000
0010
0000
1000
0200
0000
0010
0000
1300
,
0000
0000
0010
0000
0001
0000
1000
0000
0001
0000
1000
0020
0000
1000
0000
0130
,
0000
0001
1000
0200
0320
0032
0023
0230
,
1300
0000
1000
0001
0000
0011
0000
1010
0000
0000
1000
0000
1000
0000
0010
0000
,
0100
0100
0001
0010
0100
1000
0100
1000
,
0010
0010
0100
0100
0001
1000
0001
1000
,
0001
0001
0010
0010
0100
1000
0100
0001
,
0000
0001
0100
1000
0001
0000
1001
0000
,
1001
0001
0100
0010
0001
0010
0100
0001
,
0010
1000
0010
0100
0001
0100
0100
0100
,
1000
0001
0100
0010
1000
0001
1000
0001
,
0100
1000
0100
0001
1000
0000
0110
0000
,
0001
0100
0010
0100
0001
0010
0100
0010
,
0001
1000
0010
0100
0010
1000
0100
0010
,
0100
1000
0001
1000
0010
0100
0010
0100
,
0110
0010
0100
0010
0110
0000
1001
0000
,
0001
0010
0100
1000
0001
0010
0100
1000
,
0001
0100
0010
1000
0001
0000
1001
0000
,
0011
0000
1100
0000
1010
0000
0101
0001
,
1000
0000
0000
1001
0000
0000
0011
0000
0010
0000
0100
0000
1000
0000
0001
0000
,
0010
0000
0100
1000
0000
0000
1000
0000
0010
0000
0100
0001
0000
0000
0001
0000
,
0100
0000
1000
0000
0100
0000
0001
0000
1000
0000
0100
0010
0000
0000
0100
0000
,
1000
0100
1000
0010
1000
0001
0100
0001
,
1000
0000
0100
1000
0000
1100
0000
0000
0011
0000
0000
0000
0001
0000
0010
0000
,
0100
0000
0100
0000
1000
0000
0010
0100
0000
0000
0001
0000
0100
0000
0010
0000
,
1000
0000
0001
0000
0001
0000
1000
0001
0000
0000
0010
0000
0100
0000
0100
0000
,
1000
0100
0010
0001
1000
0100
0010
0001
,
1000
0100
1000
0100
0010
0001
0010
0001
,
0100
0000
0100
0001
0000
0000
0010
0000
0100
0000
0100
1000
0000
0000
1000
0000
,
0010
0000
0100
0000
0001
0000
0100
0000
0010
0000
1000
0010
0000
0000
0100
0000
,
0001
0010
0001
0100
0010
1000
0100
1000
,
0010
0000
1000
0100
0000
0110
0000
0000
1001
0000
0000
0000
1000
0000
0100
0000
,
1000
0000
0000
1000
0000
0000
0001
0000
0100
0000
0000
0100
0000
0000
0001
0000
,
1001
0000
0000
1001
0000
0000
0001
0000
1000
0000
0001
0000
1000
0000
0001
0000
,
0010
0000
0100
0001
0000
0000
0100
0000
1000
0000
0001
0100
0000
0000
0010
0000
,
1000
0000
0100
0000
0001
0000
0100
0000
1000
0000
0001
1000
0000
0000
0001
0000
,
0011
0010
0100
1000
1100
0100
0010
0001
,
1001
0000
1000
0010
0000
0110
0000
0000
1001
0000
0000
0000
0001
0000
0100
0000
,
1000
0000
0100
0000
1000
0000
0100
0001
0000
0000
1000
0000
0100
0000
0001
0000
,
0100
0000
0001
0000
0100
0000
1000
0001
0000
0000
0100
0000
0001
0000
0010
0000
,
0200
0000
0001
0001
0000
1000
1000
0000
,
0010
0310
0100
0100
1000
1000
0001
0001
,
0100
1000
0100
0010
1000
0100
0010
1000
,
0010
0100
0001
0100
1000
0100
0010
0100
,
1000
0010
0001
1000
0001
0010
1000
0100
,
0001
1000
0001
0100
1000
0100
0010
0100
,
0011
0000
0000
1100
0000
0000
0010
0000
1010
0000
0000
0101
0000
0000
0010
0000
,
0011
0000
0000
1010
0000
0000
1000
0000
1100
0000
0000
0101
0000
0000
0001
0000
,
0011
0000
0000
0101
0000
0000
0100
0000
1100
0000
0000
1010
0000
0000
0010
0000
,
0110
0000
0000
1001
0000
0000
0011
0000
0002
0000
0000
2003
0000
0000
3001
0000
,
1001
0000
0000
1010
0000
0010
0100
0000
0000
0000
0001
0000
0010
0000
0001
0000
,
1001
0000
0000
0011
0000
0010
0100
0000
0000
0000
0010
0000
0100
0000
1000
0000
,
1100
0000
0000
1001
0000
1000
0010
0000
0000
0000
0010
0000
0100
0000
0001
0000
,
1001
0000
0000
1010
0000
2000
0002
0000
0000
0000
0000
0000
0000
0000
0000
0000
,
0000
0000
0000
0000
,
0000
0000
3003
0000
;

//--------------- dance-single - ----------------
#NOTES:
     dance-single:
     :
     Challenge:
     15:
     0.299367,0.239728,0,0,0,415,415,0,0,0,0,0.299367,0.239728,0,0,0,415,415,0,0,0,0:
0000
0000
0000
0000
,
1001
0000
0000
0011
0000
0010
0100
0000
0000
0000
1000
0000
0010
0000
1000
0000
,
1001
0000
0000
1010
0000
0100
0001
0000
0000
0000
0001
0000
0100
0000
0010
0000
,
0110
0000
0000
1001
0000
1000
0010
0000
0000
0000
0010
0000
0100
0000
0001
0000
,
1100
0000
0000
0110
0000
0100
0010
0000
0000
0000
0001
0000
0010
0000
0100
0000
,
1000
0000
0000
1001
0000
0001
0100
0000
1000
0000
0100
0000
0001
0000
0010
0000
,
0110
0000
0000
1100
0000
0010
0001
0000
0100
0000
0010
0000
0100
0000
0001
0000
,
1001
0000
0000
0011
0000
1000
0100
0000
0010
0001
0010
0100
0010
0100
1000
0000
,
1000
0010
0100
0000
0100
0001
0000
0101
0000
0100
1000
0000
1000
0100
0010
1000
,
0100
0000
0010
0000
0001
0000
0010
0000
0000
0100
1000
0000
0010
0000
0100
0001
,
0100
0000
0010
0000
0100
0000
0010
0000
1000
0000
0100
0010
0000
0010
0001
0000
,
1000
0000
0001
0010
0001
0000
1000
0000
0010
0100
0010
0000
1000
0000
0010
0100
,
0000
0100
0001
0000
1000
0000
0001
0010
0000
0010
0100
1000
0010
0000
0010
0100
,
0001
0000
1000
0000
0010
1000
0100
0000
0000
0010
0001
0000
0100
0000
0010
0000
,
1000
0010
1000
0000
0100
0000
0010
0001
0000
0000
0001
0010
0100
0000
1100
0000
,
0000
0000
1000
0010
0100
0000
0101
0000
0000
0000
0001
0010
0100
0000
0100
1000
,
0010
0000
0100
0001
0000
0100
0010
0000
0010
1000
0100
0010
0001
0000
0010
0000
,
0110
0000
0100
1000
0100
0000
0010
0000
0001
0000
1000
0001
1000
0000
0010
0000
,
0100
0000
0001
0100
0001
0000
1000
0000
0010
0000
0100
0010
0100
0000
0001
0000
,
1000
0000
0001
0010
0001
0000
1000
0100
1000
0000
0001
0000
0100
0000
0001
0000
,
0100
0000
0010
1000
0010
0000
0100
0001
0100
0000
0010
0000
1001
0000
0000
0000
,
1100
0000
0100
0010
0001
0000
0010
0000
0100
0000
1000
0010
0100
0000
0001
0000
,
0100
0000
0010
1000
0010
0000
0100
0000
0101
0000
0000
0000
1100
0000
0000
0000
,
1001
0000
1000
0010
0100
0000
0001
0010
0100
0000
1000
0010
0100
0010
0100
0010
,
1001
0000
0000
1001
0000
0000
0002
0000
2003
0000
3020
0000
0230
0000
0302
0000
,
1003
0000
0001
0010
0001
0000
0010
0000
0100
0000
1000
0010
1000
0000
0010
0000
,
0100
0000
0001
1000
0100
0000
0010
0001
1000
0000
0100
1000
0001
0000
1000
0000
,
1100
0000
0001
0000
0100
0010
0100
0000
1000
0000
0100
0000
0010
0100
0010
0000
,
1000
0000
0001
0010
0000
0010
0100
0000
1100
0000
0000
0000
0011
0000
0010
0000
,
0110
0000
0100
1000
0100
0000
0010
0100
0010
0000
0110
0000
0010
0000
0100
0000
,
1000
0000
0001
0100
0010
0000
0010
0100
0001
0000
0100
0000
0110
0000
0010
0000
,
1001
0000
1001
0011
0000
0011
0010
1100
,
1001
0000
0000
0101
0000
0000
0110
0000
1010
0000
0000
1001
0000
0000
0001
0010
,
0100
0000
0001
0100
0010
0000
0100
0000
1000
0000
0010
0100
1000
0000
0100
0000
,
0010
0000
1000
0100
0010
0000
0010
0001
0100
0000
0100
0010
0000
0000
0010
0000
,
1010
0100
0101
0001
0011
0100
1100
0010
,
1001
0000
1000
0100
0000
0011
0000
0000
1100
0000
0000
0000
0100
0000
0010
0000
,
0001
0000
0000
0011
0000
0000
0010
0000
0100
0000
0000
1100
0000
0000
1000
0000
,
0001
0000
0000
1001
0000
0000
0010
0000
0010
0000
0000
0001
0000
0000
1000
0000
,
0001
0010
0100
1000
0000
1000
0100
0010
0000
0010
0100
1000
0001
0100
0010
1000
,
0001
0100
0001
1000
0000
1000
0010
0100
0000
0100
0010
0000
0010
1000
0000
1000
,
0001
0010
0001
0100
0000
0100
0001
0010
0000
0010
0001
1000
0100
0010
0001
1000
,
0001
0010
0100
0001
0000
0001
0100
1000
0000
1000
0010
0100
0001
1000
0001
0100
,
0010
1000
0001
0010
0000
0010
0001
1000
0000
0001
0100
1000
0100
0001
0010
0100
,
1000
0001
0010
0001
0000
1000
0100
0010
0000
0010
0001
0000
0001
1000
0000
0001
,
0100
0010
0001
0010
0000
0010
1000
0100
0000
0001
0100
1000
0001
0010
0100
0010
,
0001
1000
0001
0100
0000
1010
0000
0011
0000
0101
0000
0100
0010
0000
1001
0000
,
0011
0000
0001
0010
0001
0000
1000
0100
0010
0100
1000
0010
0000
1010
0000
0101
,
0000
0000
0100
0001
0010
0000
0100
1000
0010
0000
0001
0010
0000
0010
1000
0100
,
0001
0000
0001
0100
1000
0000
0001
0100
1000
0000
0100
0001
0010
0100
0000
1100
,
0000
0110
0011
0000
0101
0110
1010
0000
,
1001
0000
1000
0010
1000
0000
0001
0100
0010
0100
0001
1000
0000
1100
0000
0011
,
0000
0000
0001
0010
0100
0000
0110
0000
1001
0000
1000
0010
0000
0110
0000
0101
,
0000
0000
0100
0001
0010
0000
0200
0000
2300
0000
3002
0000
0023
0000
0230
0000
,
2300
3000
1000
0001
0000
0011
0000
1010
0000
0100
0001
0100
0001
0000
0010
0000
,
0100
0000
1000
0001
0100
0000
0010
1000
0100
0000
0010
0001
0000
0001
1000
0000
,
0010
0000
0100
0010
0001
0000
0010
1000
0100
0000
0010
0100
1000
0000
1000
0000
,
0001
0000
0010
0100
0010
0000
0100
1000
0100
0000
1000
0010
0000
0010
0100
0000
,
0001
0000
0100
0001
0010
0000
0100
1000
0010
0000
0100
0001
0000
0001
1000
0000
,
0100
0000
1000
0000
0100
0000
0001
0000
0100
0000
0010
0001
0000
0010
0100
0000
,
1000
0000
0001
0000
0100
0000
0010
0000
0100
0000
0010
1000
0001
0000
1000
0000
,
0001
0000
1000
0010
1000
0000
0010
0100
0010
0000
0100
0001
0000
0001
1000
0000
,
1000
0010
0100
0010
1000
0001
1000
0100
0010
0000
0000
0000
0110
0000
0000
0000
,
1001
0000
1000
0010
0100
0000
0101
0000
0001
0000
0010
0000
0110
0000
0100
0000
,
1100
0000
1000
0100
0010
0000
0011
0000
0001
0000
1000
0000
1010
0000
0010
0000
,
0110
0000
0100
0001
1000
0000
1001
0000
0001
0000
0010
0000
0011
0000
0010
0000
,
1010
0000
0010
0001
0100
0000
0110
0000
1001
0000
0000
0000
0011
0000
0000
0000
,
0001
0000
0100
0000
1000
0000
0100
0000
0001
0000
1000
0010
0100
0000
1000
0000
,
0100
0000
0001
0000
1000
0000
0001
0000
0100
0000
0010
0100
1000
0000
1000
0100
,
0001
0000
0001
0010
0100
0000
0100
1000
0010
0100
1000
0100
0001
0000
0001
0010
,
1000
0000
0000
0110
0000
0000
1100
0000
0000
0000
0010
0000
1001
0000
0000
0000
,
0011
0000
0001
0010
0000
0000
0010
0000
1100
0000
1000
0001
0000
0000
0001
0000
,
1010
0000
0100
0000
1001
0000
0100
0000
0011
0000
0001
1000
0000
0000
0100
0000
,
0101
0001
0011
0010
1010
1000
1100
0100
,
0110
0000
0010
0001
0000
1001
0000
0000
1001
0000
0000
0000
0001
0000
1000
0000
,
0001
0000
0100
0000
0010
0000
1000
0100
0000
1000
0001
0000
0010
0000
0100
0000
,
0010
0000
0001
0000
0100
0000
0010
1000
0000
0010
0100
0000
0001
0000
0010
0000
,
0001
0000
1000
0100
1000
0000
0001
0010
0001
0000
1000
0100
1000
0000
0001
0000
,
1000
0000
1000
0000
0001
0000
0001
0000
1000
0010
1000
0010
0100
0010
0100
0001
,
1000
0000
0000
0000
1001
0000
0000
1010
0000
0100
0001
0000
0001
0010
0100
0010
,
0001
0000
0010
0000
0110
0000
0000
1100
0000
1000
0100
0000
0110
0000
0010
0001
,
0100
0000
1000
0000
0100
0000
0001
0010
0100
0000
0001
0000
0100
0000
1000
0010
,
0100
0000
0010
0000
0110
0000
0000
0110
0000
0010
1000
0000
0001
0000
0010
0001
,
1000
0000
0100
0000
0010
0000
0000
0011
0000
0001
1000
0000
0100
0000
1000
0001
,
1001
0000
0000
0000
0000
0000
0000
0000
0000
1001
0000
0000
0000
0000
0000
0000
0000
0000
0000
0000
0000
0000
0000
0000
0000
0000
0000
0000
0000
0000
1000
0000
0100
0000
1000
0000
0001
0000
0000
0000
0000
0000
0000
0000
0000
0000
0000
0000
,
0011
0000
0001
1000
0100
0000
1000
0000
0010
0000
1000
0001
0100
0000
0010
0000
,
1100
0000
0100
0000
0101
0000
0100
0000
1100
0000
1000
0010
0100
0000
0010
0000
,
0100
0000
0001
0010
0100
0000
1000
0010
0100
0000
0001
0010
0100
0000
1000
0000
,
0011
0000
0010
0100
0000
0110
0000
0000
1001
0000
0000
0000
0001
0000
0010
0000
,
0001
0000
0010
0100
1000
0000
0010
0000
1000
0000
0010
0100
0001
0000
1000
0000
,
0001
0000
0010
0100
0010
0000
1000
0010
0000
0010
0001
0000
0100
0000
1000
0000
,
0100
0000
0100
0001
1000
0000
0001
1000
0100
0000
0010
0001
0100
0000
0010
0000
,
0100
0001
0100
0001
0100
0001
0100
0000
0010
1000
0010
1000
0010
1000
0010
1000
,
0001
0010
0100
0010
0001
0100
0010
0100
0001
1000
0100
0010
0100
1000
0010
0100
,
0010
1000
0001
0010
0100
1000
0001
1000
0100
0010
0001
0100
0010
0100
0010
1000
,
0001
0010
0100
0010
0001
0010
0100
1000
0010
0100
0010
1000
0010
0100
0010
1000
,
0001
0010
0100
1000
0001
0010
0100
1000
0100
0010
0001
1000
0100
0010
0001
1000
,
0001
0000
0000
0011
0000
0000
0010
0000
0110
0000
0000
1100
0000
0000
0100
0000
,
0101
0000
0000
0011
0000
0000
0001
0000
1001
0000
0000
0101
0000
0000
0001
0000
,
0011
0001
1001
0001
1010
1000
1001
0001
,
0110
0000
0000
1100
0000
0000
0011
0000
0002
0000
0000
2003
0000
0000
3001
0000
,
1001
0000
0000
0011
0000
0010
0100
0000
0000
0000
1000
0000
0010
0000
1000
0000
,
1001
0000
0000
1010
0000
0010
0100
0000
0000
0000
0010
0000
0100
0000
0001
0000
,
0101
0000
0000
1001
0000
0001
0010
0000
0000
0000
0010
0000
0100
0000
1000
0000
,
1001
0000
0000
0011
0000
0002
2000
0000
0000
0000
0000
0000
0000
0000
0000
0000
,
0000
0000
0000
0000
,
0000
0000
3003
0000
;
