#TITLE:白日と幻月;
#SUBTITLE:;
#ARTIST:めと(Metomate);
#TITLETRANSLIT:Hakujitsu to gengetsu;
#SUBTITLETRANSLIT:;
#ARTISTTRANSLIT:Meto (Metomate);
#GENRE:;
#CREDIT:;
#MUSIC:Hakujitsu to gengetsu.ogg;
#BANNER:Hakujitsu to gengetsu.png;
#BACKGROUND:Hakujitsu to gengetsu-bg.png;
#CDTITLE:;
#SAMPLESTART:50.320;
#SAMPLELENGTH:15.000;
#SELECTABLE:YES;
#OFFSET:0.000;
#BPMS:0.000=118.000;
#STOPS:;
#BGSTAGE:3;
#BGCHANGES:;
#FGCHANGES:;

//--------------- dance-single - ----------------
#NOTES:
     dance-single:
     :
     Edit:
     18:
     0,0,0,0,0:
0000
0000
0000
0000
,
0000
0000
0000
0000
,
0000
0000
0000
0000
,
0001
0010
0100
1000
0000
0001
0100
0001
0010
0001
0000
1000
0100
0010
0001
1000
,
0001
0100
0010
1000
0000
0001
0100
0010
0100
0110
0000
1001
0000
0001
0010
0100
,
1000
0100
0010
0001
0000
1000
0001
0000
0100
0010
0000
0100
0110
0000
0001
1000
,
0010
0100
0001
1000
0100
0010
0001
1000
0000
1010
0000
0100
0001
0000
0001
0010
,
0100
0000
1000
0000
0010
0000
0100
0001
0100
0001
1000
0000
0010
0000
1000
0000
0001
0000
0011
0000
0000
0000
1100
0000
0000
0000
1000
0000
0100
0000
0010
0000
,
0002
0000
1000
0000
0000
0000
1003
0010
1000
0010
0100
0000
0001
0000
0100
0000
0000
0000
1010
0000
0000
0000
0110
0000
0000
0000
0001
0000
1000
0100
0010
0001
,
1000
0000
0001
1000
0020
1000
0000
0100
0000
1030
0001
0010
0100
1000
0000
0001
,
0010
0100
0020
0001
0000
0100
0000
0031
0000
0011
0000
1000
0001
0100
0001
0100
,
0010
0000
0100
0000
0001
0000
1000
0001
0100
0001
1000
0000
0020
0000
0100
0000
0000
0000
0130
0000
0001
0000
1000
0000
0100
0000
0010
0000
0002
0000
0000
0000
,
1003
0000
0010
0000
0100
0000
0001
1000
0100
1000
0001
0000
0100
0000
0010
0000
1000
0000
0100
0000
0010
0000
0100
0000
1000
0000
0002
0000
0000
0000
0000
0000
,
0103
0000
0000
0000
0010
0000
1000
0001
0010
0000
0000
0000
0000
0000
0110
0000
0000
0000
1100
0000
0000
0000
0011
0000
0000
0000
1001
0000
0000
0000
1000
0000
,
0010
0100
0010
1000
0001
0000
0010
0011
0000
1001
0000
1100
0000
0110
0000
0010
,
0001
0000
0000
0000
1000
0000
0001
0100
0010
0100
0001
0000
0010
0000
0100
0000
2000
0000
0010
0000
0000
0000
0001
0000
0000
0000
3010
0000
0100
0000
0001
0000
,
0010
0000
0100
0000
1000
0000
0010
0100
0001
0100
0010
0000
2000
0000
0001
0000
0000
0000
0001
0000
0000
0000
3010
0000
0100
0000
0001
0000
0010
0000
0001
0000
,
1000
0000
0100
0000
0010
0000
0001
0000
0100
0000
0010
0000
1000
0000
0001
0000
0000
0000
0000
0000
0001
0000
1000
0010
0100
0000
0010
0000
1000
0000
0001
0000
,
1000
0000
0100
0000
0110
0000
0020
0000
0000
0000
0031
0000
1000
0000
0010
0000
0000
0000
0000
0000
0000
0000
0000
0000
0100
0000
0001
1000
0100
0000
0010
0000
,
0001
1000
1100
0001
0000
1000
0001
0101
1000
0010
1010
0100
0000
0001
0100
0110
,
0001
0000
1000
0000
0010
0000
1000
0001
0100
0001
1000
0000
0010
0000
1000
0000
0001
0000
0100
0000
0001
0000
1000
0100
0020
0000
0000
0000
0031
0000
0010
0100
,
2000
0000
0000
0000
0000
0000
0001
0000
0000
0000
0000
0000
0000
0000
0000
0000
0000
0000
3010
0000
0000
0000
0000
0000
0110
0000
0000
0000
0000
0000
0000
0000
0000
0000
0000
0000
0001
0000
0000
0000
0000
0000
1000
0000
0000
0000
0000
0000
0001
0000
0000
0000
0000
0000
1000
0000
0000
0000
0000
0000
0010
0000
0000
0000
0000
0000
0100
0000
0000
0000
0000
0000
0001
0000
0000
0000
0010
0000
0000
0000
0100
0000
0000
0000
1000
0000
0000
0010
0000
0000
1000
0000
0000
0010
0000
0000
,
0100
0000
0001
0000
0010
0000
0100
0000
0000
0000
0010
0000
0001
1000
0001
1000
0001
0000
0100
0000
0100
0000
1000
0000
0001
0000
1000
0000
0100
0000
0100
0000
,
0001
0000
1000
0000
0000
0000
1001
0000
0000
0000
0001
0000
0100
0000
0100
0000
1000
0000
0001
0100
0001
0000
1000
0000
0010
0000
0100
0000
1000
0000
0100
0000
,
0001
0010
0100
1000
0000
1000
0100
0010
0001
1000
0100
0010
0002
0000
0000
0000
,
1003
0010
0100
0010
0100
0000
0001
0000
0101
0000
0100
0000
0001
0000
1000
0000
0100
0000
1000
0000
0001
0000
0100
0000
0110
0000
0010
0000
1000
0000
0001
0000
,
0010
0100
0010
0001
1001
1000
0010
0100
0010
1000
0001
0010
0011
0001
0010
0100
,
1000
0010
0100
0010
1010
1000
0010
0100
0001
0010
0100
1000
1100
0100
1000
0001
,
0100
0000
0010
0000
0100
0000
0001
0000
1001
0000
1000
0000
0100
0000
0010
0000
0001
0000
0100
0000
1000
0000
0100
0000
0000
0000
0100
0000
0010
1000
0001
0000
,
0020
0000
0031
0010
2000
0000
3001
0100
0020
0000
0031
1000
0010
0100
1000
0100
,
0002
0000
0000
0000
0000
0000
1003
0000
0000
0100
0000
0000
0020
0000
0000
0000
0000
0000
1030
0000
0000
0010
0000
0000
0002
0000
0000
0000
0000
0000
0103
0000
0000
0010
0000
0000
1000
0000
0100
0000
0010
0000
0001
0000
0010
0000
0100
0000
,
1000
0000
0001
0100
0110
0000
0010
1000
0001
0010
0000
0100
1100
0000
1000
0010
,
0001
0000
1000
0000
0100
0000
0010
0000
1000
0000
0100
0000
0001
0000
1000
0000
0010
0000
0100
0000
1000
0000
0010
0100
0010
0000
1000
0000
0001
0000
0010
0000
,
0100
0000
1000
0000
0001
0000
0010
0000
0100
0000
0010
0000
1001
0000
0000
0000
0000
0000
0001
0000
0000
0100
0000
0000
0001
0000
0000
0010
0000
0000
0100
0000
0000
1000
0000
0000
0010
0000
0000
0100
0000
0000
0010
0000
0000
1000
0000
0000
,
0001
0010
0100
0000
1000
1100
0000
1010
0000
0011
0001
0010
0001
1000
0001
0100
,
0020
0000
0000
1000
1000
0000
0130
0001
0020
0100
0000
0001
0001
0000
0130
1000
,
0020
0000
0000
0000
0000
0000
0000
0000
0000
0000
0000
0000
0000
0000
0000
0000
0000
0000
1000
0000
0000
0000
0000
0000
1000
0000
0000
0000
0000
0000
0000
0000
0000
0000
0000
0000
0100
0000
0000
0000
0000
0000
0000
0000
0000
0000
0000
0000
0230
0000
0000
0000
0000
0000
0001
0000
0000
0000
0000
0000
0000
0000
0000
0000
0000
0000
0301
0000
0000
1000
0000
0000
0001
0000
0000
0000
0010
0000
0000
0000
0100
0000
0000
0000
1000
0000
0000
0000
0001
0000
0000
0000
0010
0000
0000
0000
,
0100
0000
0100
1000
0001
1000
0010
1000
0100
0001
0100
1000
0001
0010
1000
0010
,
0001
0000
0000
0100
0000
0000
0001
0000
0000
1000
0000
0000
0001
0000
0000
0010
0000
0000
0001
0000
0000
1000
0000
0000
0001
0000
0010
0000
0100
0000
1000
0000
0001
0000
0010
0000
0100
0000
1000
0000
0001
0000
0010
0000
0100
0000
1000
0000
,
0010
0100
0001
0020
0000
0230
0000
1300
0001
0100
0010
2000
0000
3020
0000
0230
,
0000
0302
0000
2003
0000
3100
0010
0100
1000
0010
0100
0010
1000
0100
0010
0001
,
0010
0000
0100
0000
1100
0000
0000
0000
0000
0000
0011
0000
0000
0000
0101
0000
0000
0000
1010
0000
0000
0000
1000
0010
1000
0000
1000
0000
0010
0000
0010
0000
,
0100
0000
0000
0000
0100
0000
0101
0000
0000
0000
1010
0000
0000
0000
1001
0000
0000
0000
1100
0000
1000
0000
0001
0010
0001
0000
1000
0000
0100
0000
0010
0000
,
0001
1000
0001
0000
0100
0010
0100
0000
0001
0000
1000
0000
0010
0000
1000
0000
2001
0000
3001
0000
0010
0000
0100
0000
0210
0000
2300
0000
0000
0000
3010
0000
,
2010
0000
3002
0000
0000
0000
0103
0000
0210
0000
0310
0000
1000
0100
0010
0001
2000
0000
0001
0000
0001
0000
0200
0000
3000
0000
0310
0000
0001
0000
0010
0000
,
0100
0000
0000
0000
1000
0000
0000
0000
0001
0000
0000
0000
1000
0000
0000
0010
0000
0000
0200
0000
0000
0000
0000
0000
0301
0000
0000
0000
0000
0000
0001
0000
0000
0010
0000
0000
0200
0000
0000
0000
0000
0000
2300
0000
0000
0000
0000
0000
0000
0000
0000
0000
0000
0000
0000
0000
0000
0000
0000
0000
3001
0000
0000
0000
0100
0000
0000
0000
0010
0000
0000
0000
1000
0000
0000
0000
0000
0000
0000
0000
0010
0000
0000
0000
0000
0000
0000
0000
0100
0000
0000
0000
0000
0000
0000
0000
,
0001
1000
0110
0001
1000
0110
0000
1001
0000
0001
0010
0100
0000
1002
0103
0010
,
0100
0000
0001
0000
1000
0000
0001
0000
0000
0000
0001
1000
0001
0000
0010
0000
0100
0000
1000
0000
0100
0000
0020
0000
0000
0000
0031
0000
1000
0010
0100
0000
,
0010
0000
0110
0000
0000
0000
0110
0000
0000
0000
1001
0000
0000
0000
1001
0000
0000
0000
0001
0100
0010
0000
0110
0000
0000
0000
1000
0000
0100
0000
0010
0000
,
1000
0010
0001
0100
0110
0010
1000
0001
0100
1000
0000
0100
0110
0000
0010
1000
,
0100
0001
0100
1000
1001
0001
0010
0100
0000
1100
0000
0011
0001
1000
0100
0010
,
0001
0000
0010
0000
0100
0000
1000
0001
1000
0001
0100
0000
0010
0000
1000
0000
0001
0000
0010
0000
0000
0000
0110
0000
0000
0000
0100
1000
0001
0000
0100
0000
,
0010
0000
0100
0000
0001
0000
1000
0010
1000
0010
0100
0000
0001
0000
1000
0000
0100
0000
1100
0000
0000
0000
1001
0000
0000
0000
0001
0000
0100
0010
0100
0010
,
1000
0000
0001
0000
0010
0000
0100
0000
1000
0000
0001
0000
0100
0000
0000
0000
0101
0000
0000
0000
1010
0000
0000
0000
0010
0000
0000
1000
0000
0000
0001
0000
0000
0110
0000
0000
1000
0000
0000
0001
0000
0000
0100
0000
0000
0010
0000
0000
,
0110
0000
0001
1000
0010
1000
0100
0010
0000
0010
0100
1000
0001
0100
1000
0100
,
0001
0000
1000
0000
0100
0000
0010
0001
1000
0001
1000
0000
0010
0000
0100
0000
0001
0000
0101
0000
0000
0000
1010
0000
0000
0000
0010
0000
0100
0000
0010
0000
,
1000
0100
0010
1001
0000
1000
0001
0010
0100
0011
0000
1100
0000
1000
0010
0100
,
0000
0000
0000
0000
0000
0000
0110
0000
0000
0000
0000
0000
1010
0000
0000
0101
0000
0000
0000
0000
0000
1001
0000
0000
0000
0000
0000
0001
0000
0000
1000
0000
0010
0000
0100
0000
0001
0000
0010
0000
0100
0000
1000
0000
0001
0000
0100
0000
;
