#TITLE:はじまりのセツナ;
#SUBTITLE:;
#ARTIST:蝋梅学園中等部1年3組;
#TITLETRANSLIT:Hajimari no Setsuna;
#SUBTITLETRANSLIT:;
#ARTISTTRANSLIT:Roubai Academy Middle School Class 1-3;
#GENRE:ANIME;
#CREDIT:;
#BANNER:Hajimari no Setsuna.png;
#BACKGROUND:Hajimari no Setsuna-bg.png;
#LYRICSPATH:;
#CDTITLE:;
#MUSIC:Hajimari no Setsuna.ogg;
#OFFSET:0.573000;
#SAMPLESTART:58.723999;
#SAMPLELENGTH:15.703000;
#SELECTABLE:YES;
#BPMS:0.000000=128.000000
;
#STOPS:
;
#BGCHANGES:1.000=Hajimari no Setsuna.avi=1.000=0=0=0=====,
99999=-nosongbg-=1.000=0=0=0 // don't automatically add -songbackground-
;
#KEYSOUNDS:;
#ATTACKS:;

//---------------dance-single - ----------------
#NOTES:
     dance-single:
     :
     Hard:
     11:
     0.500814,0.526964,0.499229,0.066564,0.072111,316.000000,271.000000,45.000000,6.000000,0.000000,0.000000,0.500814,0.526964,0.499229,0.066564,0.072111,316.000000,271.000000,45.000000,6.000000,0.000000,0.000000:
0000
0000
0000
0000
,
0101
0000
0001
0100
0000
0100
0010
1000
,
0001
0000
1000
0100
0000
0100
0010
0001
,
1000
0000
0001
0010
0000
0010
0100
1000
,
0001
0000
0001
0100
0000
0100
0010
1000
,
0001
0000
0011
0000
0010
0001
1000
0000
,
1010
0000
0101
0000
0100
0001
0010
0000
,
0100
0000
1000
0001
0000
0001
0200
0000
,
0310
0000
0000
0100
0000
0000
0101
0000
0000
0000
0001
0000
0010
0000
0001
0000
,
1000
0000
0000
0010
0000
0000
1010
0000
0000
0000
1000
0000
0010
0000
1000
0000
,
0100
0000
0000
0010
0000
0000
0110
0000
0000
1000
0000
0000
0001
0000
0100
0000
,
0010
0000
0000
1000
0000
0000
1001
0000
0000
0000
0001
0000
0010
0000
0100
0000
,
1000
0000
0001
0100
0001
0100
0010
1000
,
0001
0000
1000
0100
1000
0100
0010
0001
,
1000
0000
0001
0100
1000
0100
0001
1000
,
0100
0000
0000
0010
0000
0000
1001
0000
0000
0000
0000
0000
1001
0000
0000
0000
,
0001
0000
1000
0010
0000
0100
0001
0000
,
0010
0000
0100
1000
0000
0001
1000
0000
,
1001
0000
0001
0100
0000
0010
1000
0000
,
0100
0000
0010
0001
0000
1000
0010
0000
,
0110
0000
0100
0001
1000
0100
0010
0000
,
0011
0000
0001
0010
0100
1000
0001
0000
,
1001
0000
1000
0010
0000
0100
0001
1000
,
0100
0000
0010
0001
0000
0100
0001
1000
,
1010
0000
0000
0101
0000
0000
1010
0000
0000
0000
1000
0000
0100
0000
0010
0000
,
0011
0000
0000
1100
0000
0000
0011
0000
0000
0000
0001
0000
0100
0000
0010
0000
,
0110
0000
0000
1010
0000
0000
1100
0000
0000
0101
0000
0000
0001
0000
0010
0000
,
0100
0000
0000
0110
0000
0000
1001
0000
0000
0000
0000
0000
1001
0000
0000
0000
,
0001
0000
1000
0010
1000
0100
1000
0100
,
0010
0000
0001
0100
0001
0010
0001
0100
,
0010
0000
1000
0100
0001
0100
1000
0001
,
0100
0000
0000
0110
0000
0000
1001
0000
0000
0000
0000
0000
0110
0000
0000
0000
,
1001
0000
1000
1000
0000
0010
0100
0001
,
0010
0000
0100
0100
0000
1000
1000
0001
,
0010
0000
0011
0000
0002
0023
0230
2300
,
3020
0000
0130
0100
0000
0010
1001
0000
,
0001
0000
1000
0100
0000
0001
0100
0000
,
0110
0000
0001
0100
0000
1000
0100
0000
,
0001
0010
0100
1000
1100
0000
0011
0000
,
1001
0000
1000
0000
0001
0100
0001
0100
,
0001
0000
1000
0100
0010
0100
1000
0100
,
0001
0000
0100
1000
0010
0001
1000
0100
,
0001
0000
0001
0100
0010
0100
0001
0100
,
1000
0000
0100
0001
0010
1000
0001
0100
,
1100
0011
0101
1010
,
0110
0000
1001
0000
0010
0100
1001
0000
,
0001
0100
0001
0000
1000
0100
1000
0000
,
0010
0000
0000
0010
0000
0000
1000
0000
1001
0000
0000
0000
0000
0000
0000
0000
;

//---------------dance-single - ----------------
#NOTES:
     dance-single:
     :
     Challenge:
     15:
     0.866915,0.843142,0.454853,0.044376,1.126039,547.000000,506.000000,41.000000,4.000000,0.000000,0.000000,0.866915,0.843142,0.454853,0.044376,1.126039,547.000000,506.000000,41.000000,4.000000,0.000000,0.000000:
// measure 0
0000
0000
0000
0000
,  // measure 1
0101
0000
1000
0100
0000
1000
0001
0000
0000
0010
0001
0010
0001
0000
1000
0100
,  // measure 2
1000
0000
0001
0100
0000
0001
1000
0000
0000
0010
1000
0010
1000
0000
0010
0100
,  // measure 3
0001
0000
1000
0001
0000
1000
0100
0000
0000
0010
0100
0010
0100
0000
0100
1000
,  // measure 4
0010
0000
0010
0100
0000
0100
0001
0000
0000
0001
1000
0001
1000
0000
0100
0010
,  // measure 5
0100
0000
0010
0001
0000
1000
0010
0000
0110
0000
0100
0001
0010
0000
0100
0010
,  // measure 6
0100
0000
1000
0001
0000
0100
0010
0000
0000
0010
1000
0000
1001
0000
0001
0000
,  // measure 7
0010
0000
0100
0000
1000
0000
0001
0100
0000
0000
0001
0000
0020
0000
0000
0000
,  // measure 8
0130
0000
1000
0010
0000
0000
1010
0000
0100
0001
0100
0001
0100
0010
1000
0000
,  // measure 9
1010
0000
0100
0001
0000
0000
1001
0000
0000
0001
1000
0000
1000
0100
0010
0100
,  // measure 10
1000
0000
0001
0100
0000
0000
0110
0000
0000
0001
0010
0001
0010
0100
1000
0000
,  // measure 11
1100
0000
0010
0001
0000
0000
1001
0000
1000
0100
0010
0001
0010
0100
1000
0000
,  // measure 12
1100
0000
0001
1000
0100
1000
0100
0010
0001
1000
0100
1000
0100
0010
0001
1000
,  // measure 13
0010
0000
1000
0001
0100
0001
0100
0010
1000
0001
0100
0001
0100
0010
1000
0001
,  // measure 14
0010
0000
0100
1000
0001
1000
0001
0100
0010
1000
0001
1000
0001
0010
0100
1000
,  // measure 15
0001
0000
0001
1000
0000
1000
0010
0000
0000
0000
0000
0000
0101
0000
0001
0010
,  // measure 16
0100
0000
0100
1000
0000
1000
0010
0000
0000
0100
0001
0000
1001
0000
1000
0010
,  // measure 17
0100
0000
0100
0010
0000
1000
0001
0000
0010
0100
0010
0100
1000
0100
1000
0010
,  // measure 18
0100
0000
0100
0001
0000
0001
1000
0000
0000
1000
0100
0010
0001
0000
0001
0010
,  // measure 19
0100
0000
0100
1000
0000
1000
0001
0000
1000
0001
0100
0010
0100
1000
0100
0001
,  // measure 20
0010
0000
0100
1000
0000
0001
1000
0000
0000
0010
0100
0000
0101
0000
0001
1000
,  // measure 21
0010
0000
0100
0001
0000
1000
0001
0000
0000
0010
0100
0000
1100
0000
1000
0010
,  // measure 22
0001
0000
1000
0100
0000
0100
0001
0000
0000
0001
0010
0000
1100
0000
1000
0100
,  // measure 23
0001
0000
1000
0010
0000
0010
0001
0000
1000
0100
0010
0001
1000
0100
0010
0001
,  // measure 24
1000
0000
0000
0011
0000
0000
1100
0000
0000
0001
1000
0100
1000
0100
0001
0100
,  // measure 25
1000
0000
0000
1010
0000
0000
0101
0000
0000
1000
0001
0100
0001
0100
1000
0100
,  // measure 26
0001
0000
0000
0011
0000
0000
1100
0000
0000
1000
0001
0100
0001
0100
0001
0010
,  // measure 27
0100
0000
0000
0110
0000
0000
1001
0000
0001
0100
0010
1000
0001
0010
0100
1000
,  // measure 28
0001
0000
1000
0010
0100
0010
0100
0001
0010
0100
1000
0100
0010
0001
1000
0001
,  // measure 29
1000
0000
0010
0100
0001
0100
0001
1000
0100
0010
0001
0010
0100
1000
0001
1000
,  // measure 30
0001
0000
0100
0010
1000
0010
1000
0001
0010
0100
1000
0010
0100
0001
1000
0001
,  // measure 31
0010
0000
0010
0100
0000
0100
1000
0000
0000
0000
0000
0000
1001
0000
0000
0000
,  // measure 32
0010
0000
1000
0001
0000
1000
0100
0000
0000
0100
0010
0000
0001
0000
1000
0010
,  // measure 33
0100
0000
0010
1000
0000
0001
0010
0000
0000
0000
1001
0000
0100
0000
1001
0000
,  // measure 34
0001
0000
1000
0010
0000
0010
0100
0000
0002
0000
0023
0000
0230
0000
1300
0001
,  // measure 35
0010
0000
1000
0010
0000
0001
0100
0000
0000
0100
0010
0000
1000
0000
1001
0000
,  // measure 36
0001
0000
0100
1000
0000
1000
0100
0000
0001
0010
0100
0000
0110
0000
0010
0000
,  // measure 37
0110
0000
0100
0001
0000
0001
0100
0000
1000
0010
0100
0000
0110
0000
0000
0000
,  // measure 38
1000
0000
0001
0000
0100
0000
0010
1000
0000
0000
1100
0000
0011
0000
0000
0001
,  // measure 39
0010
0000
1000
0010
0100
0000
1000
0000
0001
0100
0001
0100
0001
0100
0010
0000
,  // measure 40
0110
0000
1000
0001
0000
1000
0100
0000
0010
0001
0010
0000
0101
0000
0001
1000
,  // measure 41
0010
0000
0100
0010
0000
0010
1000
0000
0001
0010
0100
0000
0110
0000
0010
0001
,  // measure 42
1000
0000
0001
0100
0000
0001
1000
0000
0010
0100
0010
0000
0110
0000
0100
0001
,  // measure 43
1000
0000
0001
0010
0000
1000
0010
0000
0100
1000
0001
0000
1001
0000
0001
0100
,  // measure 44
1000
0000
0001
0010
0000
0010
1000
0000
0001
0010
0100
0000
1100
0000
1000
0100
,  // measure 45
0001
0000
1000
0010
0000
0010
0001
0000
1000
0000
0110
0000
1001
0000
0001
0100
,  // measure 46
0010
0000
0010
0100
0001
0000
1000
0100
0000
0100
1000
0000
0001
0000
0000
1000
,  // measure 47
0010
0000
0100
0010
0100
0010
1000
0000
1001
0000
0000
0000
0000
0000
0000
0000
;
