#TITLE:廃課金式ラブストーリー;
#SUBTITLE:;
#ARTIST:0.1gの誤算;
#TITLETRANSLIT:Hai kakin Shiki Love Story;
#SUBTITLETRANSLIT:;
#ARTISTTRANSLIT:0.1g No Gosan;
#GENRE:POP;
#CREDIT:;
#MUSIC:Hai kakin Shiki Love Story.ogg;
#BANNER:Hai kakin Shiki Love Story.png;
#BACKGROUND:Hai kakin Shiki Love Story-bg.png;
#CDTITLE:;
#SAMPLESTART:64.542;
#SAMPLELENGTH:10.323;
#SELECTABLE:YES;
#OFFSET:-0.026;
#BPMS:0.000=186.000;
#STOPS:;
#BGCHANGES:2.000=Hai kakin Shiki Love Story.avi=1.000=0=0=0=StretchNoLoop====,
99999.000=-nosongbg-=1.000=0=0=0=StretchNoLoop====
;
#FGCHANGES:;

//--------------- dance-single - ----------------
#NOTES:
     dance-single:
     :
     Medium:
     12:
     0,0,0,0,0:
0000
0000
0000
0000
,
0000
0000
0000
0000
,
0000
0000
0000
0000
,
0000
0000
0000
0000
,
0000
0000
0000
0000
,
0000
0000
0000
0000
,
0000
0000
0000
0000
,
0000
0000
0000
0000
,
0000
0000
0000
0000
,
1000
0100
0010
0001
0000
1000
0000
0010
,
0000
0100
0010
0000
1000
0001
1000
0000
,
0001
0100
0010
1000
0000
0010
0000
0100
,
0000
0001
1000
0000
0100
0010
0100
0000
,
1000
0001
0010
0100
0000
0010
0000
0001
,
0000
1000
0010
0000
0100
0001
0100
0000
,
0010
1000
0001
0000
0010
0100
1000
0000
,
0011
1100
0011
0000
,
0001
0000
0001
0000
1000
0010
0100
0010
,
1000
0010
0100
0001
,
1000
1100
0001
0101
,
0010
0000
1000
0001
1000
0000
0100
0000
,
1001
0000
1000
0000
0001
0010
0100
0010
,
0001
0010
0100
1000
,
0000
0001
0100
0000
0010
1000
0001
0000
,
0011
1100
1010
0101
,
1001
0000
1000
0000
0001
0010
0100
0000
,
0100
0010
0001
0000
1000
0000
1000
0000
,
0001
0101
1000
1100
,
1000
0100
0010
0000
0001
0000
0100
0000
,
0010
0000
0110
0000
1000
0001
0100
0001
,
1000
0000
0010
0000
0100
0000
0000
0001
,
1000
0000
0100
1000
0100
0000
0010
0001
,
0200
2300
3200
0302
,
1003
0100
1000
0100
1000
0000
0001
0100
,
0001
0100
0001
0000
1000
0100
1000
0100
,
1000
0002
0023
0230
,
1300
0010
1000
0010
1000
0000
0001
0010
,
0001
0010
0001
0000
1000
0010
1000
0010
,
1000
0002
0203
0320
,
1030
0100
0001
0100
1000
0000
0001
0100
,
1000
0100
0001
0000
1000
0100
0001
0100
,
1000
1010
0101
1010
,
1000
0010
0001
0010
1000
0000
0001
0010
,
1000
0010
0001
0000
1000
0010
0001
0010
,
1000
1010
1100
0011
,
0001
0001
1000
1000
,
0010
0000
0010
0000
0100
0001
0100
0001
,
0000
1000
0100
1000
0000
0100
0010
0001
,
1000
0000
0000
1000
0000
0000
1000
0000
0000
0000
0001
0000
0100
0000
0001
0000
,
0100
0000
0000
0010
0000
0000
0100
0000
0110
0000
0000
0000
0010
0000
0000
0000
,
0101
0000
1010
0000
1000
0010
0100
0001
,
1000
0100
0010
0001
,
0011
0000
1100
0000
1000
0100
0010
0001
,
1000
0000
0001
0100
0010
0000
1001
0000
,
0000
0010
0100
0010
0000
0100
0010
1000
,
0001
0000
0010
0100
0000
1000
0100
0010
,
0001
0001
0100
0010
,
1000
0000
0000
1000
0000
0000
1000
0000
0001
0000
0000
0000
0010
0000
0000
0000
,
0011
1100
0011
1100
,
1000
0010
0001
0010
0100
0000
0010
0000
,
1010
0101
1010
0101
,
0001
0010
1000
0010
0100
0000
1001
0000
,
0000
0001
0100
0010
0000
1000
0100
0010
,
0100
1000
0001
1000
0000
0010
0100
0010
,
1000
0000
1000
0000
0001
0000
0001
0010
,
0100
0000
0000
0100
0000
0000
0100
0000
1000
0000
0000
1000
0000
0000
1000
0000
,
0010
0000
0010
0100
0000
0100
0001
0010
,
0000
0100
1000
0100
1000
0000
0001
0000
,
0200
0000
0301
2000
0000
3200
0000
0320
,
0000
0031
1000
0001
1000
0000
0010
0000
,
1000
0100
0010
0001
0000
1000
0000
0010
,
0000
0100
0010
0000
1000
0001
1000
0000
,
0001
0100
0010
1000
0000
0010
0000
0100
,
0000
0001
1000
0000
0100
0010
0100
0000
,
1000
0001
0010
0100
0000
0010
0000
0001
,
0000
1000
0010
0000
0100
0001
0100
0000
,
0010
1000
0001
0000
0010
0100
1000
0000
,
0011
1100
1001
1001
,
0010
0000
0010
0000
0100
0010
0100
0000
,
0001
1000
0001
1000
0010
0000
0200
0000
,
0002
0000
0000
0000
,
0000
0000
0000
0000
,
0303
0000
0000
0000
;

//--------------- dance-single - ----------------
#NOTES:
     dance-single:
     :
     Hard:
     14:
     0,0,0,0,0:
0000
0000
0000
0000
,
0000
0000
0000
0000
,
0000
0000
0000
0000
,
0000
0000
0000
0000
,
0000
0000
0000
0000
,
0000
0000
0000
0000
,
0000
0000
0000
0000
,
0000
0000
0000
0000
,
0001
0000
0000
1000
0000
0000
1100
0000
0000
0000
0012
0000
0000
0000
0000
0000
,
1003
0010
0100
0001
0000
0101
0000
0011
,
0000
0001
0010
0100
1000
0100
0010
0100
,
1000
0010
0100
0001
0000
1010
0000
1100
,
0000
0001
0100
0010
1000
0010
0100
0001
,
0010
0100
0010
0001
0000
0011
0000
1100
,
0000
1000
0010
0100
0001
1000
0100
0010
,
0011
0000
0001
0100
0001
0000
0100
0010
0100
0000
0001
1000
0001
0000
1000
0100
,
1000
0011
1100
1001
,
0100
0000
0000
0001
0010
0000
0000
0100
1000
0000
0010
0000
0100
0000
0010
0000
,
1000
0001
0010
0100
2000
0000
3001
0000
,
0002
0100
0103
0002
0010
0013
0100
1000
,
0010
0100
0001
1000
1100
0000
0011
0000
,
1001
0000
0000
1000
0010
0000
0000
0100
0001
0000
0100
0000
0010
0000
0100
0000
,
0001
1000
0100
0010
0001
0100
0110
0000
,
0000
0010
1000
0100
0001
0100
1000
0010
,
0011
1010
1100
0011
,
1001
0000
0000
1000
0010
0000
0000
0100
0001
0000
0010
0000
0100
0000
1000
0000
,
0100
0010
0100
1000
0001
0100
0010
0000
,
2000
0100
3100
2000
0010
3010
0100
0001
,
0010
0100
1000
0010
0100
0000
1001
0000
,
0101
0000
1100
0000
1000
0001
0100
0001
,
1000
0100
0010
0100
2000
0000
0000
3010
,
0001
0010
0100
1000
0100
0001
0010
0100
,
1000
0000
0010
1000
0010
0000
0100
0010
0100
0000
0001
1000
0001
0000
0000
0000
,
1000
0100
1000
0100
1100
0000
0001
0100
,
0001
0100
0101
0000
1000
0100
1000
0100
,
1100
0002
0023
0230
,
1300
0010
1000
0010
1010
0000
0001
0010
,
0001
0010
0011
0000
1000
0010
1000
0010
,
1010
0000
2000
0000
3020
0000
0230
0300
,
0101
0001
1000
0001
0101
0000
1100
1000
,
0001
1000
1100
0000
0101
0001
1000
0001
,
0101
1100
0101
1100
,
0101
0100
0010
0100
0101
0000
1100
0100
,
0010
0100
1100
0000
0101
0100
0010
0100
,
0101
1010
1100
0011
,
0110
0000
0100
1000
0110
0000
0100
0001
,
0110
0000
0010
0001
0100
1000
0100
0001
,
0000
0001
0010
0001
0010
0100
1000
0100
,
1000
0010
0000
0010
0100
0000
0001
0000
0000
0000
0010
0000
0100
0000
0010
0000
,
0011
0000
0000
1100
0000
0000
0110
0000
2001
0000
0000
0000
3002
0000
0000
0000
,
0103
0000
0010
1000
0010
0000
1000
0100
1000
0000
0010
0000
0100
0000
0010
0000
,
1000
0100
0010
0001
2000
0000
3020
0000
,
0130
0000
0001
0010
0001
0000
0100
0001
0100
0000
0010
0000
1000
0000
0100
0000
,
1000
0010
0001
0010
1000
0000
1001
0000
,
0000
0000
0001
0000
0100
0000
0001
0010
0000
0010
0100
0000
1000
0000
0010
0000
,
0100
0001
0100
0001
0000
1000
0100
0010
,
0001
0000
1000
0100
1000
0000
0001
0100
0001
0000
1000
0100
1000
0000
0001
0100
,
0001
0000
0000
1010
0000
0000
0010
0000
0200
0000
0000
0000
0320
0000
0000
0000
,
1030
0000
0100
0001
0100
0000
1000
0100
1000
0000
0010
0000
0100
0000
0001
0000
,
0001
1000
0100
0010
0002
0000
2003
0000
,
3001
0000
0100
1000
0100
0000
0001
0100
0001
0000
0010
0000
0100
0000
1000
0000
,
0010
0001
0010
1000
0001
0000
1001
0000
,
0000
0000
1000
0000
0100
0000
0010
0001
0000
0001
1000
0000
0010
0000
1000
0000
,
0001
0010
0001
1000
0000
0100
1000
0100
,
0010
0000
0001
0100
0001
0000
1000
0100
1000
0000
0001
0100
0001
0000
1000
0100
,
1000
0000
0001
0100
0000
0100
0010
0000
0010
0000
1000
0100
0000
0100
0010
0000
,
0110
0000
0010
0100
0000
0100
1000
0010
,
0000
1000
0001
1000
0001
0000
0110
0000
,
0020
0000
1000
2030
0000
3200
0000
2300
,
0000
3001
0100
0001
0100
0000
0110
0000
,
1001
0001
0010
0100
0000
1100
0000
1010
,
0000
1000
0010
0100
0001
0100
0010
0100
,
0001
0010
0100
1000
0000
0011
0000
0101
,
0000
1000
0100
0010
0001
0010
0100
1000
,
0010
0100
0010
1000
0000
1010
0000
0101
,
0000
0001
0010
0100
1000
0001
0100
0010
,
1010
0000
1000
0010
1000
0000
0010
0100
0010
0000
1000
0001
1000
0000
0001
0010
,
0100
1100
1010
1001
,
0002
0000
0000
0000
2003
0000
0000
3001
0100
0000
1000
0000
0100
0000
0001
0000
,
0010
0100
0010
0100
1000
0000
0011
0000
,
2200
0000
0000
0000
,
0000
0000
0000
0000
,
3300
0000
0000
0000
;

//--------------- dance-single - ----------------
#NOTES:
     dance-single:
     :
     Challenge:
     17:
     0.940181,1.163981,0.559193,0.077427,0.808679,765,700,65,9,0,0,0.940181,1.163981,0.559193,0.077427,0.808679,765,700,65,9,0,0:
0000
0000
0000
0000
,
0000
0000
0000
0000
,
0000
0000
0000
0000
,
0000
0000
0000
0000
,
0000
0000
0000
0000
,
0000
0000
0000
0000
,
0000
0000
0000
0000
,
0000
0000
0000
0000
0000
0000
0000
0000
0000
0000
0000
0000
0000
0000
0001
0100
,
0001
0000
0000
1010
0000
0000
1001
0000
1000
0010
0200
0000
0000
0000
0000
0000
,
0301
0010
0100
1000
0000
1100
0000
1001
,
0000
0000
0001
0010
0001
0000
0010
0000
0100
1000
0100
1000
0001
0000
0010
0000
,
0100
0010
0001
1000
0000
1010
0000
1001
,
0000
0000
0001
0000
1000
0010
1000
0000
0010
0000
0100
0001
0100
0001
0100
0001
,
1000
0100
0010
0001
0000
0011
0000
1100
,
0000
1000
0010
0100
0001
1000
0100
0010
,
0011
0000
0001
0010
0001
0010
0001
0100
0010
1000
0010
1000
0001
0010
0001
0010
,
0100
0000
0000
0000
0000
0000
1000
0000
0100
0000
1000
0000
0100
0000
0000
0000
0000
0000
1000
0000
0001
0000
1000
0000
0001
0000
0000
0000
0000
0000
0100
0000
0000
0010
0000
0000
0100
0000
0000
0000
0000
0000
0000
0000
0000
0000
0000
0000
,
0100
0000
0000
0000
0000
0000
0001
0000
1000
0000
0001
0000
1000
0000
0000
0000
0000
0000
0000
0000
0000
0001
0000
0000
0010
0000
0000
0000
0000
0000
0100
0000
0000
0000
0000
0000
1000
0000
0000
0000
0000
0000
0010
0000
0000
0000
0000
0000
,
0100
0000
0001
0000
0100
0000
0001
0000
1000
0000
0000
0000
0001
0000
1000
0100
,
1000
0000
0001
0010
0001
0000
1000
0000
0001
0100
0001
0000
0010
0000
0100
0000
,
1000
1000
0010
0100
0101
0000
1001
0000
,
0010
0000
0000
1000
0100
0000
0000
0010
0001
0000
0100
0000
0010
0000
0100
0000
,
0001
1000
0100
0010
0001
0100
1010
0000
,
0101
0001
0010
0001
1000
0010
0100
0010
,
1010
0000
0000
0000
0101
0000
0000
0000
0100
0010
0100
0010
0100
0000
0010
1000
,
0001
0000
0000
0001
0010
0000
0000
0010
0100
0000
1000
0000
0010
0000
0100
0000
,
1000
0000
0100
0000
0001
0000
0010
0000
0001
1000
0001
1000
0001
0000
0100
0000
,
0001
0000
1000
0010
1000
0000
0001
0000
1000
0100
1000
0000
0001
0000
0010
0000
,
0100
0000
1000
0000
0100
0000
0010
0000
0001
0000
1000
0010
0100
0000
0001
1000
,
0001
0010
0110
0000
0110
1000
0001
0100
,
0010
0000
0000
1000
0000
0000
0001
0000
0000
0010
0000
0000
0200
0000
0000
0000
0000
0000
0310
0000
0000
0001
0010
0001
,
0010
0000
0001
0010
0100
1000
0100
1000
0001
0100
0001
0100
0010
1000
0010
1000
,
0010
0100
0010
0100
0001
1000
0001
1000
0001
0010
0001
0010
0100
0000
0000
0000
,
1100
1000
1001
1000
1010
0000
0101
0001
,
1001
0001
0011
0000
1100
1000
1001
1000
,
1010
0000
1000
0010
0100
0000
0001
0100
0010
0000
1000
0010
0100
0000
0000
0000
,
1010
0000
1000
0000
1001
0000
1000
0000
1100
0000
0001
0100
0001
0000
0001
0000
,
1001
0000
0001
0000
0101
0000
1000
0100
1000
0000
0001
0100
0001
0000
1000
0100
,
1000
0100
0010
0001
0010
0001
0100
0010
0100
0010
1000
0001
1000
0000
0001
0010
,
0001
0000
0001
0000
1001
0000
0001
0000
0101
0000
1000
0010
1000
0000
1000
0000
,
1001
0000
1000
0000
1100
0000
0001
0010
0001
0000
0001
0000
1001
0000
0001
0000
,
0101
0000
0001
0010
0100
0000
1000
0100
0010
0000
0100
1000
0001
0000
0100
0010
,
0100
0000
0100
0000
1100
0000
0100
0000
0101
0000
0010
0100
0010
0000
0010
0000
,
1010
0000
0010
0000
0011
0000
0100
0010
0100
0000
0100
0000
0101
0000
0100
0000
,
1100
0000
1000
0100
0010
0000
0100
0001
0010
0100
0010
0100
0010
0000
0000
0000
,
0010
0001
0100
1000
0001
0010
1000
0001
,
0010
1000
0001
0100
1000
0001
0010
0100
,
1000
0000
0001
1000
0001
0000
0010
0000
0001
0000
0100
0000
0010
0000
1000
0000
,
0001
0100
0001
0100
0001
0000
0010
0100
0010
0000
0100
1000
0100
1000
0100
1000
,
0010
0000
0000
0110
0000
0000
0101
0000
1010
0000
0000
0000
1001
0000
0000
0000
,
1001
0000
0001
0100
0001
0000
0010
0001
0010
0000
0001
0100
0001
0000
0010
0001
,
0010
0000
0100
0000
1000
0000
0010
0000
0100
0001
0100
0001
1000
0000
0010
1000
,
0010
0000
1000
0100
1000
0000
0010
1000
0010
0000
0100
0000
0001
0000
0010
0000
,
1000
0000
0010
0000
0001
0000
0100
0000
0010
0000
1000
0001
1000
0000
0000
0000
,
1001
0000
1000
0000
0010
0000
0100
0001
0000
0001
1000
0000
0100
0000
0010
0000
,
0001
0000
0100
0000
0010
0000
1000
0010
0000
0010
0100
0000
0001
0000
0010
0000
,
0001
0100
0001
1000
0001
0100
0001
1000
0100
1000
0001
1000
0100
1000
0001
0100
,
0010
0000
0000
0110
0000
0000
0010
0000
1000
0000
0100
0010
0100
0010
0100
0010
,
0001
0000
0100
1000
0100
0000
0001
0100
0001
0000
0100
1000
0100
0001
0100
1000
,
0100
0000
0001
0000
0010
0000
0100
0000
1000
0100
1000
0100
0010
0001
0010
0001
,
1000
0000
0100
0001
0100
0000
1000
0100
1000
0000
0100
0001
0100
0000
1000
0000
,
0010
0000
0100
0000
0001
1000
0001
0000
1000
0100
0010
0001
1000
0100
0010
0000
,
0000
0000
0010
0000
0001
0000
0100
0010
0000
0010
1000
0100
0010
0000
0001
0000
,
0010
0000
0100
0000
1000
0010
1000
0010
0000
0100
0001
0000
1000
0000
0100
0000
,
0010
0001
0010
0100
0010
0001
0010
0100
1000
0010
0100
0010
1000
0010
0100
0010
,
1000
0100
0010
0001
0100
0010
0100
0001
1000
0100
0010
0100
1000
0001
0100
0010
,
1000
0000
0000
0000
0010
0000
0100
0000
0001
0010
0001
0010
0100
0000
1000
0000
,
0000
0000
1000
0000
0010
0100
0010
0100
0010
0000
0100
0001
2000
0000
0000
0000
,
3002
0000
0010
0023
0000
0230
0000
2300
,
0000
0000
3001
0000
0100
0000
0010
0000
0100
0000
0010
1000
0001
0000
0000
0000
,
1001
0001
1000
1100
0000
1010
0000
0101
,
0000
0000
1001
0000
1000
0000
0001
0010
0001
0000
1000
0010
1000
0010
0100
0001
,
1000
0010
1000
1010
0000
0101
0000
1001
,
0000
0000
1000
0100
1000
0100
0010
0001
1000
0000
0001
0010
0001
0010
0100
1000
,
0001
1000
0100
0011
0000
1001
0000
1100
,
0000
0000
1010
0000
0010
0000
0100
0000
0001
0010
0100
0000
1000
0000
0100
0000
,
0010
0000
0001
0100
0001
0100
0010
1000
0010
1000
0100
0010
0100
0010
0001
0010
,
0100
1000
0100
1000
0100
0010
0100
0010
0100
0001
0100
0001
0100
0000
0000
0000
,
1100
0000
0000
0000
0000
0000
1000
0000
0010
0000
1000
0000
0010
0000
0000
0000
0000
0000
0000
0000
0000
0100
0000
0000
0001
0000
0000
0000
0000
0000
0010
0000
0000
0000
0000
0000
0100
0000
0000
0000
0000
0000
1000
0000
0000
0000
0000
0000
,
0001
0100
1000
0100
0001
0000
1010
0000
,
0202
0000
0000
0000
,
0000
0000
0000
0000
,
0303
0000
0000
0000
;
