#TITLE:ひゅるりらぱっぱ;
#SUBTITLE:;
#ARTIST:tuki.;
#TITLETRANSLIT:HYURURIRAPAPPA;
#SUBTITLETRANSLIT:;
#ARTISTTRANSLIT:tuki.;
#GENRE:POP;
#CREDIT:;
#BANNER:HYURURIRAPAPPA.png;
#BACKGROUND:HYURURIRAPAPPA-bg.png;
#LYRICSPATH:;
#CDTITLE:;
#MUSIC:HYURURIRAPAPPA.ogg;
#OFFSET:1.352000;
#SAMPLESTART:61.734001;
#SAMPLELENGTH:10.971000;
#LASTBEATHINT:0.966446;
#SELECTABLE:YES;
#BPMS:0.000000=175.000000
;
#STOPS:
;
#BGCHANGES:6.688=HYURURIRAPAPPA.avi=1.000=0=0=0=====,
99999=-nosongbg-=1.000=0=0=0 // don't automatically add -songbackground-
;
#KEYSOUNDS:;
#ATTACKS:;

//---------------dance-single - ----------------
#NOTES:
     dance-single:
     :
     Medium:
     13:
     0.595518,0.618594,0.140122,0.469408,0.070061,595.000000,575.000000,20.000000,67.000000,0.000000,0.000000,0.595518,0.618594,0.140122,0.469408,0.070061,595.000000,575.000000,20.000000,67.000000,0.000000,0.000000:
0000
0000
0000
0000
,
0000
0000
0000
0000
,
0000
0000
0000
0000
,
0000
0000
0000
0000
,
0000
0000
0000
0000
,
0001
0010
0100
1000
0020
0000
0130
0001
,
1000
0010
0100
0001
0020
0000
0130
1000
,
0001
0010
0100
1000
0020
0000
1030
0010
,
0100
0001
1000
0010
0200
0000
0000
0000
,
0301
0010
0100
1000
0020
0000
0130
0001
,
1000
0010
0100
0001
0020
0000
0130
1000
,
0001
0010
0100
1000
0020
0000
0130
0001
,
1000
0010
0100
0001
0020
0000
0000
0000
,
0130
1000
0100
1000
0002
0000
0203
0000
,
0310
0000
0000
0000
1001
0000
0000
0000
0001
0000
0000
0010
0000
0000
0100
0000
,
0000
1000
0001
0000
0001
0100
1000
0100
,
0001
0000
0000
0000
1001
0000
0000
0000
1000
0000
0000
0010
0000
0000
0100
0000
,
0000
0001
0001
0000
1000
0100
0001
0100
,
1000
0000
0000
0000
1001
0000
0000
0000
0001
0000
0000
0100
0000
0000
0010
0000
,
0000
1000
0001
0000
0001
0010
1000
0010
,
0001
0000
0000
0000
1001
0000
0000
0000
1000
0000
0000
0100
0000
0000
0010
0000
,
0000
0001
0001
0000
1000
0010
0001
0010
,
1000
0001
0010
0100
2000
0000
3001
0100
,
2000
0000
3100
0000
0010
1000
0002
0000
,
0013
0100
0010
0000
0001
1000
0001
0000
,
1000
0010
0100
0001
0020
0000
0000
0000
,
0130
0000
0010
0001
2000
0000
3001
0000
,
1000
0100
0010
0100
0001
0000
0100
0000
,
1100
0000
0101
0000
1000
0010
0100
0001
,
2000
0000
0010
0000
3010
0100
0010
0100
,
0002
0000
0000
1003
0100
0000
0010
0000
,
0020
0000
0000
0031
1000
0000
0010
0000
,
0200
0000
0000
0301
0010
0000
0100
0000
,
1000
0001
0000
0001
0100
0001
0010
0000
,
0200
0000
0000
1300
0010
0000
0100
0000
,
0200
0000
0000
0301
1000
0000
0002
0000
,
2003
3200
0320
0032
,
0103
0000
0001
0000
1000
0000
0000
0000
0001
0000
0100
0010
0100
0000
0001
0000
,
1000
0100
0001
0100
0020
0000
0130
1000
,
0001
0100
1000
0100
0020
0000
0130
0001
,
1000
0100
0001
1000
0020
0000
0130
1000
,
0001
0100
1000
0001
0020
0000
1030
0000
,
0001
0010
1000
0010
0002
0000
0013
0001
,
1000
0010
0001
0010
2000
0000
3010
1000
,
0001
0010
1000
0001
0200
0000
0310
0001
,
1000
0010
0001
1000
0200
0000
0301
0000
,
1000
0100
1000
0100
0020
0000
0031
0001
,
0100
1000
0100
0010
0110
0000
1001
0000
,
0001
0100
0001
0100
0020
0000
1030
1000
,
0100
0001
0100
0010
0000
1001
0000
0000
,
1000
0010
1000
0010
0200
0000
0301
0001
,
0010
1000
0010
0100
0110
0000
1001
0000
,
0001
0010
0001
0010
0200
0000
1300
1000
,
0010
0001
0010
0100
0000
1001
0000
0000
,
2000
0000
3100
0010
,
0002
0000
0103
0010
,
1000
0001
0010
0100
,
2000
0000
0000
0000
,
3020
0000
0130
0001
,
0020
0000
0000
0031
1000
0000
0010
0000
,
0100
0010
1000
0100
,
0020
0000
0000
0000
,
0032
1000
1003
0010
,
0200
0001
0301
0010
,
0100
1000
0001
0100
,
0020
1000
0100
1000
,
2030
0001
3100
0010
,
0002
1000
0103
0010
,
1000
0001
1000
0001
0100
0010
0100
0010
,
1000
0100
0010
0001
1000
0100
0010
0001
,
1000
0010
0100
0010
0002
0000
0013
1000
,
0001
0010
0100
0010
2000
0000
3001
0100
,
0010
0001
0100
1000
0002
0000
1003
0100
,
0001
0010
0100
1000
0002
0000
0000
0000
,
1003
0100
0010
0100
0002
0000
0103
1000
,
0001
0100
0010
0100
2000
0000
3001
0010
,
0100
0001
0010
1000
0002
0000
1003
0010
,
0001
0010
0100
1000
0001
0000
1001
0000
,
0200
0000
0000
0310
,
1000
0000
0001
0100
0001
0000
1000
0000
0100
0000
0000
0000
0100
0000
1000
0000
,
0001
0000
1000
0100
1000
0000
0001
0000
0010
0000
0000
0000
0010
0000
0001
0000
,
1000
0000
0001
0010
0001
0000
0010
0000
0100
0000
0000
0000
0100
0000
1000
0000
,
0010
0100
0001
1000
0200
0000
0310
0000
,
0001
0000
0010
0100
0010
0000
0001
0000
1000
0000
0000
0000
1000
0000
0001
0000
,
1000
0000
0010
0100
0010
0000
1000
0000
0001
0000
0000
0000
0001
0000
1000
0000
,
0001
0000
0010
0100
0010
0000
0001
0000
1000
0000
0000
0000
1000
0000
0010
0000
,
0100
0001
0010
0100
2000
0000
3001
0000
,
0001
0100
0001
0100
2000
0000
3100
0100
,
1000
0100
0001
0100
0110
0000
1001
0000
,
1000
0100
1000
0100
0002
0000
0103
0100
,
0001
0100
1000
0100
0000
1001
0000
0000
,
0001
0010
0001
0010
2000
0000
3010
0010
,
1000
0010
0001
0010
0110
0000
1001
0000
,
1000
0010
1000
0010
0002
0000
0013
0010
,
0001
0010
1000
0010
0000
1001
0000
0000
,
1000
0000
0000
1000
0100
0000
0010
0000
0100
0000
0000
1000
0000
0000
0002
0000
,
0000
0100
0103
0000
0010
1000
0001
0010
,
0100
0000
0000
0100
1000
0000
0001
0000
0100
0000
0000
0010
0000
0000
2000
0000
,
0000
0001
3001
0000
0001
0010
0100
1000
,
0001
0000
0000
0001
0100
0000
0010
0000
0100
0000
0000
0001
0000
0000
0020
0000
,
0000
0100
0130
0000
0010
0001
0010
0100
,
1000
0000
0000
1000
0010
0000
0100
0000
0001
0000
0000
1000
0000
0000
0002
0000
,
0000
0100
0103
0000
0001
0010
0100
1000
,
0001
0000
0000
0000
0100
0000
0000
0000
0010
0000
0000
0100
0000
0000
0110
0000
;

//---------------dance-single - ----------------
#NOTES:
     dance-single:
     :
     Hard:
     16:
     0.755657,0.909697,0.427371,0.833724,0.437881,755.000000,694.000000,61.000000,119.000000,0.000000,0.000000,0.755657,0.909697,0.427371,0.833724,0.437881,755.000000,694.000000,61.000000,119.000000,0.000000,0.000000:
0000
0000
0000
0000
,
0000
0000
0000
0000
,
0000
0000
0000
0000
,
0000
0000
0000
0000
,
0000
0000
0000
0000
,
0001
0000
1000
0100
1000
0000
0001
0000
0020
0000
0000
0000
0130
0000
1000
0000
,
0001
0000
0100
0010
0100
0000
0001
0000
2000
0000
0000
0000
3010
0000
0100
0000
,
0010
0000
1000
0001
1000
0000
0100
0000
0020
0000
0000
0000
0130
0000
1000
0000
,
0001
0100
1000
0100
0002
0000
0000
0000
,
1003
0000
0100
0010
0001
0000
1000
0000
0020
0000
0000
0000
0130
0000
0001
0000
,
1000
0000
0010
0100
0001
0000
1000
0000
0200
0000
0000
0000
0310
0000
0100
0000
,
1000
0000
0001
0100
0010
0000
1000
0000
0002
0000
0000
0000
0013
0000
0100
0000
,
1000
0010
0001
0010
2000
0000
0000
0000
,
3010
0000
0100
0000
0010
0000
0100
0000
0001
0010
0100
1000
0001
0000
0100
0000
,
0010
0000
0000
0000
1001
0000
0000
0000
0011
0000
0000
1100
0000
0000
0011
0000
,
0000
0000
0001
0000
0010
0000
0000
0000
0001
0010
0100
1000
0001
0000
0010
0000
,
0100
0000
0000
0000
1001
0000
0000
0000
1010
0000
0000
0101
0000
0000
1010
0000
,
0000
0000
1000
0000
0001
0000
0000
0000
1000
0100
0010
0001
1000
0001
0010
0100
,
1000
0000
0000
0000
1001
0000
0000
0000
1100
0000
0000
0011
0000
0000
1100
0000
,
0000
0000
1000
0000
0001
0000
0000
0000
0001
0100
0010
1000
0001
0000
0100
0000
,
0010
0000
0000
0000
1001
0000
0000
0000
0101
0000
0000
1010
0000
0000
0101
0000
,
0000
0000
0001
0000
1000
0000
0000
0000
0001
0100
0010
1000
0001
1000
0010
0100
,
0001
0000
1000
0100
0010
0000
0100
0000
2000
0000
0000
0000
3001
0000
0100
0000
,
1000
0000
0000
0100
0010
0000
1000
0000
0100
0000
0010
0000
0002
0000
0000
0000
,
1003
0100
1000
0010
1000
0100
0010
0001
,
0100
0001
0010
0001
2000
0000
0000
0000
,
3001
0000
1000
0010
0100
0000
0010
0000
2000
0000
0000
0000
3001
0000
0100
0000
,
1000
0100
0010
0100
0002
0000
0013
0100
,
1000
0000
0000
0001
0100
0000
0000
0001
1000
0000
0100
0000
0010
0000
0001
0000
,
2000
0000
0000
0000
0001
0000
0000
0000
3100
0000
0100
1000
0100
1000
0001
0100
,
0020
0000
0000
0000
0230
0000
0000
0000
0001
0000
0000
1000
0000
0000
0320
0000
,
0000
0000
0130
0000
0002
0000
0000
0000
1000
0000
0000
0010
0000
0000
0013
0000
,
0200
0000
0000
0000
0320
0000
0000
0000
0001
0000
0000
1000
0000
0000
0230
0000
,
0000
0000
1300
0000
0002
0000
0000
0000
0103
0000
0010
0100
0010
0000
1000
0000
,
0002
0000
0000
0000
0023
0000
0000
0000
0100
0000
0000
0001
0000
0000
0130
0000
,
1000
0000
0001
0000
0020
0000
0000
0000
0230
0000
0000
1000
0000
0000
1300
0000
,
0001
0000
0100
0000
2000
0000
0000
0000
3200
0000
0000
0001
0000
0000
0302
0000
,
0000
0000
1003
0000
1000
0000
0100
0010
0001
1000
0001
1000
0001
1000
0001
1000
,
0100
0000
0010
0001
1000
0000
0010
0000
0200
0000
0000
0000
0310
0000
1000
0000
,
0001
0000
0100
0001
1000
0000
0100
0000
0020
0000
0000
0000
0130
0000
1000
0000
,
0001
0000
1000
0010
0100
0000
0010
0000
0002
0000
0000
0000
0013
0000
1000
0000
,
0100
0000
0010
0000
0001
0000
1000
0000
0010
0100
0000
0010
1000
0001
1000
0001
,
0010
0000
0100
1000
0001
0000
0010
0000
0200
0000
0000
0000
1300
0000
0010
0000
,
0100
0000
0010
1000
0001
0000
0100
0000
0020
0000
0000
0000
1030
0000
0010
0000
,
0100
0000
0001
0010
0100
0000
0010
0000
2000
0000
0000
0000
3010
0000
0001
0000
,
0100
0000
0010
1000
0010
0000
0100
0000
0001
1000
0100
0000
1000
0001
0100
0000
,
0201
0301
1200
1300
0201
0000
0301
0100
,
0010
0000
0100
0001
0010
0000
0100
0000
0110
0000
0000
0000
1001
0000
0000
0000
,
1200
1300
0201
0301
1200
0000
1300
0100
,
0010
0000
0100
1000
0010
0000
0110
0000
0000
0000
1001
0000
0000
0000
0000
0000
,
0201
0301
1200
1300
0201
0000
0301
0010
,
0100
0000
0010
0001
0100
0000
0010
0000
0110
0000
0000
0000
1001
0000
0000
0000
,
1200
1300
0201
0301
1200
0000
1300
0010
,
0100
0000
0010
1000
0100
0000
0110
0000
0000
0000
1001
0000
0000
0000
0000
0000
,
0002
0000
2003
3020
,
2030
0000
3020
0230
,
0302
2003
3200
0320
,
0032
0000
0000
0000
,
2003
0000
3002
0203
,
0320
0000
0000
2030
3002
0000
0023
0000
,
0032
0023
0230
2300
,
3002
0000
1000
0000
,
2003
0010
3020
0230
,
0302
0010
0023
0230
,
2300
3020
0230
0302
,
2003
0001
0100
0001
,
3020
0000
0230
0001
2300
0000
3002
0000
,
0023
0000
0230
1000
0302
0000
2003
0000
,
3010
0100
0010
0100
0001
1000
0001
1000
,
0001
0100
0001
0100
0010
1000
0010
1000
0001
0010
0001
0010
0100
1000
0100
1000
,
0001
0000
0000
0001
0100
0000
0010
0000
0100
0000
0000
0000
0100
0000
0000
0000
,
0100
0000
0000
0100
0001
0000
1000
0000
0100
0000
0000
0000
0100
0000
0000
0000
,
0100
0000
0000
0100
1000
0000
0001
0000
0100
0000
0000
0000
0100
0000
0000
0000
,
0100
0001
0010
0100
1000
0000
0000
0000
,
1000
0000
0000
1000
0001
0000
0100
0000
0010
0000
0000
0000
0010
0000
0000
0000
,
0010
0000
0000
0010
1000
0000
0100
0000
0010
0000
0000
0000
0010
0000
0000
0000
,
0010
0000
0000
0010
0001
0000
1000
0000
0010
0000
0000
0000
0010
0000
0000
0000
,
0010
1000
0100
0010
0001
0000
1001
0000
,
1000
0100
0010
0001
1000
0100
0010
0001
1000
0100
0010
0001
1000
0000
0000
0000
,
1001
0000
0001
1000
0001
0000
0100
0000
2000
0000
0000
0000
3100
0000
0001
0000
,
1000
0000
0001
0100
0010
0000
0001
0000
0020
0000
0000
0000
0130
0000
0001
0000
,
1000
0000
0001
0100
1000
0000
0100
0000
0002
0000
0000
0000
1003
0000
0100
0000
,
0001
0000
0100
0000
1000
0000
0001
0000
0100
0010
0000
1000
0001
1000
0100
0010
,
0001
0000
1000
0001
1000
0000
0100
0000
0002
0000
0000
0000
0103
0000
1000
0000
,
0010
0000
1000
0100
0010
0000
1000
0000
0020
0000
0000
0000
0130
0000
1000
0000
,
0001
0000
1000
0100
0001
0000
0100
0000
2000
0000
0000
0000
3001
0000
0100
0000
,
1000
0000
0100
0000
0001
0000
1000
0000
0001
0010
0100
1000
0001
0010
0100
0000
,
1200
1300
1002
1003
1200
0000
1300
0100
,
0001
0000
0100
1000
0001
0000
0100
0000
0101
0000
0000
0000
1001
0000
0000
0000
,
0201
0301
2001
3001
0201
0000
0301
0100
,
1000
0000
0100
0001
1000
0000
1100
0000
0000
0000
1001
0000
0000
0000
0000
0000
,
1020
1030
1002
1003
1020
0000
1030
0010
,
0001
0000
0010
1000
0001
0000
0010
0000
0011
0000
0000
0000
1001
0000
0000
0000
,
0021
0031
2001
3001
0021
0000
0031
0010
,
1000
0000
0010
0001
1000
0000
1010
0000
0000
0000
1001
0000
0001
0010
0001
0010
,
0100
0000
0000
1000
0001
0000
0100
0000
0020
0000
0000
1000
0000
0000
0230
0000
,
0000
0000
0301
1000
0200
0000
0000
0000
0310
0001
0010
0100
1000
0000
0010
0000
,
0100
0000
0000
0001
1000
0000
0010
0000
0200
0000
0000
1000
0000
0000
0320
0000
,
0000
0000
1030
0001
0020
0000
0000
0000
0130
1000
0100
0010
0100
1000
0100
0010
,
0001
0000
0000
1000
0010
0000
0100
0000
0002
0000
0000
1000
0000
0000
0203
0000
,
0000
0000
0301
1000
0200
0000
0000
0000
0310
0001
0010
0100
1000
0000
0010
0000
,
0100
0000
0000
0001
0010
0000
0100
0000
2000
0000
0000
0100
0000
0000
3020
0000
,
0000
0000
1030
0001
0020
0000
0000
0000
0031
1000
0010
0100
0010
1000
0010
0100
,
0001
0000
0000
0000
0100
0000
0000
0000
0101
0000
0000
1100
0000
0000
1001
0000
;

//---------------dance-single - ----------------
#NOTES:
     dance-single:
     :
     Challenge:
     17:
     0.899782,1.018860,0.672584,0.469408,0.739142,899.000000,803.000000,96.000000,67.000000,0.000000,0.000000,0.899782,1.018860,0.672584,0.469408,0.739142,899.000000,803.000000,96.000000,67.000000,0.000000,0.000000:
// measure 0
0000
0000
0000
0000
,  // measure 1
0000
0000
0000
0000
,  // measure 2
0000
0000
0000
0000
,  // measure 3
0000
0000
0000
0000
,  // measure 4
0000
0000
0000
0000
,  // measure 5
0001
0000
1000
0100
1000
0000
0001
0100
,  // measure 6
0010
0000
1000
0010
1000
0000
0001
1000
,  // measure 7
0001
0000
0010
0100
0010
0000
0100
1000
,  // measure 8
0001
0000
0100
0010
0100
0000
0001
0000
,  // measure 9
0010
0000
0100
1000
0001
0000
1000
0010
,  // measure 10
0100
0000
0010
1000
0001
0000
0010
0100
,  // measure 11
0010
0000
0001
1000
0001
0000
0100
0000
,  // measure 12
0010
1000
0100
0010
0001
0000
1000
0000
,  // measure 13
0100
0000
0100
0000
0100
0000
0100
0000
0001
0010
0100
1000
0001
0000
0100
0000
,  // measure 14
0010
0000
0000
0000
1001
0000
0000
0000
1010
0000
0000
0101
0000
0000
1010
0000
,  // measure 15
0000
0000
0001
0000
1000
0000
0000
0000
0001
0010
0100
1000
0001
0000
0010
0000
,  // measure 16
0100
0000
0000
0000
1001
0000
0000
0000
0011
0000
0000
1100
0000
0000
0011
0000
,  // measure 17
0000
0000
0000
0000
0001
0000
0000
0000
0010
0000
0000
0000
0100
0000
1000
0001
1000
0000
0100
0000
0010
0000
0001
0000
1000
0000
0001
0000
0010
0000
0100
0000
,  // measure 18
1000
0000
0000
0000
0110
0000
0000
0000
1100
0000
0000
0011
0000
0000
1100
0000
,  // measure 19
0000
0000
0001
0000
1000
0000
0000
0000
0001
0100
0010
1000
0001
0000
0100
0000
,  // measure 20
0010
0000
0000
0000
1001
0000
0000
0000
0110
0000
0000
1001
0000
0000
0110
0000
,  // measure 21
0000
0000
0000
0000
1000
0000
0000
0000
0001
0000
0000
0000
0100
0000
0001
1000
0001
0000
0100
0000
0010
0000
1000
0000
0001
0000
1000
0000
0010
0000
0100
0000
,  // measure 22
0001
0000
0010
0100
0010
0000
0001
0000
1000
0000
0000
0000
0001
0000
0100
0010
,  // measure 23
0100
0000
0000
0100
0001
0000
0010
0000
0100
0000
0010
0000
0001
0000
1000
0000
,  // measure 24
0001
0010
0001
0100
0001
0010
0100
1000
,  // measure 25
0010
0000
1000
0000
0100
0000
1000
0000
0001
0000
0000
1000
0010
0000
0100
0001
,  // measure 26
1000
0000
0001
0010
0100
0000
0010
0000
0001
0000
0000
0000
1000
0000
0010
0000
,  // measure 27
0001
0010
1000
0100
0001
0000
1000
0010
,  // measure 28
0001
0000
0000
0100
0010
0000
0000
0100
0001
0000
1000
0000
0100
0000
0010
0000
,  // measure 29
0002
0000
0000
0000
1000
0000
0000
0000
1003
0000
0100
0010
0001
1000
0100
0010
,  // measure 30
0001
0000
0000
0000
0110
0000
0000
0000
0011
0000
0000
1001
0000
0000
1100
0000
,  // measure 31
0000
0000
0101
0000
0101
0000
0000
0000
0011
0000
0000
1001
0000
0000
1100
0000
,  // measure 32
1100
0000
0000
0000
0110
0000
0000
0000
1001
0000
0000
1010
0000
0000
0011
0000
,  // measure 33
0000
0000
1100
0000
1100
0000
0000
0000
0110
0000
0000
1000
0001
0000
1001
0000
,  // measure 34
1001
0000
0000
0000
0011
0000
0000
0000
1100
0000
0000
1001
0000
0000
1010
0000
,  // measure 35
0000
0000
0011
0000
0011
0000
0000
0000
0101
0000
0000
1001
0000
0000
1010
0000
,  // measure 36
1010
0000
0000
0000
1100
0000
0000
0000
0011
0000
0000
1001
0000
0000
0101
0000
,  // measure 37
0000
0000
1001
0000
1001
0000
0001
1000
0100
1000
0010
1000
0100
0010
0001
0100
,  // measure 38
0010
0000
0010
0100
0001
0000
1000
0000
0001
0010
0000
0100
0010
0000
1000
0000
,  // measure 39
0010
0000
0001
0100
0010
0000
0001
0010
0100
0001
0000
0010
0100
0000
1000
0001
,  // measure 40
0010
0000
0100
0010
1000
0000
0010
0000
0001
0100
0010
0100
1000
0000
0100
0000
,  // measure 41
0001
0000
0010
0100
0010
0000
0100
1000
0001
0100
0000
0010
1000
0001
0010
0100
,  // measure 42
0010
0000
0010
0100
1000
0000
0001
0000
1000
0010
0000
0100
0010
0000
0001
0000
,  // measure 43
0010
0000
1000
0100
0010
0000
1000
0010
0100
1000
0000
0010
0100
0000
0001
1000
,  // measure 44
0010
0000
0100
0010
0001
0000
0010
0000
1000
0100
0010
0100
0001
0000
0100
0000
,  // measure 45
1000
0000
0010
0100
0010
0000
0100
0001
1000
0010
0100
0010
0100
0001
0010
0100
,  // measure 46
2000
0000
3001
0010
2000
0000
3001
0100
2000
0000
0000
0000
3001
0000
0100
0000
,  // measure 47
1000
0000
0100
0001
0010
0000
0100
0000
1100
0000
0000
0000
1001
0000
0000
0000
,  // measure 48
1001
0000
1000
0010
0002
0000
1003
0100
0002
0000
0000
0000
1003
0000
0100
0000
,  // measure 49
0010
0000
0100
1000
0010
0000
0110
0000
0000
0000
1001
0000
0001
0100
0010
1000
,  // measure 50
0002
0000
1003
0100
0002
0000
1003
0010
0002
0000
0000
0000
1003
0000
0010
0000
,  // measure 51
0001
0000
0010
1000
0100
0000
0010
0000
0011
0000
0000
0000
1001
0000
0000
0000
,  // measure 52
1001
0000
0001
0100
2000
0000
3001
0010
2000
0000
0000
0000
3001
0000
0010
0000
,  // measure 53
1000
0000
0010
0001
0100
0000
0110
0000
0000
0000
1001
0000
0000
0000
0000
0000
,  // measure 54
0002
0000
0023
0230
,  // measure 55
2300
0000
3002
0203
,  // measure 56
0302
0023
2030
3020
,  // measure 57
0032
0000
0000
0000
,  // measure 58
2003
0000
3020
0230
,  // measure 59
0302
0000
0000
2003
3200
0000
0320
0000
,  // measure 60
0032
0203
2300
3200
,  // measure 61
0302
0000
1000
0000
,  // measure 62
2003
0010
3020
0230
,  // measure 63
0302
1000
2003
3020
,  // measure 64
0230
0302
0023
2030
,  // measure 65
3020
0001
0100
1000
,  // measure 66
0230
0000
2300
3020
0230
0000
0302
0000
,  // measure 67
0023
0100
0032
0023
,  // measure 68
0130
1000
0100
1000
0001
0100
0001
0100
,  // measure 69
0010
0100
0001
0010
0001
0100
0010
0100
0001
0010
0100
1000
0010
1000
0100
0010
,  // measure 70
0100
0000
1000
0001
0100
0000
0010
0000
0110
0000
0000
1010
0000
0000
0101
0000
,  // measure 71
1000
0000
0001
0010
0100
0000
0010
0000
0011
0000
0000
1001
0000
0000
1100
0000
,  // measure 72
0001
0000
1000
0100
0010
0000
0100
0000
1100
0000
0000
1001
0000
0000
0011
0000
,  // measure 73
1000
0000
0001
0100
0010
0000
0100
0000
0110
0000
0000
1001
0000
0000
0101
0000
,  // measure 74
1000
0000
0001
0010
0100
0000
0001
0000
0101
0000
0000
0110
0000
0000
1100
0000
,  // measure 75
0001
0000
1000
0010
0100
0000
1000
0000
1100
0000
0000
0110
0000
0000
0101
0000
,  // measure 76
1000
0000
0001
0100
0010
0000
0001
0000
0011
0000
0000
0110
0000
0000
1010
0000
,  // measure 77
0001
0000
1000
0100
0010
0000
0001
0000
1001
0000
0000
0000
0110
0000
0000
0000
,  // measure 78
1000
0000
0000
0000
0000
0000
0000
0000
0000
0000
0000
0000
0100
0000
0000
0000
0000
0000
0000
0000
0000
0000
0000
0000
0010
0000
0000
0000
0000
0000
0000
0000
0000
0000
0000
0000
0001
0000
0000
0000
0000
0000
0000
0000
0000
0000
0000
0000
1000
0000
0000
0000
0000
0000
0000
0000
0000
0000
0000
0000
0000
0000
0000
0000
0000
0000
0100
0000
0000
0000
0000
0000
0000
0000
0000
0000
0000
0000
0000
0000
0000
0000
0000
0000
0010
0000
0000
0000
0000
0000
0000
0000
0000
0000
0000
0000
0001
0000
0000
0000
0000
0000
0000
0000
0000
0000
0000
0000
0010
0000
0000
0000
0000
0000
0000
0000
0000
0000
0000
0000
0100
0000
0000
0000
0000
0000
0000
0000
0010
0000
0000
0000
0000
0000
0000
0000
0100
0000
0000
0000
0000
0000
0000
0000
1000
0000
0000
0000
0000
0000
0000
0000
0000
0000
0000
0000
0000
0000
0000
0000
0000
0000
0000
0000
0000
0000
0000
0000
0000
0000
0000
0000
0000
0000
0000
0000
0000
0000
0000
0000
0000
0000
0000
0000
0000
0000
0000
0000
0000
0000
0000
0000
,  // measure 79
1001
0000
0001
0100
0010
0000
0100
0000
0001
0010
0100
0010
1000
0000
0001
0100
,  // measure 80
0010
0000
0001
0100
1000
0000
0100
0010
1000
0100
0010
0100
0001
0000
0100
1000
,  // measure 81
0001
0000
1000
0010
0001
0000
0010
0100
0001
0010
0100
0010
1000
0000
0010
0001
,  // measure 82
1000
0000
0001
0100
0010
0000
0100
0001
1000
0100
0010
0100
0010
0001
0100
0010
,  // measure 83
0001
0000
0010
1000
0100
0000
0010
1000
0010
0100
1000
0010
0100
0000
1000
0100
,  // measure 84
0010
0000
0100
0001
0010
0000
0100
0001
0100
0010
0001
0100
0010
0000
0001
0010
,  // measure 85
0100
0000
0010
1000
0001
0000
0010
0100
1000
0010
0100
1000
0100
0000
0010
0000
,  // measure 86
1000
0000
0001
0010
0100
0000
0010
0001
0100
0010
0100
0010
1000
0100
0010
0001
,  // measure 87
2000
0000
3001
0010
2000
0000
3001
0100
2000
0000
0000
0000
3001
0000
0100
0000
,  // measure 88
1000
0000
0100
0001
0010
0000
0100
0000
1100
0000
0000
0000
1001
0000
0000
0000
,  // measure 89
1001
0000
1000
0010
0002
0000
1003
0100
0002
0000
0000
0000
1003
0000
0100
0000
,  // measure 90
0001
0000
0100
1000
0010
0000
0110
0000
0000
0000
1001
0000
0001
0100
0010
1000
,  // measure 91
0002
0000
1003
0100
0002
0000
1003
0010
0002
0000
0000
0000
1003
0000
0010
0000
,  // measure 92
0001
0000
0010
1000
0100
0000
0010
0000
0011
0000
0000
0000
1001
0000
0000
0000
,  // measure 93
1001
0000
0001
0100
2000
0000
3001
0010
2000
0000
0000
0000
3001
0000
0010
0000
,  // measure 94
1000
0000
0010
0001
0100
0000
0010
1000
0001
0010
0100
0010
0100
1000
0001
0100
,  // measure 95
0010
0000
0000
0100
0001
0000
1000
0000
0200
0000
0000
0010
0000
0000
0010
0000
,  // measure 96
1300
0000
0001
0100
0010
0000
0100
0000
1000
0100
0001
0010
1000
0000
0010
0000
,  // measure 97
0001
0000
0000
0100
0001
0000
0010
0000
0200
0000
0000
1000
0000
0000
0010
0000
,  // measure 98
1300
0000
0000
0000
0001
0000
1000
0000
0001
0000
0000
0000
0100
0000
0001
1000
0001
0000
0100
0000
0010
0000
0100
0000
0001
0000
0010
0000
0100
0000
1000
0000
,  // measure 99
0010
0000
0000
0010
0100
0000
0001
0000
0020
0000
0000
0100
0000
0000
0100
0000
,  // measure 100
0031
0000
1000
0100
0010
0000
0100
0000
0001
0100
1000
0010
0001
0000
0010
0000
,  // measure 101
1000
0000
0000
0001
1000
0000
0010
0000
0200
0000
0000
0001
0000
0000
0001
0000
,  // measure 102
0310
0000
0000
0000
1000
0000
0001
0000
1000
0000
0000
0000
0010
0000
1000
0001
1000
0000
0010
0000
0100
0000
0010
0000
1000
0000
0001
0000
0010
0000
0100
0000
,  // measure 103
1000
0000
0000
0000
0001
0000
0000
0000
0101
0000
0000
1100
0000
0000
1001
0000
;
