#TITLE:HYDRA;
#SUBTITLE:;
#ARTIST:MYTH&ROID;
#TITLETRANSLIT:;
#SUBTITLETRANSLIT:;
#ARTISTTRANSLIT:;
#GENRE:;
#CREDIT:;
#MUSIC:HYDRA.ogg;
#BANNER:HYDRA.png;
#BACKGROUND:HYDRA-bg.png;
#CDTITLE:;
#SAMPLESTART:36.168;
#SAMPLELENGTH:11.566;
#SELECTABLE:YES;
#OFFSET:1.422;
#BPMS:0.000=166.000
,28.000=332.000
,30.000=166.000
,30.500=332.000
,31.000=166.000
,45.000=332.000
,46.000=166.000
,77.000=332.000
,78.000=166.000
;
#STOPS:28.000=0.045
,28.250=0.045
,28.500=0.045
,28.750=0.045
,29.000=0.045
,29.250=0.045
,29.500=0.045
,29.750=0.045
,30.500=0.045
,30.750=0.045
,45.000=0.045
,45.250=0.045
,45.500=0.045
,45.750=0.045
,77.000=0.060
,77.333=0.060
,77.667=0.060
;
#DISPLAYBPM:166.000;
#LASTBEATHINT:1.167534;
#BGCHANGES:7.000=HYDRA.avi=1.000=0=0=0=StretchNoLoop====,
99999.000=-nosongbg-=1.000=0=0=0=StretchNoLoop====
;
#FGCHANGES:;

//--------------- dance-single - ----------------
#NOTES:
     dance-single:
     :
     Medium:
     12:
     0,0,0,0,0:
0000
0000
0000
0000
,
0000
0000
0000
0000
,
0000
0000
0000
0000
,
0001
0100
0001
0010
0100
1000
0001
1000
,
0010
0100
0001
1000
0001
0010
0100
1000
,
0010
0100
1000
0100
0001
0010
0100
1000
,
0001
0010
1000
0010
0001
0010
0100
1000
,
0020
0000
0000
0130
,
0110
0000
0001
1000
0001
0100
0001
1000
,
1100
0000
0001
0101
0000
1000
1010
0000
,
0001
0011
0000
1000
0001
1000
0001
1000
,
0000
0000
0010
0100
0010
0000
1000
0000
,
0002
0000
0013
0100
,
1000
0002
0203
0320
,
0230
0000
0301
1000
0001
0000
1000
0000
,
2100
0000
3001
0100
0002
0000
0023
0000
,
0230
1300
1001
0001
,
0200
0000
0000
0000
0000
0000
0302
0000
0000
0000
0000
0000
1003
0000
0100
0000
1000
0000
0200
0000
0000
0320
0000
0000
,
0230
0000
1300
0001
2000
0000
3010
0000
,
0100
0000
0001
0010
0200
0000
2300
0000
,
3020
0000
0130
0001
1000
0000
0100
0000
,
0020
0032
2003
3020
,
0230
0000
0310
1000
0001
0000
0010
0000
,
1100
0000
1000
0001
0100
0000
0010
0000
,
0101
0000
0001
1000
0100
0000
0010
0000
,
0001
1000
0001
1000
0010
0100
0010
0100
,
0002
0000
2003
0000
,
3001
0010
0100
0010
0001
1000
0010
0100
,
0001
1000
0100
0010
0100
1000
0001
0100
,
0010
1000
0001
0010
0100
1000
0002
0000
,
0203
0010
0302
0100
,
1003
0010
0100
0010
0001
0010
1000
0001
,
0010
0100
0010
1000
0010
0001
1000
0010
,
0001
1000
0100
0001
1000
0001
1000
0001
,
0020
0000
0230
0000
,
1300
0000
0100
0000
0001
0000
0100
0000
1000
0000
0100
0000
0001
0000
0100
1000
,
0001
0000
0100
0000
1000
0000
0100
0000
0001
0000
0100
0000
1000
0000
0100
0001
,
1000
0000
0010
0000
0001
0000
0010
0000
1000
0000
0010
0000
0001
0000
0010
1000
,
0001
0010
1000
0010
0001
0010
1000
0010
,
0011
0000
0001
0101
0000
1000
1100
0000
,
1000
1010
0000
0100
0110
0010
1001
0001
,
0010
0100
1000
0001
0010
0100
1000
0001
,
0200
0000
0000
0320
0000
0000
1030
0001
1000
0001
1000
0001
,
1000
0000
1100
0000
0001
0100
0010
0100
,
0101
0000
1001
0000
1000
0100
0010
0001
,
1000
0001
0010
0100
1000
0001
1000
0001
,
0101
1100
1010
0011
,
0001
1000
0001
0001
1000
0010
0100
0100
,
0001
0010
0100
0100
1000
0001
1000
0010
,
1010
1000
0001
0011
0010
0100
1100
1000
,
0001
0100
0000
0000
0001
1000
0000
0000
0010
0100
0000
0000
0001
0010
0000
0000
,
0100
1000
0001
1000
0010
0100
1000
0100
,
0101
0000
1010
0000
1000
0100
0001
0100
,
1100
0000
0011
0000
0001
0100
0110
0000
,
1001
0000
0110
0000
1000
0010
0110
0000
,
0110
0010
1000
1001
0001
0010
0110
0100
,
1000
0000
1001
0000
0000
0011
0000
0000
1100
0000
0100
0000
1000
0000
0001
0000
,
2000
0000
0000
0000
0000
0000
0000
0000
3010
0100
0010
0100
0010
0100
0010
0100
,
0020
0000
0130
0000
,
1010
0000
0001
0101
0000
0001
0011
0000
,
1000
1100
0000
0010
0100
0010
0100
0110
;

//--------------- dance-single - ----------------
#NOTES:
     dance-single:
     :
     Hard:
     17:
     0,0,0,0,0:
0000
0000
0000
0000
,
0000
0000
0000
0000
,
0000
0000
0000
0000
,
1001
0001
0100
0010
0100
0001
0010
0100
,
1100
1000
0010
0100
0001
1000
0100
0010
,
0011
0001
1000
0010
0100
0001
1000
0010
,
1010
1000
0010
0100
0001
0010
0100
1000
,
0001
0100
0001
0100
0001
0010
0100
1000
0001
0000
1000
0010
0100
0000
0010
0000
,
0110
0000
0100
0000
0001
0000
1000
0000
0001
0010
0100
1000
0100
0010
0001
1000
,
1100
0001
0010
1100
1000
0010
0101
1000
,
0010
0101
1000
0001
1100
0001
1000
0101
,
0000
0000
0000
0000
0001
0010
0100
1000
0002
0000
0000
0000
0203
0000
0000
0000
,
0320
0000
0030
0000
1010
0000
1000
0000
0001
0000
1000
0100
1000
0000
0010
0000
,
0201
0000
0000
0000
0302
0000
0000
0000
0013
0000
0100
1000
0001
0000
0100
0000
,
1000
0000
0100
0001
1000
0000
0100
0000
0210
0000
0000
0000
2300
0000
3001
0000
,
0102
1000
0103
0001
0021
0000
0130
1000
,
1020
0000
0000
0000
1030
0000
0100
0000
1100
0000
0001
0010
0100
0000
0010
0000
,
0011
0000
0000
1000
0000
0000
0001
0000
0000
0100
0000
0000
0010
0000
1000
0000
0100
0000
0010
0000
0000
0001
0000
0000
,
0101
0000
1000
0010
0100
0000
0010
1000
0001
0000
0010
0000
0110
0000
0000
0000
,
2001
0000
0000
0000
0000
0000
3001
0000
1000
0000
0001
0000
0100
0000
0000
0010
0000
0000
1010
0000
0000
1000
0000
0000
,
0210
0000
0000
0000
0301
0000
0010
0000
1100
0000
1000
0001
0100
0000
0010
0000
,
0201
0000
0000
0000
0301
0000
0010
0000
0110
0000
0100
1000
0010
0000
1000
0000
,
2100
0001
3100
0010
0012
0000
1003
0010
,
0110
0000
0100
0001
0010
0000
0100
0000
1100
0000
0000
0000
0001
0000
0100
0000
,
0110
0000
0010
1000
0100
0000
0010
0000
0011
0000
0000
0000
1001
0000
0000
0000
,
1100
0100
0101
0001
0011
0010
1010
1000
,
1002
0000
0203
0000
,
0310
1000
0001
0010
0100
0010
0001
1000
,
1010
0010
0100
0001
1000
0001
0010
0100
,
1100
1000
0001
0100
0010
1000
1010
0100
,
0101
0001
0010
0100
0110
0010
0001
0100
,
1001
0001
0010
0100
1100
1000
0010
0100
,
0110
0010
1000
0001
0011
0010
0110
1000
,
1001
0001
0100
0010
0100
0010
0100
0010
,
2000
0000
3002
0000
,
1003
0100
0010
0100
1000
0100
0010
0100
1000
0010
0100
0010
1000
0010
0100
0010
,
1000
0001
0010
0100
0010
0001
0010
0100
0010
0001
0100
0010
0100
0001
0100
0010
,
1000
0100
0010
0100
1000
0100
0001
0100
1000
0001
0100
0010
0100
0001
0100
1000
,
0100
0010
0001
0010
1000
0100
0010
0001
0010
1000
0010
0001
0100
1000
0001
0010
,
1000
0000
0001
0010
0100
0000
1100
0000
1000
0010
0100
0000
0101
0000
0001
0010
,
0100
0000
1100
0000
1000
0010
0100
0000
0101
0000
1000
0000
0110
0000
0001
0000
,
0001
0010
0100
1000
0001
0010
0100
1000
0001
0000
1001
0000
1100
0000
1001
0000
,
0201
0000
0000
0320
0000
0000
1030
0100
0010
0001
0010
0100
,
1100
0000
0000
0000
1001
0000
0000
0000
0011
0000
0001
0100
0010
0000
1000
0010
,
0100
0000
0001
0000
1000
0100
0010
0001
1000
0000
0010
0000
0100
0001
0010
0100
,
1000
0000
0010
0000
0100
0001
0010
0000
1000
0000
0010
0001
0100
0000
1000
0000
,
1100
0000
0100
0000
0110
0000
0010
0000
1010
0000
1000
0100
0010
0000
0100
0010
,
0001
0000
1000
0000
1001
0000
0001
0000
0101
0000
0100
0010
0100
0000
0010
1000
,
0001
0000
0010
0000
0011
0000
0001
0000
1001
0000
1000
0010
0100
0000
0010
0000
,
0110
0000
0100
0001
1000
0000
1001
0000
0001
0010
0100
0000
0110
0000
0010
0000
,
0001
0010
0100
0010
0001
0100
0010
1000
0100
1000
0010
0100
0001
0010
0100
0010
,
0001
0000
1000
0000
1100
0000
0100
0000
0010
0001
0100
0010
1000
0100
0010
0001
,
1000
0000
0010
0000
0110
0000
0100
0000
0010
1000
0100
0010
0100
1000
0001
0100
,
1000
0000
1000
0100
0010
0000
0010
1000
0001
0000
0001
0010
0100
0000
0010
0000
,
1001
0000
1000
0100
0001
0000
0001
0100
0010
0000
0010
0001
0100
0010
1000
0100
,
0010
0000
0100
1000
0001
0000
0101
0000
0100
0010
1000
0000
1001
0000
0001
0010
,
0100
0000
0110
0000
0000
0011
0000
0000
1100
0000
1000
0000
0010
0100
0001
0010
,
2000
0000
0000
0000
0000
0000
0000
0000
3010
0001
0010
0001
1000
0010
1000
0010
,
0200
0000
0320
0030
,
1010
0000
0010
0001
0010
0000
0110
0000
0010
1000
0010
0000
0110
0000
0100
0001
,
0100
0000
0110
0000
0100
1000
0100
0000
0101
0000
1001
0000
1100
0000
1001
0000
;

//--------------- dance-single - ----------------
#NOTES:
     dance-single:
     :
     Challenge:
     19:
     1.096078,1.702846,0.901981,0.308272,1.118913,672,593,79,27,0,0,1.096078,1.702846,0.901981,0.308272,1.118913,672,593,79,27,0,0:
0000
0000
0000
0000
,
0000
0000
0000
0000
,
0000
0000
0000
0000
,
0101
0001
1000
0010
0100
0001
1000
0100
,
0110
0010
0001
1000
0010
0100
0001
1000
,
1100
0100
0010
0001
0100
0010
1000
0001
,
0101
0100
0010
1000
0001
0010
0100
1000
,
0001
0100
0001
1000
0010
1000
0001
0010
0100
0000
0010
0001
0100
0000
0010
0000
,
0110
0100
0001
1000
1100
0100
1000
0010
,
1001
0100
0010
1001
0010
0100
1100
0001
,
1000
0101
0010
1000
1100
1001
0101
1001
,
0000
0000
0000
0000
0001
0010
0100
1000
0002
0000
0000
0000
0100
0000
0000
0000
,
0013
0100
2000
0010
,
3002
0000
0100
0000
0103
0010
1000
0001
,
1000
0001
0010
0100
2000
0000
3002
0000
,
0203
0010
0001
0310
0002
0000
0023
0000
,
0130
1000
0001
0000
0102
0000
2003
0000
,
3020
0000
0000
0000
0000
0000
0130
0000
0000
0000
0000
0000
0100
0000
0001
0000
0010
0000
0200
0000
0000
1000
0000
0000
,
2300
0000
3001
0100
0020
0130
0210
0000
,
0301
0000
0000
0001
1000
0100
0010
0000
0000
1100
0000
0000
,
1000
0000
0001
1000
0020
0000
0100
0000
,
2030
0000
0001
0100
3002
0000
0013
0100
,
2000
0000
3001
1000
0010
0000
0010
0100
,
0101
0000
0001
1000
1100
0000
1000
0010
,
0110
0000
0100
0001
1001
0000
1100
0000
,
0101
0010
1100
1000
0011
0100
1001
0010
,
0102
0000
2003
3000
,
0110
0100
0001
0010
0100
1000
0001
1000
,
1100
0100
0010
0001
1000
0010
0100
0001
,
0101
0100
0010
0100
0001
1000
0100
0010
,
0011
0001
1000
0010
1000
0001
0100
0010
,
0110
0100
0001
1000
1100
0100
0010
0001
,
1001
1000
0010
0100
0101
0001
1000
0100
,
0110
0010
0001
1000
0001
1000
0001
1000
,
0020
0000
0230
0000
,
0301
1000
0100
1000
0001
1000
0100
1000
0001
1000
0100
1000
0001
0100
0001
1000
0001
0100
0001
1000
0001
0100
0001
1000
,
0001
1000
0010
1000
0001
1000
0010
1000
0001
1000
0010
1000
0001
0010
0001
1000
0001
0010
0001
1000
0001
0010
0001
1000
,
0001
0010
0100
0010
0001
0010
0100
0010
0001
0010
0100
1000
0100
0010
0100
1000
0100
0010
0100
1000
0100
0010
0001
1000
,
0001
0100
0010
0100
0001
0100
0010
0100
0001
0100
0010
1000
0010
0100
0010
1000
0010
0100
0010
1000
0010
0100
0001
1000
,
0001
0000
0000
0100
0010
0100
0010
0000
0000
1001
0000
0000
0010
0100
0010
0100
0000
0000
1001
0000
0000
0100
0010
0100
,
0010
0000
0000
1001
0000
0000
0010
0100
0010
0100
0000
0000
0110
0000
0000
1000
0000
0000
0110
0000
0000
0001
0000
0000
,
1001
0000
0000
1000
0001
0010
0100
1000
0001
0010
0100
1000
0001
0000
0000
1001
0000
0000
1100
0000
0000
1001
0000
0000
,
0201
0000
0000
0320
0000
0000
1030
0100
0010
0001
0010
0100
,
1100
0000
0000
0000
0000
0000
1001
0000
0000
0000
0000
0000
0011
0000
0000
0001
0100
0001
0100
0000
0000
0010
1000
0010
,
1000
0000
0000
0001
0000
0000
1000
0001
0100
0001
1000
0100
0010
0000
0000
0100
0000
0000
1000
0001
0100
0001
1000
0010
,
0100
0000
0000
0010
0000
0000
1000
0100
0010
0001
0000
0000
1000
0000
0000
0001
0010
0100
1000
0000
0000
0001
0000
0000
,
0101
0000
0000
0100
0000
0000
1100
0000
0000
1000
0000
0000
1010
0000
0000
0010
1000
0001
1000
0001
0010
0100
1000
0100
,
0010
0000
0000
0001
0000
0000
0100
0000
0000
0010
0000
0000
0100
0000
0000
0001
0000
0000
0010
0000
0000
0100
0000
0000
1000
0000
0000
0001
0000
0000
0100
0000
0000
0010
0000
0000
0100
0000
0001
0000
0010
0000
0100
0000
0010
0000
0001
0000
,
1000
0000
0000
0010
0000
0000
1000
0000
0000
0001
0000
0000
0100
0000
0000
0001
0000
0000
0010
0000
0000
0100
0000
0000
1000
0000
0000
0001
0000
0000
0100
0000
0000
0010
0000
0000
1000
0000
0010
0000
0100
0000
0010
0000
1000
0000
0100
0000
,
0010
0000
0000
0001
1000
0001
1000
0000
0000
0110
0000
0000
1000
0001
1000
0001
0000
0000
0110
0000
0000
1000
0000
0000
,
1001
0010
0100
1000
0101
0010
1000
0100
0011
1000
0001
0100
1010
0001
0010
0100
,
1001
0000
0000
0010
0000
0000
0110
0000
0000
1000
0000
0000
0001
0010
0100
0010
0001
1000
0100
0010
0100
1000
0001
0010
,
0100
0000
0000
1000
0000
0000
1001
0000
0000
0001
0000
0000
1000
0010
0100
0010
1000
0001
0100
0010
0100
0001
1000
0010
,
0100
0000
0001
1000
0101
0000
1000
0001
1100
0000
0001
1000
0101
0000
0010
0000
,
1001
0000
0001
1000
0011
0000
1000
0001
1010
0000
1000
0001
0100
0010
1000
0001
,
0110
0000
0000
1000
0100
0010
0001
0000
0000
1001
0000
0000
0001
0100
0010
1000
0000
0000
1001
0000
0000
1000
0100
0010
,
0001
0000
0000
1000
0010
0000
0000
0100
0001
0000
0000
0000
1001
0000
0000
0001
0000
0000
1000
0100
0010
0001
1000
0010
,
0100
0000
0000
0000
0000
0000
0000
0000
0001
1000
0001
1000
0010
0100
0010
0100
,
0002
0000
0023
0030
,
1100
0000
0000
1000
0010
0100
0001
0000
0000
0101
0000
0000
0001
0010
0100
1000
0000
0000
1001
0000
0000
1000
0001
0100
,
0010
0000
0000
0110
0000
0000
0100
0010
1000
0001
0000
0000
0011
0000
0000
0110
0000
0000
1100
0000
0000
1001
0000
0000
;
