#TITLE:HOLLOW HUNGER;
#SUBTITLE:;
#ARTIST:OxT;
#TITLETRANSLIT:HOLLOW HUNGER;
#SUBTITLETRANSLIT:;
#ARTISTTRANSLIT:OxT;
#GENRE:Anime;
#CREDIT:;
#MUSIC:HOLLOW HUNGER.ogg;
#BANNER:HOLLOW HUNGER.png;
#BACKGROUND:HOLLOW HUNGER-bg.png;
#CDTITLE:;
#SAMPLESTART:48.190;
#SAMPLELENGTH:12.000;
#SELECTABLE:YES;
#OFFSET:1.310;
#BPMS:0.000=160.000
,128.000=80.000
,130.000=160.000
,232.000=80.000
;
#STOPS:;
#LASTBEATHINT:0.826667;
#BGCHANGES:3.750=HOLLOW HUNGER.avi=1.000=0=0=0=StretchNoLoop====,
99999.000=-nosongbg-=1.000=0=0=0=StretchNoLoop====
;
#FGCHANGES:;

//--------------- dance-single - ----------------
#NOTES:
     dance-single:
     :
     Medium:
     12:
     0,0,0,0,0:
0000
0000
0000
0000
,
0000
0000
0000
0000
,
0000
0000
0000
0000
,
0000
0000
0000
0000
,
0001
1000
0011
1100
,
1000
0001
1010
0101
,
0001
0010
0110
1001
,
2000
3020
0230
0301
,
0011
0000
0001
0010
0100
0000
0100
1000
,
0001
0000
0000
0001
0000
0000
1000
0000
0010
0000
0000
0000
0110
0000
0000
0000
,
0100
0000
0100
0001
1000
0000
1000
0100
,
0010
0000
0000
0010
0000
0000
0001
0000
1000
0000
0000
0000
0110
0000
0000
0000
,
0001
0100
1000
0100
0001
1000
0001
0000
,
0010
0100
0010
0100
1000
0001
0100
0000
,
0010
0000
0000
0010
0000
0000
1000
0000
0100
0000
0000
0100
0000
0000
0010
0000
,
0001
0000
0000
0001
0000
0000
1000
0000
0010
0000
0000
0000
1001
0000
0000
0000
,
0110
0000
0010
1000
0100
0000
0010
0001
,
1000
0000
0010
0100
0000
0000
0001
0000
1000
0000
0000
0000
1100
0000
0000
0000
,
0011
0000
0010
0001
0100
0000
0010
1000
,
0001
0000
0100
0010
0000
0000
1000
0000
0001
0000
0000
0000
1001
0000
0000
0000
,
1000
0100
0001
0100
0001
0100
1000
0000
,
0001
0010
1000
0010
1000
0010
0001
0000
,
0011
0000
1100
0000
1000
0010
0110
0000
,
0101
0000
0000
0001
0000
0000
1000
0000
0200
0000
0000
0000
0320
0000
0000
0000
,
0031
0000
0000
0100
0000
0000
0001
0000
1000
0000
0000
0000
1100
0000
0000
0000
,
1000
0000
0000
0100
0000
0000
1000
0000
0001
0000
0000
0000
0110
0000
0000
0000
,
1001
0000
0000
0010
0000
0000
0010
0000
1001
0000
0000
0100
0000
0000
0100
0000
,
1001
0000
0000
0001
0000
0000
0010
0000
0100
0000
0000
0000
0110
0000
0000
0000
,
1000
0010
0100
0001
0010
0001
1000
0000
,
0001
0010
0100
1000
0010
1000
0001
0000
,
1000
0010
0100
0010
0001
1000
0100
0010
,
2000
0000
0001
0000
3100
0010
0100
0010
,
1001
0000
0000
0000
0000
0000
0000
0000
0101
0000
0000
0001
0100
0000
0001
0000
,
1000
0000
0100
0000
0010
0000
0000
0000
1100
0000
0000
1000
0100
0000
1000
0000
,
0001
0100
0010
0000
0110
0000
1010
0000
,
0110
0000
0101
0000
0001
1000
0100
0100
,
0001
0000
1000
0000
0010
0000
0010
0000
0001
0000
0000
1000
0010
0000
0100
0000
,
1000
0000
0000
0100
0010
0000
1000
0000
0001
0000
0010
0000
0001
0000
0010
0000
,
0100
1000
0001
0000
0100
0010
0100
0000
,
0010
1000
0001
0000
0010
0100
0010
0001
,
1000
0000
0001
0000
0100
0000
0010
0000
0110
0000
0000
0100
0001
0000
0000
0001
,
1000
0000
0000
1000
0100
0000
0010
0000
0001
0000
0000
0100
0010
0000
0000
0010
,
1000
0000
0000
1000
0001
0000
0010
0000
0011
0000
0000
0000
1100
0000
0000
0000
,
1010
0000
0101
0000
0001
0100
1000
0000
,
1000
0100
0001
0000
1001
0000
1000
0001
,
0010
0000
0010
0100
1100
0000
0001
1000
,
0010
0000
0010
0100
0101
0000
0001
0010
,
0100
0000
0100
1000
0001
0110
0000
0110
,
0001
0000
1000
0000
0001
0000
1000
0000
0010
0000
0000
0100
0000
0000
0110
0000
,
0000
0010
1000
0100
0020
0000
0001
0000
,
0130
0000
1000
0000
0001
0000
0000
0000
0100
0000
0000
0010
0000
0000
0110
0000
,
0000
0100
0001
0010
0200
0000
0001
0000
,
1300
0000
0001
0000
1000
0000
0001
0000
0100
0000
0000
0010
0000
0000
0110
0000
,
0000
0100
0010
1000
0002
0000
0010
0000
,
0013
0000
0001
0000
1000
0000
0000
0000
0010
0000
0000
0100
0000
0000
1000
0000
,
0100
0001
1000
0100
0010
1000
0010
1000
,
0001
0100
1000
0010
0100
0001
0100
1000
,
0001
0010
0100
2000
0000
0000
0000
0000
,
3100
0000
0000
0000
;

//--------------- dance-single - ----------------
#NOTES:
     dance-single:
     :
     Hard:
     16:
     0,0,0,0,0:
0000
0000
0000
0000
,
0000
0000
0000
0000
,
0000
0000
0000
0000
,
0000
0000
0000
0000
,
0011
1100
0101
1010
,
1010
0101
1100
0011
,
0011
0101
1100
1010
,
0001
0100
0001
1000
0100
1000
0020
0000
0000
0130
0000
0000
,
0110
0000
1000
0001
0101
0000
0001
1000
,
1100
0000
0000
0100
0010
0000
0001
0000
1001
0000
0000
0000
0110
0000
0000
0000
,
0101
0000
0001
0010
0110
0000
0100
1000
,
1001
0000
0000
0001
0100
0000
0010
0000
0100
0000
0001
0010
0100
0000
0000
0000
,
1100
1000
0001
0100
0101
0001
1100
0000
,
1000
0001
1000
0100
1000
0001
0101
0000
,
1010
0000
0000
1000
0010
0000
0100
0000
0101
0000
0000
0001
0010
0000
0100
0000
,
1100
0000
0000
0101
0000
0000
0110
0000
1001
0000
0000
0000
1001
0000
0000
0000
,
1100
0000
1000
0100
0110
0000
0001
0100
,
0110
0000
1000
0010
0000
1000
0001
0000
0010
0000
0000
0000
1100
0000
0000
0000
,
0011
0000
0010
0001
0101
0000
0010
1000
,
1100
0000
0100
0010
0000
0001
1000
0000
1010
0000
0010
0100
0010
0000
0000
0000
,
1010
0001
0010
0100
1100
0001
0101
0000
,
0001
0010
1000
0001
1000
0010
0001
0000
,
1001
0010
0110
1000
0010
0100
0110
0000
,
1001
0000
0001
0010
0000
0100
1000
0000
0001
0100
0001
0100
0020
0000
0000
0000
,
1030
0000
0000
1000
0100
0000
0010
0000
0100
0000
0100
1000
0001
0000
0100
0000
,
0110
0000
0000
0010
1000
0000
0001
0000
0010
0000
0010
0100
0010
0000
0010
0001
,
1000
0000
0000
0001
0100
0000
0001
0000
1100
0000
0000
1000
0100
0000
1000
0000
,
0101
0000
0000
0010
0100
0000
0001
0000
0010
0000
0100
1000
0010
0000
0100
0000
,
0110
0000
0010
1000
0100
0000
0010
0000
0100
0000
0100
1000
0001
0000
0100
0000
,
0110
0000
0100
0001
0010
0000
0100
0000
0010
0000
0010
0001
1000
0000
0010
0000
,
0101
0000
0001
0010
0100
0000
0010
0000
1100
0000
1000
0010
0100
0000
0010
0000
,
0100
0001
0100
0001
1000
0100
1000
0100
0010
0000
0100
0000
1000
0000
0010
0000
,
1001
0000
0000
0000
0000
0000
0000
0000
0101
0000
0001
0100
0010
0000
0010
0000
,
0110
0000
0100
0001
1000
0000
1000
0000
1100
0000
0100
1000
0001
0000
0001
0100
,
0010
0000
0010
1000
0001
0000
0001
0000
1100
0000
1000
0010
0100
0000
0100
0000
,
0101
0000
0001
0010
0100
0000
0100
0000
1100
0000
1000
0100
1000
0000
0001
0100
,
0001
0000
0100
0010
0100
0000
0010
0000
1001
0000
1000
0100
0010
0000
0100
0000
,
1000
0000
0001
0100
0010
0000
0100
0000
0001
0000
1000
0000
0010
0000
0010
0000
,
0100
0000
0100
0001
1000
0000
0100
0000
0011
0000
0001
0100
0010
0000
0010
0000
,
1010
0000
1000
0100
0010
0000
0010
0000
0110
0000
0100
1000
0010
0000
0010
0100
,
0010
0000
0010
1000
0001
0000
0010
0000
1100
0000
1000
0100
0010
0000
1000
0010
,
0100
0000
1000
0010
0100
0000
0010
0000
1001
0000
0001
0100
0010
0000
0001
0010
,
0100
0000
0001
0010
0100
0000
0010
0000
1100
0000
1000
0000
0101
0000
0001
0000
,
1010
0000
1000
0000
0011
0000
0001
0000
0110
0000
0100
1000
0001
0000
0100
0010
,
0100
0000
0010
1000
0001
0000
0010
0000
1100
0000
1000
0100
1000
0000
1100
0000
,
1001
0000
0001
0100
0001
0000
0101
0000
1010
0000
1000
0010
0100
0000
0110
0000
,
0101
0000
0001
0010
0100
0000
0110
0000
0011
0000
0010
0100
1000
0000
1000
0001
,
1000
0000
1000
0010
0100
0000
0001
0000
1000
0000
0110
0000
0000
0000
0110
0000
,
0010
0000
1000
0000
0001
0000
1000
0000
0110
0000
0000
0001
0010
0000
0100
0000
,
1000
0000
0100
0000
0001
0000
0100
0000
1000
0000
0001
0100
0001
0000
0100
0010
,
0100
0000
0001
0010
1000
0000
0010
0000
0110
0000
0000
1000
0010
0000
0100
0000
,
0001
0000
0100
0000
1000
0000
0100
0000
0001
0000
1000
0100
1000
0000
0010
0000
,
0101
0000
0010
0000
1100
0000
0010
0000
1001
0000
0000
1000
0010
0000
0001
0000
,
0010
0000
1000
0000
0100
0000
0001
0000
0100
0000
0010
0100
0010
0000
0001
1000
,
0001
0000
1000
0010
0001
0000
0010
0000
0110
0000
0000
0100
0001
0000
1000
0000
,
0100
0000
0001
0000
1000
0000
0010
0000
0001
0000
1000
0010
0100
0000
1000
0000
,
0100
0000
0001
0010
0100
0000
1000
0000
0001
0000
0100
0010
0100
0000
0010
0100
,
0010
1000
0001
0020
0000
0000
0000
0000
,
0130
0000
0000
0000
;

//--------------- dance-single - ----------------
#NOTES:
     dance-single:
     :
     Challenge:
     18:
     0.664002,0.533771,0,0,0,433,433,0,0,0,0,0.664002,0.533771,0,0,0,433,433,0,0,0,0:
0000
0000
0000
0000
,
0000
0000
0000
0000
,
0000
0000
0000
0000
,
0000
0000
0000
0000
,
1001
0000
0000
0001
0110
0000
0000
0000
1100
0000
0000
0000
0011
0000
0000
0000
,
1001
0000
0000
0000
0101
0000
0001
0000
1100
0000
0001
1000
0110
0000
0100
0010
,
1001
0000
0000
0000
0101
0000
0001
0010
0100
1000
0001
0010
0100
1000
0001
0000
,
1001
1001
1001
1001
1001
1001
0210
0000
0000
0310
0000
0000
,
0110
0000
1000
0100
0110
0000
0001
0100
,
0110
0000
0000
0000
0000
0000
0000
0000
0000
1000
0000
0000
0001
0000
0000
0000
0000
0000
0100
0000
0000
0000
0000
0000
0110
0000
0000
0000
0000
0000
0000
0000
0000
0000
0000
0000
1001
0000
0000
0000
0000
0000
0001
0000
0100
0000
0001
0000
,
0100
0000
0010
0100
1001
0000
0100
0010
,
1001
0000
0000
0000
0000
0000
0000
0000
0000
1000
0000
0000
0001
0000
0000
0000
0000
0000
0010
0000
0000
0000
0000
0000
0100
0000
0000
0000
0000
0000
1000
0000
0100
0000
1000
0000
0001
0000
0000
0000
0000
0000
0100
0000
0000
0000
0000
0000
,
0101
0000
0000
0001
0010
0100
1000
0000
0000
0001
0000
0000
0110
0000
0000
0100
0000
0000
1001
0000
0000
0001
0000
0000
,
0110
0000
0000
1000
0010
0000
0100
0000
0001
0000
0010
0000
0110
0000
0000
0000
,
0110
0000
0000
1000
0110
0000
0001
0000
0011
0000
0000
0001
0110
0000
1000
0000
,
1010
0000
0000
0000
0000
0000
0000
0000
0000
0110
0000
0000
0000
0000
0000
0000
0000
0000
0101
0000
0000
0000
0000
0000
1001
0000
0000
0000
0000
0000
0001
0000
0010
0000
0100
0000
1000
0000
0000
0000
0000
0000
0000
0000
0000
0000
0000
0000
,
1001
0000
1000
0001
0110
0000
0010
0100
,
1001
0000
0000
0000
0000
0000
1000
0000
0000
0100
0000
0000
0000
0000
0000
0010
0000
0000
0001
0000
0000
0000
0000
0000
1000
0000
0000
0000
0000
0000
0010
0000
0100
0000
0010
0000
0100
0000
0000
0000
0000
0000
0001
0000
0010
0000
0100
0000
,
1000
0000
1000
0010
0101
0000
0001
0010
,
1100
0000
0000
0000
0000
0000
0001
0000
0000
0100
0000
0000
0000
0000
0000
0010
0000
0000
1000
0000
0000
0000
0000
0000
0011
0000
0000
0000
0000
0000
0001
0000
0010
0000
0100
0000
1000
0000
0000
0000
0000
0000
0000
0000
0000
0000
0000
0000
,
1001
0000
0000
0000
0001
0000
0000
0000
0010
0000
0000
0000
0100
0000
0000
0000
1001
0000
0000
0000
0010
0100
0010
0100
0010
0000
0000
0000
1000
0000
0000
0000
,
0001
0000
0010
1000
0000
0001
0100
0000
1000
0000
0001
0100
0010
0000
1000
0001
,
0110
0000
0000
1000
0000
0000
0110
0000
0000
0001
0000
0000
1000
0100
0010
0001
1000
0100
0010
0000
0000
0001
0000
0000
,
1001
0000
1000
0010
0000
0100
0001
0000
1000
0001
1000
0001
0110
1000
0001
1000
,
0110
0000
0000
0000
1000
0000
0001
0000
0010
0000
1000
0000
0010
0000
1000
0000
0001
0000
0100
0000
1000
0000
0001
0100
,
0010
0000
0000
0000
0010
0000
1000
0000
0100
0000
0001
0000
0100
0000
0001
0000
1000
0000
0010
0000
0001
0000
1000
0100
,
0010
0000
0001
0000
0100
0000
0001
0000
0010
0000
0100
1000
0010
0000
0100
0000
0010
0000
1000
0000
0001
0000
0010
0100
,
0010
0000
0000
0000
1000
0000
0000
0000
0001
0000
0100
0000
1000
0000
0000
0000
0001
0000
0000
0000
1000
0000
0100
0000
0010
0000
0001
0000
1000
0000
0001
0000
0010
0000
0100
0000
1000
0000
0000
0000
0000
0000
0010
0000
0000
0100
0000
0000
,
0001
0000
0100
0001
0010
0000
0100
0010
0001
0000
0100
0010
0100
0001
0010
0100
,
0001
0000
1000
0010
0000
0010
0001
0000
1001
0000
1000
0010
0100
0000
0110
0000
,
1001
0000
1000
0001
0010
0000
0110
0000
0011
0000
0001
1000
0010
0000
0110
0000
,
0001
0000
0000
0010
0000
0000
0100
0000
0000
1000
0000
0000
0001
0000
0010
0000
0100
0000
1000
0000
0000
0000
0000
0000
1001
0000
0000
0000
0000
0000
1010
0000
0000
0000
0000
0000
0110
0000
0000
0000
0000
0000
0101
0000
0000
0000
0000
0000
,
1001
0000
0000
0000
0000
0000
0000
0000
0101
0000
0001
0010
0100
0000
0100
0010
,
1000
0000
1000
0010
0100
0001
0100
1000
0001
0000
1000
0010
0100
0000
0100
0010
,
0001
0000
0001
0010
0100
1000
0100
0001
1000
0000
0100
0010
1001
0000
0010
0000
,
0100
0000
0010
0100
1001
0000
0001
0000
1000
0000
0010
0100
0010
0000
1000
0100
,
0010
0001
0010
0100
1000
0100
0010
0001
1000
0000
0001
0100
1000
0000
0100
0000
,
1001
0000
1000
0100
0001
0000
0100
0000
1001
0000
0001
0100
1000
0000
0100
0010
,
0100
0000
0001
0010
1000
0000
0010
0000
0011
0000
0001
0100
0010
0000
0110
0000
,
1010
0000
1000
0100
0010
0000
1001
0000
0001
1000
0100
0001
1000
0010
0100
1000
,
0001
0100
0010
0001
1000
0100
0001
0010
1000
0000
1000
0010
0100
0000
0100
1000
,
0010
0001
0010
1000
0001
0100
1000
0100
0001
0000
1000
0010
0100
0000
0100
0001
,
0010
1000
0010
0001
1000
0100
0001
0100
1100
0000
1000
0001
0101
0000
0001
1000
,
1010
0000
1000
0001
0011
0000
0100
0010
1001
0000
1000
0010
1000
0000
1001
0000
,
0101
0000
0001
0100
0001
0000
0011
0000
1001
0000
0010
0100
0010
0000
0110
0000
,
1001
0000
0100
0010
0100
0000
0110
0000
1001
0000
1000
0100
0001
0000
0100
0000
,
1100
0000
0001
0100
1000
0000
0100
0000
0001
0010
0001
0100
1000
0100
0001
1000
,
0100
1000
0001
0010
1000
0010
0001
1000
0010
0000
0100
0001
0010
0000
0100
0000
,
0011
0000
1100
0000
0011
0000
1100
0000
1001
0000
0000
0001
0010
0000
0100
0000
,
1000
0000
1100
0000
0101
0000
1001
0000
1000
0000
0001
0100
0100
1000
0001
1000
,
0010
0010
0001
1000
0010
0000
0100
0000
0110
0000
0000
1000
0010
0000
0100
0000
,
0001
0000
0101
0000
1100
0000
1001
0000
0001
0000
0100
0010
0100
0000
1001
0000
,
1000
0100
0001
0100
1000
0100
0001
0100
1000
0000
0000
0001
0100
0000
0010
0000
,
1000
0000
1010
0000
0011
0000
1001
0000
1000
0000
0001
0010
0100
0000
1000
0010
,
0010
0001
1000
0001
0100
0100
1000
0001
0010
0000
0000
0010
0100
0000
0010
0000
,
1001
0000
0110
0000
1001
0000
0110
0000
1001
0000
1000
0010
0100
0000
0001
0000
,
1000
0000
0100
0000
0010
0000
0001
0000
1000
0000
0100
0000
1000
0000
0001
0000
0010
0000
0100
0000
1000
0000
0010
0000
0100
0000
0000
0000
0000
0000
0010
0000
0000
0100
0000
0000
0001
0000
0000
0000
0000
0000
1000
0000
0000
0100
0000
0000
,
0010
1100
0110
2001
0000
0000
0000
0000
,
3100
0000
0000
0000
;
