#VERSION:0.83;
#TITLE:刃渡り2億センチ;
#SUBTITLE:;
#ARTIST:マキシマム ザ ホルモン;
#TITLETRANSLIT:HAWATARI NIOKU CENTI;
#SUBTITLETRANSLIT:;
#ARTISTTRANSLIT:maximum the hormone;
#GENRE:Anime;
#CREDIT:;
#MUSIC:HAWATARI NIOKU CENTI.ogg;
#BANNER:HAWATARI NIOKU CENTI.png;
#BACKGROUND:HAWATARI NIOKU CENTI-bg.png;
#CDTITLE:;
#SAMPLESTART:64.305;
#SAMPLELENGTH:17.443;
#SELECTABLE:YES;
#OFFSET:1.289;
#BPMS:0.000=150.000
,18.500=158.000
,20.000=150.000
,49.000=148.000
,50.500=150.000
,76.000=165.000
,81.000=160.000
,83.500=195.000
,97.500=424.000
,100.000=195.000
,154.000=73.000
,168.000=160.000
,170.000=74.000
,171.000=146.000
,187.500=142.000
,195.000=137.000
,197.000=135.000
,211.000=138.000
,219.000=133.000
,223.000=140.000
;
#STOPS:97.500=0.035
,97.750=0.035
,98.000=0.035
,98.250=0.035
,98.500=0.035
,98.750=0.035
,99.000=0.035
,99.250=0.035
,99.500=0.035
,99.750=0.035
,113.500=0.435
,118.500=0.182
,132.500=0.430
,137.500=0.187
;
#WARPS:113.500=5.000,
132.500=5.000
;
#SPEEDS:0.000=1.000=0.000=0;
#SCROLLS:0.000=1.000;
#TICKCOUNTS:0.000=4;
#TIMESIGNATURES:0.000=4=4;
#LABELS:0.000=Song Start;
#COMBOS:0.000=1;
#DISPLAYBPM:73.000:195.000;
#ORIGIN:;
#PREVIEWVID:;
#JACKET:HAWATARI NIOKU CENTI-jacket.png;
#CDIMAGE:;
#DISCIMAGE:;
#BGCHANGES:3.000=HAWATARI NIOKU CENTI.avi=1.000=0=0=0=StretchNoLoop====,
99999.000=-nosongbg-=1.000=0=0=0=StretchNoLoop====
;
#FGCHANGES:;

//--------------- dance-single - ----------------
#NOTEDATA:;
#STEPSTYPE:dance-single;
#DESCRIPTION:;
#DIFFICULTY:Medium;
#METER:12;
#RADARVALUES:0,0,0,0,0;
#NOTES:
0000
0000
0000
0000
,
0000
0000
0000
0000
,
0000
0000
0000
0000
,
0000
0000
0000
0000
,
0000
0000
0000
0000
,
0110
0000
1001
0000
0001
1000
0100
1000
,
0101
0000
1001
0000
1000
0001
1000
0001
,
0110
0000
1001
0000
1000
0001
0100
0001
,
1100
0000
1001
0000
0001
1000
0001
1000
,
0110
0000
1001
0000
0001
1000
0010
1000
,
0011
0000
1001
0000
1000
0001
1000
0001
,
0110
0000
1001
0000
1000
0001
0010
0001
,
1010
0000
1001
0000
0000
0100
0100
0100
,
0110
0000
0000
0010
1000
0000
0001
0000
0010
0000
0100
0000
1000
0000
0001
0000
,
0011
0000
0000
0100
1000
0000
0010
0000
0100
0000
0001
0000
1000
0000
0010
0000
,
1010
0000
0000
0100
0001
0000
0010
0000
0100
0000
0010
0000
0001
0000
1000
0000
,
1100
0000
0000
0010
0001
0000
1000
0000
0001
0000
0100
0000
1000
0000
0100
0000
,
0110
0000
0000
0010
1000
0000
0001
0000
1000
0000
0000
1000
0100
0000
0010
0000
,
0001
0000
0000
0001
1000
0000
0010
0000
0001
0000
1000
0000
0100
0000
0010
0000
,
0220
0000
0000
0000
,
0330
0000
0000
0000
0000
0100
0100
0100
,
0001
0010
0001
0100
0001
0010
0100
0000
,
0100
1000
0010
1000
0100
1000
0010
0000
,
0100
0001
1000
0001
0100
0001
1000
0000
,
0001
0010
0100
1000
0001
0010
0100
1000
,
0011
0000
0000
1100
0000
0000
1001
0000
0000
0000
0010
0000
0100
0000
0001
0000
,
1010
0000
0000
0101
0000
0000
1001
0000
0000
0000
0010
0000
0001
0000
0100
0000
,
1010
0000
0000
0101
0000
0000
1001
0000
0000
0000
0011
0000
0000
0000
1100
0000
,
1100
0000
0000
0101
0000
0000
1001
0000
0MM0
0000
0000
0000
000M
0000
M000
0000
,
0000
00M0
00M0
00M0
0000
0000
0110
0000
,
0001
1000
0000
0010
0010
0010
1000
0100
,
1000
0001
0100
0010
1000
0001
0010
0100
,
0000
0100
0010
0100
1000
0001
1000
1000
,
0001
0001
0MM0
0000
M000
000M
0000
00M0
,
00M0
00M0
0000
0000
0110
0000
1000
0001
,
0000
0010
0010
0010
0100
1000
0001
0100
,
1000
0100
0001
0010
1000
0010
0000
0010
,
0001
0010
0100
1000
0001
0001
1000
2000
,
0000
0000
0000
0000
0000
0000
0000
0000
3010
0000
1000
0100
1000
0000
0001
0000
,
1000
0000
0001
0100
0001
0000
1000
0000
0010
0000
0100
0010
0100
0000
0001
0000
,
1000
0000
1000
0000
0001
0000
0001
0000
0100
0000
0010
1000
0010
0000
0100
0000
,
0001
0000
1000
0100
1000
0000
0001
0000
0010
0000
0100
1000
0001
0000
0100
0000
,
0020
0000
0000
0000
0030
0000
0100
0001
,
0010
0001
0100
0001
0010
0100
1100
0000
,
1001
0000
0101
0000
1000
1000
0010
1000
,
0100
1000
0010
1000
0100
0010
0011
0000
,
1001
0000
1010
0000
0010
0100
0010
0000
,
1000
0001
1000
0000
0001
0010
0100
1000
,
0001
0010
0110
0000
1001
0000
0001
0100
,
0001
0100
0101
0000
1010
0000
0110
0000
,
0110
0000
1001
0000
1001
0000
1000
0100
,
0001
0100
0110
0000
0011
0000
1100
0000
,
1010
0000
0102
1000
1003
0000
0001
0100
,
0001
0100
0010
0010
1000
1000
0001
0010
,
0001
0010
0100
0100
1000
1000
0010
0100
,
0010
0100
0001
1000
0001
1000
0001
0010
,
0100
1000
0001
0010
0100
1000
0000
0000
;

//--------------- dance-single - ----------------
#NOTEDATA:;
#STEPSTYPE:dance-single;
#DESCRIPTION:;
#DIFFICULTY:Hard;
#METER:15;
#RADARVALUES:0,0,0,0,0;
#NOTES:
0000
0000
0000
0000
,
0001
0100
0001
0100
0001
0010
0100
1000
,
0010
1000
0010
0100
0001
1000
0000
0000
,
0001
0100
0001
0100
0001
0010
0100
1000
,
0010
1000
0010
0100
0001
1000
0000
0000
,
0001
1000
1100
0000
1100
1000
0010
0100
,
0101
0000
0101
0000
0110
1000
0110
0001
,
1000
0100
1100
0000
1100
1000
0001
0100
,
0101
0000
0101
0000
1001
0100
1001
0010
,
1000
0001
0101
0000
0101
0001
0010
0100
,
1100
0000
1100
0000
0110
0001
0110
1000
,
0001
0100
0101
0000
0101
0001
1000
0100
,
1100
0000
2002
0000
3003
0010
0010
0010
,
1001
0000
0000
0001
0100
0000
0010
0000
0100
0000
0001
1000
0100
0000
0010
0000
,
0110
0000
0000
0100
1000
0000
0001
0000
1100
0000
0001
0000
1100
0000
0001
0000
,
1001
0000
0000
1000
0100
0000
0010
0000
0100
0000
1000
0001
0100
0000
0010
0000
,
0110
0000
0000
0100
0001
0000
1000
0000
0101
0000
1000
0000
0001
0100
0001
0100
,
0010
0000
0000
1000
0001
0000
0010
0000
0110
0000
0100
1000
0001
0000
0100
0000
,
0101
0000
0000
0001
1000
0000
0100
0000
0110
0000
0001
0000
0110
0000
1000
0000
,
2002
0000
0000
0000
,
0000
0000
3003
0000
0000
0100
0100
0100
,
1001
0000
0001
0100
0010
0000
0100
0000
0001
0010
0100
0000
1000
0000
0010
0000
,
0100
0000
0010
1000
0001
0000
0010
0000
0100
0000
1000
0000
0001
0000
1000
0000
,
0001
0000
0100
0010
0100
0000
0001
0000
1000
0001
1000
0000
0100
0000
0010
0000
,
0001
0000
1000
0100
0000
0010
0001
0000
1000
0010
1000
0000
0001
0100
0001
0100
,
0010
0000
0000
1010
0000
0000
0101
0000
0001
0010
0001
0000
1000
0000
1100
0000
,
0110
0000
0000
0011
0000
0000
1100
0000
1000
0010
1000
0000
0001
0100
0001
0000
,
0101
0000
0000
1001
0000
0000
1100
0000
1000
0000
0000
0110
0000
0000
0000
1001
,
0000
0110
0000
0001
1000
0000
1001
0000
000M
0000
M000
0000
000M
0000
0M0M
0000
,
0000
00M0
00M0
0000
0000
0000
0001
1000
,
0001
0101
0000
0010
0010
0010
1100
1100
,
0010
0000
0010
0000
0101
0000
0101
0000
1000
0000
0001
0000
1001
0000
1000
0010
,
0001
0000
0010
0000
0110
0000
0100
0000
0001
0000
1000
0000
0100
0010
0100
0000
,
1000
1001
M000
000M
M000
MM00
0000
00M0
,
00M0
0000
0000
0000
1000
0001
1000
1100
,
0000
0010
0010
0010
0101
0101
0010
0010
,
1100
0000
1100
0000
0001
0000
1000
0000
1001
0000
0001
0010
1000
0000
0010
0000
,
0110
0000
0100
0000
1000
0000
0001
0000
0100
0010
0100
0000
0010
0000
2002
0000
,
0000
0000
0000
0000
3003
0000
0000
0000
0001
0100
0001
0100
0010
1000
0001
0000
,
1000
0100
1000
0100
0010
0001
1000
0000
0010
1000
0010
1000
0100
0010
0100
0000
,
0010
0001
0010
0001
0100
0010
0100
0000
0110
0000
0001
1000
0001
0000
0010
0000
,
0110
0000
1000
0001
1000
0000
0010
0000
1001
0000
0010
0100
0010
0000
1001
0000
,
0001
1000
0001
1000
0001
1000
0001
1000
0002
0000
0000
0000
1003
0100
0000
0100
,
0010
0100
0000
0100
0001
0000
0100
0000
1000
0000
1001
0000
0001
0100
0000
0100
,
0010
0100
0000
0100
1000
0000
0100
0000
0001
0000
1001
0000
1000
0010
0000
0010
,
0100
0010
0000
0010
0001
0000
0010
0000
1000
0000
1001
0000
0001
0010
0000
0010
,
0100
0010
0000
0010
1000
0000
1000
0010
0001
1000
0001
1000
1001
0000
0100
0000
,
0010
1000
1001
0001
0100
0010
1010
1000
,
0101
0000
0001
0000
1001
0000
0100
0001
0100
0001
0100
0001
0010
0000
0100
0000
,
0010
0100
0110
0000
1100
0000
0101
0000
,
0110
0000
0000
0000
1010
0000
0010
1000
0010
1000
0010
1000
0001
0000
0101
0000
,
0000
1100
0011
1001
,
0101
0000
2010
0001
3001
0000
1000
0001
,
1000
0000
0010
0000
0100
0001
0100
0000
0010
1000
0010
0000
1000
0000
0001
0000
,
0010
0000
0100
0000
1000
0100
1000
0000
0001
0010
0001
0000
1001
0000
0100
0000
,
0110
0001
1001
0010
0110
1000
1001
0011
,
0110
1100
1010
0110
0101
1001
0000
0000
;

//--------------- dance-single - ----------------
#NOTEDATA:;
#STEPSTYPE:dance-single;
#DESCRIPTION:;
#DIFFICULTY:Challenge;
#METER:17;
#RADARVALUES:0.988949,1.13325,1.009552,0.05547,0.904159,624,533,91,5,0,0,0,0,20,0.988949,1.13325,1.009552,0.05547,0.904159,624,533,91,5,0,0,0,0,20;
#DISPLAYBPM:73.000:195.000;
#CHARTNAME:;
#CHARTSTYLE:;
#CREDIT:;
#NOTES:
0000
0000
0000
0000
,
0001
0100
0010
0100
0001
0010
0100
1000
,
0010
0100
0010
1000
0001
1000
0000
0000
,
0001
0100
0010
0100
0001
0010
0100
1000
,
0010
0100
0010
1000
0001
1000
0000
0000
,
0201
0000
0301
0000
1002
0000
1003
0000
1100
0000
0100
1000
0001
0000
0100
0000
,
0201
0301
1002
0103
0110
0010
1001
0100
,
1200
0000
1300
0000
2001
0000
3001
0000
0101
0000
0100
0001
1000
0000
0100
0000
,
1200
1300
2001
3100
0110
0010
1001
0100
,
0021
0000
0031
0000
1002
0000
1003
0000
1010
0000
0010
1000
0001
0000
0010
0000
,
0021
0031
1002
0013
0110
0100
1001
0010
,
1020
0000
1030
0000
2001
0000
3001
0000
0011
0000
0010
0001
1000
0000
0010
0000
,
2000
0000
0002
0000
3003
0110
0110
0110
,
1001
0000
0000
0001
0010
0000
0001
0000
1000
0000
0001
0100
0110
0000
0010
1000
,
0001
0000
0010
0100
1000
0000
0010
0000
0100
0000
0001
0100
0010
0000
1000
0010
,
0100
0000
0000
0001
1000
0000
0100
0000
0010
0000
0100
1000
1001
0000
0001
0100
,
0010
0000
0100
0001
1000
0000
0100
0000
0010
0000
0010
0000
0001
1000
0001
1000
,
0100
0000
0000
0100
1000
0000
1100
0000
0001
0000
1000
0100
0110
0000
0010
0001
,
1001
0000
1000
0010
0100
0000
1001
0000
0100
0000
1001
0000
0100
0010
0100
0010
,
2002
0000
0000
3000
,
0100
0000
0103
0000
0000
0110
0110
0110
,
1001
0000
1000
0100
0010
0000
1001
0000
0001
0100
0010
0000
1001
0000
0101
0000
,
0001
1000
0100
1000
0010
0000
1010
0000
0101
0000
0100
0001
0010
0100
1000
0100
,
0010
0000
0100
1000
0001
0000
0101
0000
0100
0001
1000
0000
1100
0000
0100
1000
,
0001
0010
0100
1000
0000
0000
0001
0100
0001
1000
0100
1000
0001
0010
0100
1000
,
1100
0000
0000
0011
0000
0000
1100
0000
1000
0001
0100
0000
0010
1000
1100
0000
,
0011
0000
0000
1100
0000
0000
0011
0000
0001
1000
0100
0000
0010
0001
1000
0000
,
1001
0000
0000
0110
0000
0000
1001
0000
0100
0001
0000
0110
0000
1000
0001
0000
,
0011
0000
0000
0110
0000
0000
1100
0000
M00M
0000
000M
0M00
00M0
0000
M00M
0000
,
M000
0M00
00M0
0000
00MM
0000
0000
0000
0000
0000
0000
0000
1001
0000
0001
0100
,
0010
0000
1001
0000
1000
0100
0010
0000
0011
0000
0110
0000
1100
0000
1000
0010
,
0100
0000
0110
0000
0010
1000
0010
1000
0100
0010
0001
0000
1001
0000
1000
0010
,
1000
0010
0100
0001
1000
0000
1100
0000
0011
0000
0001
0010
0100
0010
0100
1000
,
0001
0000
1001
0000
M00M
0000
000M
00M0
0M00
0000
M00M
0000
M000
00M0
0M00
0000
,
M00M
0000
0000
0000
0000
0000
0000
0000
1001
0000
0001
0010
0100
0000
1001
0000
,
1000
0010
0100
0000
1001
0000
0110
0000
0110
0000
0001
1000
0001
0000
0010
0100
,
1000
0000
1100
0000
1010
0000
0011
0000
0101
0000
0100
0001
1000
0100
0010
0100
,
1000
0000
1100
0000
0011
0000
1100
0000
0100
1000
0001
0010
0100
1000
0001
0000
,
1000
0100
0010
0001
1000
0100
0010
0001
2000
3100
1000
0100
0010
0001
0010
0001
,
1000
0010
1000
0010
0100
0001
0100
0001
1000
0100
0010
0001
1000
0010
0100
0001
,
1000
0100
0001
0100
1000
0010
0001
0010
0120
0100
1030
0001
0010
0100
0010
0001
,
0021
0001
0130
1000
0010
0100
0010
1000
1020
1000
0130
0001
2001
0001
3010
0100
,
0010
0100
0010
0100
0010
0100
0010
0100
0020
0000
0100
0130
0001
1000
0000
1000
,
0010
0100
0000
0100
0001
1000
0100
0001
1000
0010
0001
1000
0010
0100
0000
0100
,
0001
0010
0000
0010
0001
0100
0000
0010
1000
0100
0010
0001
1000
0010
0000
0010
,
1000
0001
0000
0001
0010
1000
0001
0100
1000
0001
0100
0010
1000
0100
0000
0100
,
1000
0010
0000
0010
0100
0000
0001
0100
0010
0100
0010
0100
0110
0000
1001
0000
,
0001
0010
1100
0000
0100
0000
1001
0000
1000
0010
0101
0000
1000
0000
0110
0000
,
0100
0010
1001
0000
0110
0000
1000
0010
0100
0001
0010
0001
1001
0000
0100
0000
,
0010
0100
0110
0000
1001
0000
0011
0000
,
1100
0000
0000
0000
1001
0000
0100
0010
0100
0010
0100
0010
0110
0000
0110
0000
,
1000
0001
1001
0000
0110
0000
1010
0000
,
0101
0000
1001
0110
0110
0000
1001
0001
,
1100
0000
1000
0000
1010
0010
0100
0001
0010
0000
0100
1000
1010
0000
1000
0000
,
0101
0000
0001
0000
0011
0010
0100
1000
0010
0000
0100
0001
0010
0000
0100
1000
,
0010
0000
0100
0001
0010
0000
0100
1000
0010
0000
0100
0001
0010
0100
1000
0010
,
0100
0001
0010
0100
1000
0010
0100
0001
0010
0100
1000
0000
0000
0000
0000
0000
;
