#TITLE:紅蓮華;
#SUBTITLE:;
#ARTIST:LiSA;
#TITLETRANSLIT:Gurenge;
#SUBTITLETRANSLIT:;
#ARTISTTRANSLIT:LiSA;
#GENRE:ANIME;
#CREDIT:;
#MUSIC:Gurenge.ogg;
#BANNER:Gurenge.png;
#BACKGROUND:Gurenge-bg.png;
#CDTITLE:;
#SAMPLESTART:60.144;
#SAMPLELENGTH:15.119;
#SELECTABLE:YES;
#OFFSET:0.679;
#BPMS:0.000=135.000;
#STOPS:;
#DISPLAYBPM:135.000;
#BGCHANGES:1.500=Gurenge.avi=1.000=0=0=0=StretchNoLoop====,
99999.000=-nosongbg-=1.000=0=0=0=StretchNoLoop====
;
#FGCHANGES:;

//--------------- dance-single - ----------------
#NOTES:
     dance-single:
     :
     Hard:
     13:
     0.607937,0.748125,0.5,0.677778,0.488889,383,338,45,61,0,1,0.607937,0.748125,0.5,0.677778,0.488889,383,338,45,61,0,1:
0000
0000
0000
0000
,
0012
0000
0000
2000
0000
3000
0200
0000
0000
0000
0000
0000
0000
0000
0303
0000
,
2010
0000
0000
0002
0000
0003
0200
0000
0000
0000
0000
0000
3300
0000
1000
0000
,
0010
0000
0000
0100
0000
0000
0002
0000
0000
0000
0000
0000
0013
0000
0001
0000
,
0200
0000
0000
0000
0000
0310
0000
1000
,
0002
0000
0000
0000
0000
0013
0000
0001
,
2000
0000
0000
0000
0000
3100
0000
0100
,
1001
0000
0000
0011
0000
0000
1100
0000
0000
0011
0000
0000
0001
0100
0001
0100
,
0010
0000
0000
1010
0000
0000
0101
0000
0000
1010
0000
0000
1000
0100
1000
0100
,
0010
0000
0000
0011
0000
0000
1010
0000
0000
0011
0000
0000
1010
0000
0001
0010
,
0001
0010
0000
0100
1000
0000
0100
1000
0000
0001
0010
0000
0100
1000
0100
0010
,
0001
0000
0000
0010
0000
0000
0100
0000
0000
1000
0000
0000
0001
0000
0100
0000
,
1000
0000
0100
0000
0101
0000
0001
0100
0001
1000
0100
1000
0001
0000
0010
0000
,
0100
0000
0001
0000
0100
0000
1000
0010
0000
0000
0001
0000
0010
0000
1000
0000
,
0100
0000
0001
0000
0100
1000
0000
0021
0000
0000
0001
0000
0001
0000
0130
1000
,
0010
0000
0000
1000
0000
0000
0001
0000
0000
0000
0100
0000
0010
0000
0000
1000
,
0000
0000
0100
0000
0011
0000
0001
0100
0010
0100
0001
0010
0100
0000
0001
0000
,
0200
2000
0000
0000
0000
0000
3300
0010
,
0101
0000
0001
0010
0000
0000
0011
0000
1000
0010
0100
0000
0110
0000
0001
0010
,
0200
0000
0000
0302
0000
0000
0203
0000
0000
2300
0000
0000
3020
0000
0000
0032
,
0000
0000
0013
0000
1000
0100
0010
0000
0010
0100
0000
0110
0000
0000
0002
0000
,
0023
0000
0000
0230
0000
0000
0302
0000
0000
0000
0203
0000
2300
0000
3010
0000
,
0100
0000
0001
0010
0100
0000
1100
0000
0010
0001
0000
0011
0000
0000
0001
0100
,
0001
0000
0000
0100
0000
0010
2000
0000
0000
0000
3001
0000
0010
0000
0100
0000
,
1000
0010
0100
0001
0100
0010
1000
0010
,
0020
0000
0000
2030
0000
0000
3001
0000
0010
0000
1000
0000
0001
0000
0100
0000
,
1000
0000
0001
0010
0000
0010
0100
1000
0001
0100
0010
0100
0001
0000
0001
0010
,
0002
0000
0000
2000
0000
3000
0200
0000
0000
0000
0000
0000
0000
0000
0303
0000
,
2010
0000
0000
0002
0000
0000
0203
0000
0000
0000
0000
0000
3300
0000
0002
0000
,
0023
0000
0000
0230
0000
0000
2300
0000
0000
0000
0000
0000
3002
0000
0100
0000
,
0203
0000
0000
0302
0000
0000
0023
0000
0000
0000
0230
0000
0000
0000
1300
0000
,
1100
0101
1100
0101
,
0011
1010
0011
1010
,
0001
0001
1000
1000
0001
1000
0001
1000
,
0002
0023
0230
2300
,
3001
0000
0010
0000
0100
0000
1000
0000
0100
0000
0001
0100
0000
0000
1000
0000
,
0100
0000
0010
0000
0001
0000
0100
0000
1000
0000
0100
0001
0000
0000
0001
0000
,
0010
0000
0001
0010
0000
0000
0001
0000
0010
0000
0100
0000
1000
0000
0100
0000
,
0021
0000
0000
0000
0230
0000
0000
0000
2300
3000
0000
1001
0000
0000
0101
0000
,
1100
0000
0010
0200
0000
0301
0010
0100
,
0001
0100
0010
0001
0100
1000
0100
0001
,
0010
0000
0000
0110
0000
0000
1001
0000
0000
0110
0000
0000
1000
0100
1000
0100
,
0010
0000
0001
0010
0100
1000
0010
0100
0001
0010
0100
1000
0010
0100
0001
0010
,
1000
0000
0010
0000
0001
0000
0100
0000
0010
0000
1000
0100
0000
0000
0001
0100
,
1000
0000
0010
0000
0010
0000
0100
0000
0100
0000
0001
0010
0000
0000
0200
0000
,
2300
0000
0000
3020
0000
0000
0230
0000
0000
0000
0301
0000
0010
0000
0200
0000
,
0000
0000
1300
0000
0002
0000
0000
0000
0203
0000
0000
0320
0000
0000
1000
0000
,
1030
0000
0001
0000
0010
0000
0001
0100
0010
1000
0100
1000
0001
0100
0010
0100
,
0110
0000
0000
0100
0020
0000
0200
0330
,
0110
0000
0000
1001
0000
0000
1010
0000
0000
0011
0000
0000
0101
0000
1100
0000
;

//--------------- dance-single - ----------------
#NOTES:
     dance-single:
     :
     Challenge:
     17:
     0.834921,0.914375,0.722222,0.433333,0.972222,526,461,65,39,0,0,0.834921,0.914375,0.722222,0.433333,0.972222,526,461,65,39,0,0:
0000
0000
0000
0000
,
0202
0000
0000
0303
,
2200
0000
0000
3300
,
0022
0000
0000
0033
,
2020
0000
0000
3030
,
0220
0000
0000
0330
,
2002
0000
0000
3003
,
1001
0000
0001
0010
0000
0001
0100
0000
1000
0010
0000
1000
0100
0010
0100
0010
,
0001
0000
1000
0010
0000
1000
0100
0000
0001
0010
0000
0001
0100
0010
0100
0010
,
1000
0000
0001
0100
0000
0100
0001
0000
0001
0010
0000
0010
0100
1000
0100
0010
,
0001
0000
0000
0000
1000
0000
0010
0000
0000
0000
0010
0000
0100
0000
0000
0000
0100
0000
0001
0000
0010
0000
0100
0000
1000
0000
0001
0000
1000
0100
1000
0100
,
1000
0000
0000
1100
0000
0000
0001
0000
0001
0010
0100
0000
0100
0000
1000
0000
,
0010
0000
0010
0100
0001
0000
1000
0100
1000
0001
0100
0001
1000
0000
0100
0000
,
0010
0000
0001
0100
0001
0000
1000
0100
0000
1000
0100
0000
0010
0000
1000
0010
,
0100
0000
0000
0000
1000
0000
0000
0000
0100
0000
1000
0000
0000
0000
0101
0000
0000
0000
0001
0000
0100
0000
0001
0000
0100
0000
0010
0000
1000
0100
0010
0001
,
0010
0000
0000
0110
0000
0000
0011
0000
0010
0100
1000
0000
0010
0000
0100
0001
,
0101
0000
0110
0000
1010
0000
1000
0010
0100
0010
0001
0010
1000
0000
0001
0000
,
0010
0000
0100
1000
0010
0000
0001
0010
0001
0010
0100
0000
0010
0000
0010
0000
,
0101
0000
0000
0000
0001
0000
0010
0000
0000
0000
0010
0000
0100
0000
0000
0000
0010
0100
1000
0010
0100
0000
0000
0000
0110
0000
0000
0000
0010
1000
0010
0100
,
0001
0000
0000
0001
0010
0000
0100
0000
0000
0100
1000
0000
0010
0000
0100
0002
,
0000
0000
0000
0000
0013
0000
0100
0000
0001
0000
0100
0000
1000
0000
0000
0000
1000
0000
0001
0000
0000
0000
0011
0000
0000
0000
0010
0000
0001
0000
1000
0001
,
0100
0000
0000
0100
0001
0000
0011
0000
0000
0001
0100
0000
0010
0000
0110
0000
,
0010
0000
0100
0000
1000
0000
0100
0000
0010
0000
0000
0000
0101
0000
0000
0000
0001
0000
0100
0010
0100
0000
0001
0000
0000
0000
1000
0000
0001
0010
0001
0010
,
0100
0000
0000
0100
0010
0000
0001
0000
0010
0000
0100
0000
1000
0000
0100
0000
,
0010
0001
0011
1100
0011
1010
0101
1010
,
0011
0000
0000
0001
1000
0000
0001
0000
0100
0001
0100
0000
0010
1000
0010
0100
,
0001
0000
0000
0000
0001
0000
0010
0000
0000
0000
0010
0000
0100
0000
1000
0000
0001
0000
0010
0000
1000
0000
0010
0000
0001
0000
0000
0000
0001
0010
0001
0010
,
0200
0000
0000
0001
0000
0000
2000
0000
0000
0000
0000
0000
0000
0000
3300
0000
,
0120
0000
0000
1000
0000
0000
0002
0000
0000
0000
0000
0000
0033
0000
2100
0000
,
0020
0000
0030
0002
0000
0003
0200
0000
0000
0000
3300
0000
0012
0000
2000
3000
,
0200
0000
0300
0020
0000
0030
2000
0000
0003
0000
0200
0000
0300
0000
3001
0000
,
1100
1000
1010
1000
1100
1000
1010
1000
,
0101
0001
0011
0001
0101
0001
0011
0001
,
0011
0101
1010
1100
1001
0110
1001
0110
,
1000
0010
0100
0010
0002
0000
0000
0000
0023
0000
0000
0000
2030
0000
3000
0000
,
0011
0000
0000
0000
0010
0100
1000
0000
0010
0000
0000
0000
1000
0000
0100
0000
1000
0000
0010
0000
0100
0000
0001
0000
0010
0000
0100
0000
0001
0000
0100
0000
,
1000
0000
0000
0000
0001
0100
0010
0000
0100
0000
0000
0000
0001
0000
0100
0000
0010
0000
0100
0000
1000
0000
0100
0000
0001
0000
0000
0000
0001
0000
0010
0000
,
0100
0000
0000
0000
1000
0000
0010
0000
0100
0000
0000
0000
0110
0000
0000
0000
0010
0000
1000
0000
0100
0000
1000
0000
0010
0000
0100
0000
0001
0010
0100
1000
,
0020
0000
0001
0000
2030
0000
3010
0000
0101
0000
0000
1001
0000
0000
1000
0010
,
0101
0000
0000
0001
1000
0000
0110
0000
0010
1000
0001
0000
0010
0000
0100
1000
,
0001
0000
0100
0001
0010
0000
0001
0010
0100
0000
0001
0100
1000
0000
0001
0010
,
0100
0000
0100
0001
0000
0001
0100
0000
0100
1000
0000
1000
0010
0001
0010
1000
,
0100
0000
0000
0000
0001
0000
0100
0000
1000
0000
0010
0000
0100
0000
1000
0000
0001
0000
0010
0000
0100
0000
0001
0000
0010
0000
1000
0000
0010
0100
0010
0001
,
1000
0000
0000
0000
0001
0100
0001
0000
0010
0000
0000
0000
0100
0000
1000
0000
0100
0000
0000
0000
0010
0000
0001
0000
0000
0000
0000
0000
0001
0100
0010
0100
,
0001
0000
0000
0000
1000
0010
0100
0000
0010
0000
0000
0000
0100
0000
0001
0000
0100
0000
0000
0000
0010
0000
1000
0000
0000
0000
0000
0000
1000
0000
0001
0100
,
0002
0000
0000
0023
0000
0000
0230
0000
0300
0000
1010
0000
0110
0000
0102
0000
,
1000
0000
0000
0000
1003
0000
0000
0000
0110
0000
0000
0000
0001
0000
0000
0000
0110
0000
0000
0000
0001
0000
0010
0000
0100
0000
1000
0000
0001
0100
0001
0010
,
0100
0000
0000
0000
0100
0000
1000
0000
0010
0000
0000
0000
0010
0000
1000
0000
0100
0000
0001
0000
0100
0000
1000
0000
0001
0000
0100
0000
1000
0100
0001
0010
,
1000
0000
0000
0210
0020
0300
0200
0330
,
0110
0000
0100
1100
0000
0010
0011
0000
0110
1001
0000
0000
0101
0000
1100
0000
;
