#TITLE:ぐだふわエブリデー;
#SUBTITLE:;
#ARTIST:悠木碧;
#TITLETRANSLIT:Guda Fuwa Everyday;
#SUBTITLETRANSLIT:;
#ARTISTTRANSLIT:Yuki Aoi;
#GENRE:ANIME;
#CREDIT:;
#MUSIC:Guda Fuwa Everyday.ogg;
#BANNER:Guda Fuwa Everyday.png;
#BACKGROUND:Guda Fuwa Everyday-bg.png;
#CDTITLE:;
#SAMPLESTART:53.465;
#SAMPLELENGTH:8.727;
#SELECTABLE:YES;
#OFFSET:-0.028;
#BPMS:0.000=220.000;
#STOPS:;
#BGCHANGES:0.000=Guda Fuwa Everyday.avi=1.000=0=0=0=StretchNoLoop====,
99999.000=-nosongbg-=1.000=0=0=0=StretchNoLoop====
;
#FGCHANGES:;

//--------------- dance-single - ----------------
#NOTES:
     dance-single:
     :
     Medium:
     12:
     0,0,0,0,0:
0000
0000
0000
0000
0000
0000
0000
0000
0000
0000
0000
1001
,
0000
0000
0000
0001
0000
0000
0100
0000
0000
0010
0000
1000
,
0000
0000
1000
0001
0000
0000
0001
0000
0000
1000
0000
0100
,
0000
0100
1000
0001
,
1000
0000
0000
0001
0000
0000
0100
0000
0000
0010
0000
1000
,
0000
1100
1100
0101
,
0101
0000
0000
1100
0000
0000
0101
0000
0000
1000
0000
1001
,
0000
0000
0000
0001
0000
0011
0000
0000
0000
1000
0000
1100
,
0000
0000
0000
0010
0000
0000
0001
0000
0100
0010
0000
0010
,
1000
1100
0001
0101
,
1010
0000
0000
0011
0000
0000
1010
0000
0010
0100
0000
0000
,
0110
1001
0001
0101
,
1000
1100
1100
0010
,
1001
0000
0000
0001
0000
0100
0000
0000
0000
1010
0000
0000
,
0101
0000
0001
0010
0000
0000
0100
0000
1000
0000
0000
1001
,
0000
0110
0010
0110
,
0100
0000
0000
1001
0000
0000
1001
0000
0001
1000
0000
1000
,
0001
0101
0100
1100
,
0100
0000
0110
0000
0000
1001
0000
0000
0010
0100
0000
0000
,
1000
1100
0001
0011
,
1010
0000
0000
1000
0000
0010
0000
0000
0010
0100
0000
0000
,
0101
1000
1010
0011
,
0010
0000
0100
0000
0000
1100
0000
0000
1000
0001
0000
0000
,
1001
0110
0110
0011
,
1100
0000
0000
1010
0000
0000
0101
0000
0001
0010
0000
0010
,
1000
1010
0001
0101
,
1100
0000
0000
1000
0000
0001
0000
0000
0000
0101
0000
0000
,
1000
1010
0001
0011
,
1001
0110
1001
0110
,
1000
1100
1000
1010
,
0001
0000
0100
0000
0000
1000
0000
0000
0100
0001
0000
0000
,
0011
0001
1001
1001
,
1000
0000
0100
0000
0010
0000
0001
0000
0000
0110
0000
0000
,
1000
0000
0000
1001
0000
0000
0001
0000
0100
0010
0000
0000
,
1010
0000
0000
1100
0000
0000
1010
0000
0010
1000
0000
1000
,
0100
0011
0101
0011
,
1001
0000
0000
1001
0000
0000
0110
0000
0010
0100
0000
1001
,
0000
1001
0011
1010
,
1100
0000
0000
0101
0000
0000
1001
0000
0100
0001
0000
0011
,
0000
0000
0000
0010
0000
0110
0000
0000
0000
0100
0000
1100
,
0000
0000
0000
1001
0000
0000
1000
0000
0001
0100
0000
0100
,
0010
0000
0000
0110
0000
0000
1010
0000
0000
1000
0000
1000
,
0100
0000
0000
0001
0000
0100
0000
0000
0100
1000
0000
1000
,
0001
0000
0000
0101
0000
0000
1000
0000
0000
1010
0000
0100
,
0001
0000
0000
0001
0000
0010
0000
0000
0000
0100
0000
0000
,
1000
1100
0001
0101
,
1000
0000
0000
1010
0000
0000
0001
0000
0000
0011
0000
0001
,
1000
0000
0000
1000
0000
0001
0100
0000
0100
0001
0000
0001
,
1000
0000
0000
1001
0000
0000
0010
0000
0110
0000
0000
0000
,
1001
0000
0000
1001
0000
0000
0110
0000
0000
0001
0000
0100
,
0000
0000
0100
1000
0000
0000
0100
0000
0000
0001
0000
0000
,
1000
0000
0000
1001
0000
0000
0010
0000
0100
0000
0000
1001
,
0000
0001
0010
0100
,
1000
0000
0000
0101
0000
0000
0001
0000
0100
0000
0000
0100
,
0010
0000
0010
1000
0000
1000
0001
0000
1000
0000
0000
0110
,
0000
1000
1100
0101
,
1000
1100
0010
0110
,
0010
1010
1100
1010
,
0100
0011
0101
0011
,
1001
0000
0000
0010
0000
0000
1001
0000
0100
0000
0000
0110
,
0000
1001
1001
0100
,
1010
0100
0011
0100
,
1001
0000
0000
0001
0000
1000
0000
0000
1010
0000
0000
0101
,
0000
1000
0011
1010
,
0011
0000
0000
1001
0000
0000
1001
0000
0001
1000
0000
1000
,
0001
0101
1000
1100
,
0001
0000
0000
0011
0000
0000
0001
0000
1000
0000
0000
1010
,
0000
0010
0110
1001
,
0011
1100
1010
0101
,
1001
0000
0000
0000
0000
0000
0000
0000
0000
0000
0000
0000
0100
0000
0000
0000
0000
0000
0000
0000
0000
0000
0000
0000
0010
0000
0000
0000
0000
0000
0000
0000
0000
1000
0000
0000
0000
0000
0000
0000
0000
0000
0000
0000
1001
0000
0000
0000
,
0000
0000
0000
0001
0000
0000
0010
0000
0000
1001
0000
0100
,
0001
0000
0000
0011
0000
0000
0100
0000
1000
0000
0000
1010
,
0000
0000
0000
0010
0000
1000
0001
0000
0001
0100
0001
0100
,
0010
1010
1010
1010
,
0101
0000
0000
0101
0000
0000
1001
0000
0000
1000
0000
0101
,
0000
0000
0000
0001
0000
1100
0000
0000
0000
0100
0000
1001
,
0000
0000
0000
1001
0000
0000
1000
0000
0010
0100
0000
0110
,
0000
0000
0000
0000
0000
2000
0002
0000
0000
0000
0000
0000
,
0000
0000
0000
0000
,
0000
0000
0000
0000
,
0000
0000
0000
3003
;

//--------------- dance-single - ----------------
#NOTES:
     dance-single:
     :
     Hard:
     15:
     0.97227,0.731384,0,0,0,613,613,0,0,0,0,0.97227,0.731384,0,0,0,613,613,0,0,0,0:
0000
0000
0000
0000
0000
0000
0000
0000
0000
0000
0000
1001
,
0000
0000
0001
0010
0000
0000
0110
0000
0100
1000
0000
1010
,
0000
0000
0010
0100
0000
0100
0001
0000
0001
1000
0000
1100
,
0000
0000
0100
1000
0000
1010
0000
0000
0010
0100
0000
0100
,
0001
0000
0001
0010
0000
0010
0100
0000
0100
1000
0000
1010
,
0000
0000
0010
0100
0000
1000
0100
0000
0001
0100
0000
1000
,
0100
0000
0001
0100
0000
0001
0010
0100
1000
0100
0000
0011
,
0000
0000
0100
1000
0000
1010
0000
0000
0100
0001
0000
1001
,
0000
0000
0001
0010
0000
0100
1000
0100
0010
0001
1000
0100
,
0010
0000
0010
0001
0000
0000
0101
0000
0010
1000
0000
0000
,
1100
0000
0100
0010
0000
0000
0011
0000
0001
0100
0000
0010
,
1000
0000
0000
1001
0000
0000
0110
0000
0010
1000
0000
1000
,
0001
0000
0000
0011
0000
0000
1100
0000
1000
0010
0000
0000
,
1001
0000
0000
0100
0000
0010
0000
0000
1000
0001
0000
0000
,
1001
0000
0001
0010
0000
0010
0100
0000
0110
0000
0000
1001
,
0000
0000
0001
0100
0000
1000
0100
0000
0001
0010
0000
0000
,
0110
0000
0100
1000
0000
0001
1000
0001
0100
0010
1000
0010
,
0100
0000
0000
0101
0000
0001
0100
0000
0100
0001
0000
0001
,
0100
0000
1010
0000
0000
1100
0000
0000
1000
0001
0000
0000
,
1001
0000
0100
0010
0000
0000
1001
0000
0010
0100
0000
0000
,
0110
0000
0000
1000
0000
0001
0000
0000
0001
0100
0000
0010
,
1001
0000
1000
0010
0000
0000
0101
0000
0001
0010
0000
0000
,
0010
0000
0100
0000
0000
1001
0000
0000
1000
0010
0000
0000
,
0110
0000
1000
0001
0000
0100
0001
0000
1000
0001
0000
0100
,
0001
0000
0000
1001
0000
0000
0001
0010
0001
0010
0100
0010
,
0001
0000
0000
1001
0000
1000
0100
0000
0100
1000
0000
1000
,
0100
0000
0100
1000
0000
0011
0000
0000
0001
1000
0000
0000
,
1010
0000
0100
0001
0000
0000
0011
0000
0100
1000
0000
0000
,
0110
0000
0100
0010
0000
0010
0100
0000
1000
0001
0000
0000
,
1001
1100
0101
1100
,
1001
0000
0110
0000
0000
0100
0001
0000
0001
1000
0000
0000
,
1100
0000
0010
0001
0000
0000
0001
1000
0100
0010
0001
1000
,
0100
0000
1100
0000
1010
0000
1001
0000
0001
0100
0000
0000
,
0110
0000
0000
1010
0000
0010
1000
0100
0000
0001
0000
0100
,
1000
0000
0001
0100
0000
0010
1000
0010
0100
0001
0100
0001
,
0010
0000
0010
0100
0000
0100
1000
0010
0000
0110
0000
0100
,
0001
0000
0001
1000
0000
1000
0010
0001
0010
0100
0001
1000
,
0000
0000
0100
1000
0000
0001
0010
0000
0100
1000
0000
0001
,
0010
0000
0100
1000
0000
0000
0101
0000
0100
0001
0000
0011
,
0000
0000
0010
0100
0000
1100
0000
0000
1000
0010
0000
0110
,
0000
0000
0100
0001
0000
1000
0010
0100
0001
1000
0010
0100
,
0001
0000
0000
1001
0000
0000
1100
0000
1000
0100
0001
1000
,
0010
0000
0001
0100
0010
0100
0001
0010
0100
1000
0001
0010
,
0001
0000
0001
1000
0000
0000
1000
0100
0010
0001
1000
0100
,
0010
0000
0001
0100
0010
1000
0001
0000
0001
1000
0000
1000
,
0010
0000
0010
0100
0000
0000
0110
0000
0000
1001
0000
1000
,
0100
0000
0010
0001
0000
1000
0010
0000
0100
0001
0010
0001
,
1000
0000
0000
1000
0010
0100
0010
1000
0001
0100
1000
0100
,
0001
0000
0001
0010
1000
0010
0001
0000
0011
0000
0000
0000
,
1100
0000
0000
1001
0000
0000
0101
0000
0100
0001
0000
0011
,
0000
0000
0100
1000
0000
1000
0010
0000
0010
0100
0000
0100
,
1000
0000
1000
0001
0000
0001
0010
0000
0010
1000
0000
0000
,
1001
0000
0001
0010
0000
0010
0100
0000
0100
1000
0000
1000
,
0001
0000
0000
0101
0000
0000
0011
0000
1100
0000
0000
1000
,
0100
0000
0100
1000
0100
0010
0001
1000
0001
0010
0000
0110
,
0000
0000
1000
0001
0000
0000
0101
0000
0000
0011
0000
0000
,
1010
0000
0000
1001
0000
0000
0010
0100
0010
0100
0010
0100
,
0010
0000
0000
0101
0000
0000
1100
0000
0000
0101
0000
0001
,
1000
0000
0000
1100
0000
1000
0001
0000
0000
0101
0000
0000
,
1001
0000
0001
0010
0000
0100
1000
0000
1001
0000
0000
0100
,
0010
0110
1001
0110
,
0011
1100
1010
0101
,
1001
0000
0000
0001
0000
0010
0000
0000
1100
0000
0000
0011
,
0000
0000
0001
1000
0000
0000
1100
0000
0000
1001
0000
0000
,
0101
0000
0100
0001
0000
0000
0001
0010
0100
0001
0100
1000
,
0001
0000
0001
0100
0000
0000
0110
0000
0010
1000
0000
0000
,
1001
0000
0001
0010
0000
0000
0001
0000
1000
0000
0000
0101
,
0000
0000
0100
0010
0000
0000
1010
0000
0000
0101
0000
0000
,
0011
0000
0000
0110
0000
0000
1100
0000
1000
0001
0000
0000
,
1010
0000
0000
0000
0000
0000
0000
0000
0000
0000
0000
0000
1100
0000
0000
0000
0000
0000
0000
0000
0000
0000
0000
0000
0011
0000
0000
0000
0000
0000
0000
0000
0000
1001
0000
0000
0000
0000
0000
0000
0000
0000
0000
0000
0100
0000
0000
0000
,
0010
0000
1000
0001
0000
0001
0010
0000
0100
1000
0001
0010
,
0100
0000
1000
0001
0000
0000
0101
0000
0011
0000
0000
1100
,
0000
0000
1000
0010
0100
1000
0001
0010
0100
0001
0010
0100
,
1000
0000
1000
0010
0000
0010
0100
0000
0100
0001
0000
0001
,
1000
0000
1000
0100
0000
0100
0010
0001
1000
0100
0000
0110
,
0000
0000
0010
0001
0000
1001
0000
0000
1000
0010
0000
0110
,
0000
0000
0100
0001
0000
0001
1000
0000
1000
0010
0000
0110
,
0000
0000
0000
0000
0000
0002
2000
0000
0000
0000
0000
0000
,
0000
0000
0000
0000
,
0000
0000
0000
0000
,
0000
0000
0000
3003
;
