#TITLE:Grandeur;
#SUBTITLE:;
#ARTIST:Snow Man;
#TITLETRANSLIT:;
#SUBTITLETRANSLIT:;
#ARTISTTRANSLIT:Snow Man;
#GENRE:ANIME;
#CREDIT:;
#MUSIC:Grandeur.ogg;
#BANNER:Grandeur.png;
#BACKGROUND:Grandeur-bg.png;
#CDTITLE:;
#SAMPLESTART:46.684;
#SAMPLELENGTH:15.469;
#SELECTABLE:YES;
#OFFSET:1.598;
#BPMS:0.000=128.000;
#STOPS:;
#LASTBEATHINT:1.275733;
#BGCHANGES:3.500=Grandeur .avi=1.000=0=0=0=StretchNoLoop====,
99999.000=-nosongbg-=1.000=0=0=0=StretchNoLoop====
;
#FGCHANGES:;

//--------------- dance-single - ----------------
#NOTES:
     dance-single:
     :
     Hard:
     12:
     0.563461,0.527748,0.388867,0.088884,0.149992,355,320,35,8,0,0,0.563461,0.527748,0.388867,0.088884,0.149992,355,320,35,8,0,0:
0000
0000
0000
0000
,
0000
0000
0000
0000
,
0001
0000
0100
0000
0010
0000
1000
0001
0000
0001
0100
0000
0010
0000
1000
0000
,
0100
0010
1001
0000
0001
1000
0100
0000
,
1000
0000
0100
0000
0010
0000
0001
1000
0000
1000
0100
0000
0010
0000
0001
0000
,
0100
0010
1001
0000
1000
0001
0100
0000
,
0010
1000
0001
0001
0010
0100
1000
0000
,
0001
0100
0010
0010
1000
0001
0010
0000
,
0110
0000
0100
1000
0011
0000
0100
0001
,
1010
0000
0010
0100
2002
0000
3003
0110
,
0100
0000
0001
0000
0100
0000
1000
0000
0100
0000
0001
1000
0000
0000
0100
0000
,
0010
0000
0001
0000
1000
0000
0100
0000
0010
0000
0001
1000
0000
0000
0010
0000
,
0020
0000
0130
0000
0010
1000
0100
1000
,
0001
0000
0100
0001
0000
1000
0000
0001
0010
0000
0000
1001
0000
0000
0110
0000
,
1000
0000
1000
0000
0001
0000
0001
0000
1000
0000
0000
1000
0000
0000
0001
0000
,
0010
0000
0010
0000
0100
0000
0100
0000
1000
0000
0000
1000
0000
0000
0001
0000
,
0010
0000
0000
1100
0000
0000
1000
0000
0010
0000
0000
0101
0000
0000
0010
0000
,
0001
1000
0001
1000
0001
0010
0100
0000
,
1000
0000
0100
0000
0010
0000
0100
0000
0010
0000
0001
0100
0000
0000
1010
0000
,
0100
0000
1000
0010
0000
0000
0101
0000
1000
0000
0001
0000
0100
0000
0010
0000
,
1001
0000
0000
0000
1001
0000
0000
1010
0000
0000
0101
0000
0001
0000
1000
0000
,
0110
0000
0000
0000
0110
0000
0000
0011
0000
0000
1100
0000
1000
0000
0000
0000
,
1000
0100
0010
0100
0001
0100
0010
1000
,
0001
0100
1000
0001
0100
1000
0001
0010
,
2000
0100
3002
0103
,
2002
0000
0000
0000
0000
3003
0001
1000
,
1001
0000
0001
0000
0010
0000
0010
0100
0000
0100
1000
0000
0001
0000
0100
0000
,
1000
0000
0001
0000
1000
0000
0100
0001
0000
0000
0010
0000
0010
0000
0100
0000
,
1000
0000
0100
0000
0001
0000
0100
1000
0000
1000
0010
0000
0100
0000
0010
0000
,
0001
0000
1000
0000
0001
0000
0010
1000
0000
0000
0000
0000
1001
0000
0000
0000
,
0001
1000
1000
0001
0001
1000
1000
0010
,
0100
0010
0110
0000
1001
0000
0100
0001
,
0010
0010
0100
0100
1000
1000
0001
0100
,
0110
0000
0000
0000
1010
0000
0000
0000
0101
0000
0010
0000
1001
0000
0000
1001
,
0000
0001
0100
0001
0100
1000
0100
1000
,
0100
0001
0010
1000
0010
0001
0101
0000
,
1010
1000
0100
1000
0100
0001
0100
0001
,
0100
1000
0010
0001
0010
1000
1010
0000
,
0010
0100
0001
0010
0100
1000
0010
0100
,
0001
1000
0001
1000
0100
0010
0110
0000
,
0001
0100
0001
0100
0010
1000
0010
1000
,
0100
0010
0001
1000
0110
0000
1001
0000
,
0001
0100
0010
0001
1000
0001
0010
0100
,
1000
0001
1000
0100
0010
0100
0010
0100
,
0001
0010
1000
0010
0100
0001
1000
0010
,
1001
0100
0110
0000
1001
0000
1001
0000
,
0010
0000
1000
0000
0010
0000
1000
0001
0000
0001
0010
0000
0100
0000
0010
0000
,
2002
0000
3003
0000
;

//--------------- dance-single - ----------------
#NOTES:
     dance-single:
     :
     Challenge:
     16:
     0.952328,1.029109,0.477751,0.044442,1.327704,600,557,43,4,0,0,0.952328,1.029109,0.477751,0.044442,1.327704,600,557,43,4,0,0:
0000
0000
0000
0000
,
0000
0000
0000
0000
,
1000
0000
0000
1100
0000
0000
0001
0000
0000
0101
0000
0010
0000
0000
0010
1000
0000
0001
0010
0000
0100
0000
0000
1000
,
0001
0000
0000
0100
0000
0000
0110
0000
0000
0100
0000
0001
0000
0000
0001
1000
0000
1000
0100
0000
0100
1000
0000
1000
,
0010
0000
0000
1010
0000
0000
0001
0000
0000
0101
0000
1000
0000
0000
0010
0100
0000
0001
0000
0000
1001
0000
0000
1000
,
0100
0000
0000
0010
0000
0000
0001
0000
0000
0100
0000
1010
0000
0000
1000
0001
0000
0001
0010
0000
0010
0100
0000
0100
,
1000
0000
0000
0000
0001
0000
0100
0000
0000
0000
0010
0000
0100
0000
0000
0000
0001
0000
0000
0000
0000
0000
0010
0000
0000
0000
0000
0100
0000
1000
0000
0000
0000
0000
0001
0000
0010
0000
0000
0000
0010
0000
0100
0000
0000
0000
1000
0000
,
0001
0000
0001
0100
0000
0100
0010
0000
0110
0000
0000
0100
0001
0000
0001
0010
0000
0010
0100
0000
0100
1000
0000
1000
,
0001
0000
0000
0000
0000
0000
0000
0000
0100
0000
0000
0000
0010
0000
0000
0000
0000
0000
0000
0000
0000
0000
0000
0000
0110
0000
0000
0000
0000
0000
0000
0000
0000
0000
0000
0000
0010
0000
0000
0100
0000
0000
0010
0000
0000
0100
0000
0000
0010
0000
0000
0000
0000
0000
1000
0000
0000
0000
0000
0000
0000
0000
0000
0000
0000
0000
1000
0000
0000
0000
0000
0000
0100
0000
0000
0000
0000
0000
0010
0000
0000
0000
0000
0000
0001
0000
0000
0000
0000
0000
1000
0000
0000
0000
0000
0000
,
0001
0000
0100
0000
0010
0000
1000
0000
0001
0000
1000
0000
0001
1000
0001
1000
0001
1000
0001
1000
0001
1000
0001
1000
0001
0000
0000
0000
1001
0000
0000
0000
,
0100
0000
0000
0011
0000
0000
0100
0000
0000
1010
0000
0001
0000
0000
1000
0010
0000
1000
0001
0000
0100
0000
0000
0010
,
1000
0000
0000
0001
0000
0000
0010
0000
0100
1000
0000
0001
0000
0000
0001
1000
0000
1000
0001
0000
0001
0100
0000
0100
,
0010
0000
0000
0110
0000
0000
1001
0000
0000
1000
0000
0010
0000
0000
0001
0010
0000
0010
1000
0000
0001
0000
0000
0020
,
0100
0000
0000
0000
0000
0000
0000
0000
0000
0000
0000
0000
0100
0000
0000
0000
0000
0000
0100
0000
0000
0000
0000
0000
0000
0000
0000
0000
0000
0000
0130
0000
0000
0000
0000
0000
0100
0000
0000
0010
0000
0000
0100
0000
0000
0010
0000
0000
0100
0000
0000
0000
0000
0000
0000
0000
0000
0000
0000
0000
0000
0000
0000
0000
0000
0000
1001
0000
0000
0000
0000
0000
0000
0000
0000
0000
0000
0000
0000
0000
1001
0000
0000
0000
0000
0000
0000
0000
0000
0000
0000
0000
0001
0000
0000
0000
,
1000
0000
0000
0001
0000
0000
0010
0000
0000
0100
0000
0000
1000
0000
0000
0001
0000
0000
0010
0000
0000
0100
0000
0000
1000
0000
0000
0000
0010
0000
0000
0000
0000
0000
0001
0000
0000
0000
0000
0000
0010
0000
1000
0000
0000
0000
0001
0000
,
0100
0000
0001
0010
0000
0100
1000
0000
0010
0100
0000
0001
1000
0000
0010
0100
0000
1001
0000
0000
0011
0000
0000
0010
,
0001
0000
0000
0000
0100
0000
0000
0000
0000
0000
0110
0000
0000
0000
0000
0000
0000
0000
0010
0000
0000
1000
0000
0000
0100
0000
0000
0000
0000
0000
1000
0000
0000
0001
0000
0000
0000
0000
0000
0000
0100
0000
0000
0000
0000
0000
0010
0000
,
0100
0000
0110
0000
0000
0000
0110
0000
0000
0000
0001
0100
0001
0100
0001
0000
1000
0000
0100
0000
0010
0000
0001
0000
0100
0000
0010
0000
1000
0000
0001
0000
,
1000
0000
0100
0000
1000
0000
0100
0000
0010
0000
0001
0100
0000
0100
0010
0000
,
1000
0000
0001
0010
0001
0000
1000
0100
0000
0100
0010
0000
0001
0000
1000
0000
,
0010
0100
0010
0000
1000
0001
1000
0001
0000
0000
0011
0000
1100
0000
1000
0010
,
0100
0000
0000
0000
0000
0000
0001
0000
0000
0000
0000
0000
1000
0000
0000
0000
0000
0000
0001
0000
0000
0000
1000
0000
0000
0000
0000
0001
0000
0000
0010
0000
0000
0100
0000
0000
1000
0000
0000
0001
0000
0000
0010
0000
0000
0100
0000
0000
,
1100
0001
1010
0100
0011
1000
0101
0010
,
1001
0100
0110
1000
0101
1100
1010
0011
,
0001
0010
0001
0100
1000
0100
0010
1000
0001
1000
0100
0010
1000
0010
0001
0100
,
0001
0010
0100
1000
0001
0100
0010
1000
0001
0010
0100
1000
0001
0100
0010
1000
0001
0010
0100
0000
0000
0010
0000
0000
,
1001
0000
0001
0100
0010
0000
0010
1000
0000
1000
0100
0000
0001
0000
0100
0000
,
1000
0000
0001
0100
1000
0000
0001
0010
0000
0010
0100
0000
0100
0001
0010
0100
,
0001
0000
0100
0000
1000
0000
1000
0010
0000
0010
0100
0000
1000
0000
0100
0000
,
0001
0000
1000
0100
0001
0000
1000
0010
0000
0010
0100
0000
1000
0000
0001
0000
,
1001
0000
1000
0010
0100
0000
0001
0010
0100
0000
0001
0100
1000
0010
0001
0000
,
0010
0000
1010
0000
0100
0001
0000
0001
1000
0000
0100
0010
0100
0000
0001
0100
,
1000
0000
0001
0100
1000
0000
0100
0001
0010
0000
0100
1000
0010
0000
0100
0010
,
0110
0000
0001
0000
1001
0000
1000
0000
1100
0000
0011
0000
0001
0100
1000
0200
,
0000
0000
0301
0010
0100
0000
0001
0000
0100
0000
1000
0010
0100
0000
1000
0000
,
0100
0000
0001
1000
0001
0000
0010
0000
0100
1000
0001
0010
0001
1000
0001
0010
,
1000
0000
0010
0001
0100
0000
0010
0000
1000
0000
0100
1000
0010
0000
0100
0000
,
0001
0000
1000
0100
0010
0000
0001
0000
0100
0001
1000
0010
1000
0001
1000
0010
,
0001
0000
0010
0000
1000
0000
0100
0000
0010
0100
1000
0010
0100
0000
1000
0000
,
0100
0000
0001
0010
0100
0000
0010
0000
1000
0010
0100
1000
0010
0100
1000
0100
,
0001
0000
1000
0100
1000
0000
0001
0000
0100
0001
0010
0100
0001
0000
0100
0000
,
1000
0000
0000
0010
0000
0000
0100
0000
0000
1000
0000
0000
0100
0000
0000
0000
0000
0000
0001
0000
0000
0000
0000
0000
1000
0000
0100
0000
1000
0000
0001
0000
0010
0000
0100
0000
1000
0000
0001
0000
0010
0000
0001
0000
1000
0000
0100
0000
,
0010
0001
0100
0010
0100
0001
1000
0000
0001
0100
0001
1000
0010
1000
0001
0010
,
0100
0000
0100
1000
0010
0000
0110
0000
0100
0001
0010
1000
0001
0100
0010
0100
,
1000
0001
0100
0010
1000
0010
0001
1000
0001
0010
0100
0001
1000
0001
0010
0100
,
1001
0000
0100
0000
0110
0010
0000
0010
1000
0100
0001
0100
1000
0001
0100
1000
,
0100
0000
0000
0001
0000
0000
1000
0000
0000
0001
0000
0010
0000
0000
0001
1000
0000
1000
0100
0000
0001
0100
0000
2000
,
0002
0000
3003
0000
;
