#TITLE:ゴールデンレイ;
#SUBTITLE:;
#ARTIST:三月のパンタシア;
#TITLETRANSLIT:Golden Ray;
#SUBTITLETRANSLIT:;
#ARTISTTRANSLIT:Sangatsu no Phantasia;
#GENRE:Anime;
#CREDIT:;
#MUSIC:Golden Ray.ogg;
#BANNER:Golden Ray.png;
#BACKGROUND:Golden Ray-bg.png;
#CDTITLE:;
#SAMPLESTART:56.744;
#SAMPLELENGTH:11.852;
#SELECTABLE:YES;
#OFFSET:1.528;
#BPMS:0.000=243.000;
#STOPS:;
#LASTBEATHINT:2.024968;
#BGCHANGES:6.000=Golden Ray.avi=1.000=0=0=0=StretchNoLoop====,
99999.000=-nosongbg-=1.000=0=0=0=StretchNoLoop====
;
#FGCHANGES:;

//--------------- dance-single - ----------------
#NOTES:
     dance-single:
     :
     Hard:
     12:
     0.600339,0.679585,0.242022,0.385034,0,382,360,22,35,0,0,0.600339,0.679585,0.242022,0.385034,0,382,360,22,35,0,0:
0000
0000
0000
0000
,
0000
0000
0000
0000
,
0000
0000
0000
0000
,
0000
0000
0000
0000
,
0000
0000
0000
0000
,
1001
0000
0001
0100
0000
0001
1000
0000
,
0010
0000
0100
0000
0110
0000
1000
0100
,
0000
1000
0001
0000
0010
0000
0100
0000
,
0110
0000
0010
0001
0000
0010
0100
0000
,
1000
0000
0001
0000
1000
0010
0100
0000
,
0001
0101
0000
0000
,
1100
0000
1000
0100
0000
1000
0010
0000
,
0100
0000
0010
0000
0100
0000
0001
0010
,
0000
0001
1000
0000
0100
0000
0001
0000
,
0100
0000
1000
0001
1000
0000
0010
0000
,
0100
0000
0010
0000
1000
0000
0001
1000
,
0001
0020
0100
0130
,
1000
0000
0001
0100
0001
0000
1000
0000
,
0010
0000
1000
0000
0001
0000
0010
0100
,
0010
0000
0100
0000
0010
0100
0010
0000
,
0001
0100
1000
0001
,
0010
0000
1000
0000
0100
0000
0000
0100
,
0000
0100
1000
0001
,
1000
0100
1000
0000
1000
0010
0100
0000
,
0001
0000
1000
0000
0001
0100
0001
0000
,
0001
0010
0100
0000
1000
0000
0010
0000
,
0100
1000
0100
0000
0100
0001
1000
0000
,
0001
0000
1000
0000
0100
0000
0010
0100
,
0000
0001
0100
0000
1000
0100
0000
1000
,
0001
0000
0100
0000
0010
1000
0001
0000
,
0001
0200
0000
0310
,
0100
0001
1000
0000
1000
0000
0200
0000
,
0000
0000
1300
0001
1000
0000
0010
0000
,
0100
0000
0001
0000
1000
0000
0000
0100
,
0000
0020
0001
0031
,
1000
0000
1000
0010
0000
0100
0001
0000
,
0010
0000
0100
0000
1000
0000
0001
0100
,
0000
0100
0010
0000
1000
0000
0001
0000
,
0020
0000
0130
2000
,
0000
3001
0100
0010
,
1000
0100
0010
0001
,
1000
0010
1000
0000
0001
0000
1000
0100
,
1000
0000
0001
0000
0100
0010
0100
0000
,
0001
0000
0010
0100
0010
0000
0001
0000
,
2000
3200
0320
0032
,
0203
0320
2030
3020
,
0230
0302
0023
0230
,
1300
0000
0001
0100
0000
0001
0010
0000
,
0100
1000
0002
0000
,
1003
0010
0200
0000
0000
0000
0302
0000
,
2003
3200
0320
0230
,
0000
0000
2300
0000
3002
0000
0000
0103
,
0010
0010
1000
0001
,
1000
0100
0010
0000
0100
1000
0010
0000
,
0100
0000
0101
0000
0001
0100
0010
0000
,
0100
0001
0010
0000
0100
0000
1100
0000
,
1000
0010
0100
0000
0010
1000
0100
0000
,
0001
0000
0100
0000
1000
0000
0001
0100
,
0000
0100
1000
0000
0001
0010
0100
0000
,
0001
0000
1000
0100
0000
0001
0100
0000
,
1000
0000
0001
0000
0100
0000
0001
0100
,
0000
1000
0100
0000
0001
0000
0010
0000
,
0100
1000
1100
0001
,
0100
0000
0101
0000
1000
0000
0001
0100
,
0000
0100
0010
0000
0000
0110
0000
0000
,
1001
0001
1000
1000
,
0100
0010
0002
0000
,
1003
0010
0100
0001
,
2000
0000
3001
0010
,
0100
1000
0020
0000
,
0130
0001
1000
0100
,
0001
0100
0010
0000
0001
0000
1000
0000
,
1100
0000
1001
0000
1000
0010
0100
0000
,
0001
0101
1001
0000
,
1000
0100
0011
0001
,
0100
0000
1010
0000
1000
0000
0001
0100
,
0000
0100
0010
0000
0000
1010
0000
0000
,
0101
0001
1000
0100
,
0010
0100
2000
0000
,
3001
0100
0010
0000
0100
0000
0001
0000
,
2000
0000
3001
0010
,
0100
0010
0002
0000
,
0103
0110
0000
0001
,
1001
0000
1000
0100
0000
2000
0001
0000
,
0100
0000
3001
0000
0100
0000
0001
0100
,
0000
0002
1000
0000
0100
0000
1003
0000
,
0001
0100
0100
1000
,
0100
0100
0001
0100
,
0010
0110
0000
0000
;

//--------------- dance-single - ----------------
#NOTES:
     dance-single:
     :
     Challenge:
     15:
     0.889508,0.873753,0.627056,0.374033,0.0055,566,509,57,34,0,0,0.889508,0.873753,0.627056,0.374033,0.0055,566,509,57,34,0,0:
0000
0000
0000
0000
,
0000
0000
0000
0000
,
0000
0000
0000
0000
,
0000
0000
0000
0000
,
0000
0000
0000
0110
,
1001
0000
0001
0100
0001
1000
0100
0000
,
0011
0000
1100
0000
1001
0000
1000
0100
,
1000
0001
0100
0000
1010
0000
0101
0000
,
1001
0000
0001
0100
0001
0010
0100
0000
,
1001
0000
0110
0000
1000
0100
0001
0100
,
1000
0010
0100
0001
0010
0100
1000
0010
,
0100
0000
0100
0001
1000
0200
0001
0000
,
1000
0000
0310
0000
1001
0000
1000
0001
,
0100
0010
1000
0000
0001
0010
0100
0000
,
1100
0000
1000
0001
1000
0020
0100
0000
,
1000
0000
0230
0000
0001
0000
0301
0010
,
0100
0000
0110
0000
0010
0001
0010
0001
,
1000
0000
0010
1000
0010
0100
0001
0000
,
1000
0100
0010
0000
0011
0000
0001
0100
,
0001
0010
0100
0000
1000
0001
0100
0000
,
1001
0000
0001
0100
1000
0200
0001
0000
,
0010
0000
1300
0000
0100
0000
0001
1000
,
0000
1000
0100
0010
0100
1000
0001
0100
,
0010
0100
1000
0100
0001
0100
0101
0000
,
1100
0000
1001
0000
1000
0100
0001
0100
,
1000
0100
1100
0000
0101
0000
1001
0000
,
0001
0010
0001
0100
0001
0010
0011
0000
,
0101
0000
1001
0000
1000
0010
1000
0100
,
1000
0010
0100
0001
0010
0001
1000
0010
,
0100
0000
0010
1000
0010
0100
0001
0000
,
0001
0010
0100
0000
1100
0000
1000
0010
,
0100
0001
1000
0000
1000
0010
0100
0000
,
0101
0000
0001
0100
0010
2000
0001
0000
,
0001
0000
0100
0000
3010
0000
0010
0100
,
0000
0100
0001
0000
0001
0010
0001
0010
,
0100
0000
1000
0001
0100
0002
1000
0000
,
1000
0000
1003
0010
0100
0000
0100
0001
,
0000
0001
1000
0000
0001
0010
2000
0000
,
0010
0000
3010
0001
0200
0000
1000
0000
,
1300
0100
0002
0000
1000
0000
1003
0100
,
0010
0001
0100
1000
0100
0001
1000
0100
,
0001
0100
1000
0010
0000
0010
0100
0001
,
0010
0100
1000
0100
1000
0000
0001
0100
,
0000
0001
1000
0010
0100
0010
1000
0001
,
0020
0230
2300
3002
,
2003
3000
2100
3000
0102
0003
0002
0000
,
0023
0000
0230
0000
2300
0001
3200
0000
,
0301
1000
0010
0100
0000
0010
1000
0000
,
0001
0010
0100
0000
1000
0001
0100
0001
,
0000
1000
0010
0000
0100
0000
0001
1000
,
1200
0000
1300
0001
0100
0000
0102
0000
,
1003
0001
0010
0000
0210
0000
1300
0001
,
0100
1000
0100
0001
1000
0100
0010
0001
,
1000
0010
0001
0010
1000
0001
0101
0000
,
1100
0000
1001
0000
0001
0010
1000
0010
,
0001
1000
1100
0000
0101
0000
1001
0000
,
0001
0100
0010
0100
0001
0010
1000
0001
,
0100
0010
0001
1000
0001
0100
1000
0001
,
0010
0000
0100
0000
0001
0000
0010
0100
0010
0000
0001
0000
1000
0000
0100
0000
,
0010
0001
0010
0001
1000
0020
0100
0000
,
1000
0000
0230
0000
0301
0010
0100
1000
,
0000
2000
0100
0000
0001
0000
3200
0000
,
0310
0001
0010
0100
1000
0100
0010
0001
,
0100
0000
0110
0000
0010
1000
0100
0001
,
0000
0001
0100
0000
0100
1000
0000
1000
,
0001
0000
0101
0000
1010
0000
0010
1000
,
0100
1000
0010
0200
0001
0000
1000
0000
,
0301
0020
1000
0000
0100
0000
0031
1000
,
0010
0000
0010
0100
0001
0010
0100
0000
,
0100
2000
0010
0000
0001
0000
3100
0010
,
0001
0200
1000
0000
0310
1000
0010
1000
,
0001
0010
0100
1000
0100
0010
0011
0000
,
1001
0000
1100
0000
1000
0010
0100
0001
,
0000
1000
1010
0000
1001
0000
0101
0000
,
0001
0010
0100
0000
1001
0000
1000
0010
,
0100
0000
1001
0000
1000
0001
0100
1000
,
0000
1000
0100
0000
0100
0001
0000
0001
,
1000
0000
1100
0000
0101
0000
0001
0010
,
0100
1000
0100
1000
0001
0000
0101
0000
,
0100
0010
1000
0000
1010
0000
0010
0100
,
0001
0000
0001
0010
0100
1000
0001
0000
,
1000
0010
0100
0001
0010
0000
1100
0000
,
0001
0100
0010
0000
1000
0100
0010
0000
,
0010
0100
1000
0100
0010
0200
1000
0000
,
1000
0000
1300
0000
0001
0100
0010
0100
,
0001
0200
0010
0000
0010
0000
0310
0000
,
1000
0100
0010
0100
1000
0001
0100
0010
,
0100
1000
0001
1000
0100
0001
0010
0100
,
1000
0001
1001
0000
0000
0000
0000
0000
;
