#TITLE:ごはんだヨッ!ダダダダン!!;
#SUBTITLE:;
#ARTIST:スラちゃんず△;
#TITLETRANSLIT:Gohan dayo! Dadadadan!!;
#SUBTITLETRANSLIT:;
#ARTISTTRANSLIT:Sura-chans;
#GENRE:Anime;
#CREDIT:;
#MUSIC:Gohan dayo! Dadadadan!!.ogg;
#BANNER:Gohan dayo! Dadadadan!!.png;
#BACKGROUND:Gohan dayo! Dadadadan!!-bg.png;
#CDTITLE:;
#SAMPLESTART:50.406;
#SAMPLELENGTH:10.667;
#SELECTABLE:YES;
#OFFSET:0.761;
#BPMS:0.000=180.000
,8.500=360.000
,10.000=90.000
,10.500=180.000
,47.000=45.000
,51.000=90.000
,59.000=180.000
,74.500=89.000
,80.500=180.000
,105.500=50.000
,105.750=61.000
,106.125=95.000
,106.625=118.000
,107.250=135.000
,109.500=180.000
,114.000=360.000
,115.500=90.000
,116.500=180.000
,204.250=150.000
,204.875=140.000
,205.500=120.000
,206.000=110.000
,206.375=100.000
,206.750=70.000
,207.000=45.000
,207.500=180.000
,230.000=360.000
,231.500=180.000
;
#STOPS:8.500=0.083
,9.000=0.083
,9.500=0.083
,10.500=0.167
,74.000=0.181
,105.000=0.530
,114.000=0.083
,114.500=0.083
,115.000=0.083
,230.000=0.083
,230.500=0.083
,231.000=0.083
;
#DISPLAYBPM:45.000:180.000;
#BGCHANGES:2.000=Gohan dayo! Dadadadan!!.avi=1.000=0=0=0=StretchNoLoop====,
99999.000=-nosongbg-=1.000=0=0=0=StretchNoLoop====
;
#FGCHANGES:;

//--------------- dance-single - ----------------
#NOTES:
     dance-single:
     :
     Medium:
     12:
     0,0,0,0,0:
0000
0000
0000
0000
,
0000
0000
0000
0000
,
0000
0000
0000
0000
0000
0000
0000
0000
0000
0000
0000
0000
0000
0000
0000
0000
0000
0000
0000
0000
0000
0000
0000
0000
0200
0300
0000
0000
0000
0000
0000
0000
0000
0000
0000
0000
0000
0000
0000
0000
0000
0000
0000
0000
0000
0000
0000
0000
0200
0300
0000
0000
0000
0000
0000
0000
0000
0000
0000
0000
0000
0000
0000
0000
0000
0000
0000
0000
0000
0000
0000
0000
0200
0300
0000
0000
0000
0000
0000
0000
0000
0000
0000
0000
0000
0000
0000
0000
0000
0000
0000
0000
0000
0000
0000
0000
0200
0300
0000
0000
0000
0000
0000
0000
0000
0000
0000
0000
0000
0000
0000
0000
0000
0000
0000
0000
0000
0000
0000
0000
0020
0000
0000
0000
0000
0000
0000
0000
0000
0000
0000
0000
0000
0000
0000
0000
0000
0000
0000
0000
0000
0000
0000
0000
0031
0000
0000
0000
0000
0000
0000
0000
0000
0000
0000
0000
0000
0000
0000
0000
0000
0000
0000
0000
0000
0000
0000
0000
0000
0000
0000
0000
0000
0000
0000
0000
0000
0000
0000
0000
0001
0000
0000
0000
0000
0000
0000
0000
0000
0000
0000
0000
,
0000
0000
0100
0000
0010
0000
0000
0010
0000
0000
1000
0000
0100
0000
0000
0100
,
0000
0010
0001
0000
1001
0000
1000
0001
,
0100
0010
0100
0010
1000
0000
1100
0000
,
0101
0000
0000
0000
1100
0000
0000
0000
0101
0000
0000
0000
0001
0000
0000
0010
,
0000
0000
0100
0000
0010
0000
0000
0001
0000
0000
1000
0000
0010
0000
0000
0100
,
0000
0001
1000
0000
1001
0000
0001
0100
,
0001
0000
1000
0100
1000
0000
0001
0100
,
0001
1000
0100
1000
0001
0000
0011
0000
,
1100
0000
0000
0000
0000
0000
0000
0000
0000
0000
0000
0000
0000
0000
0000
0000
0000
0000
0000
0000
0000
0000
0000
0000
0000
0000
0000
0000
0000
0000
0000
0000
0000
0000
0000
0000
0000
0000
0000
0000
0000
0000
0000
0000
0000
0000
0000
0000
0011
0000
0000
0000
0000
0000
0000
0000
0000
0000
0000
0000
0000
0000
0000
0000
0000
0000
0000
0000
0000
0000
0000
0000
0000
0000
0000
0000
0000
0000
0000
0000
0000
0000
0000
0000
0000
0000
0000
0000
0000
0000
0000
0000
0000
0000
0000
0000
1100
0000
0000
0000
0000
0000
0000
0000
0000
0000
0000
0000
0000
0000
0000
0000
0000
0000
0000
0000
0000
0000
0000
0000
0000
0000
0000
0000
0000
0000
0000
0000
0000
0000
0000
0000
0000
0000
0000
0000
0000
0000
0000
0000
0000
0000
0000
0000
0002
0003
0000
0000
0000
0000
0000
0000
0000
0000
0000
0000
0100
0000
0000
0000
0000
0000
0000
0000
0000
0000
0000
0000
0001
0000
0000
0000
0000
0000
0000
0000
0000
0000
0000
0000
0000
0000
0000
0000
0000
0000
0000
0000
0000
0000
0000
0000
,
1000
0100
1000
0000
0001
0100
0001
0100
1000
0100
0002
0000
0023
0000
0130
1000
,
0001
0000
0100
0010
0100
0000
0101
0000
1000
0000
1100
0000
0120
0000
0000
0100
,
0000
0130
0000
0000
0002
0000
0000
1000
0000
1003
0000
0000
0110
0000
0000
0000
,
1001
0000
0001
0010
0100
1000
1100
0000
,
0011
0000
0101
0000
1010
0000
0010
0100
,
0001
0000
1000
0100
0010
0000
0001
0010
,
0100
1000
0100
0010
0002
2003
0000
3020
,
0000
0230
0000
0302
0000
0023
0000
0230
,
0000
2300
0000
0000
0000
0000
0000
0000
,
0000
0000
0000
0000
,
0000
0000
3001
0100
0000
0010
1000
0001
,
0000
0010
0100
0010
0000
0100
1000
0001
,
0200
0320
0230
0320
1030
0001
1000
0001
,
0020
0230
0320
0230
1300
0001
1000
0001
,
0100
0010
2000
3002
0000
0000
0000
0000
,
0000
0000
0000
0013
0000
0010
0000
0001
,
1000
0000
0000
0000
0000
0000
0000
0000
0000
0000
0000
0000
0000
0000
0000
0000
0000
0000
0000
0000
0000
0000
0000
0000
0000
0000
0000
0000
0000
0000
0000
0000
0000
0000
0000
0000
0000
0000
0000
0000
0000
0000
0000
0000
0000
0000
0000
0000
0010
0000
0000
0000
0000
0000
0000
0000
0000
0000
0000
0000
0000
0000
0000
0000
0000
0000
0000
0000
0000
0000
0000
0000
0000
0000
0000
0000
0000
0000
0000
0000
0000
0000
0000
0000
0000
0000
0000
0000
0000
0000
0000
0000
0000
0000
0000
0000
0200
0300
0000
0000
0000
0000
0000
0000
0000
0000
0000
0000
0000
0000
0000
0000
0000
0000
0000
0000
0000
0000
0000
0000
0200
0300
0000
0000
0000
0000
0000
0000
0000
0000
0000
0000
0000
0000
0000
0000
0000
0000
0000
0000
0000
0000
0000
0000
0200
0300
0000
0000
0000
0000
0000
0000
0000
0000
0000
0000
0000
0000
0000
0000
0000
0000
0000
0000
0000
0000
0000
0000
0200
0300
0000
0000
0000
0000
0000
0000
0000
0000
0000
0000
0000
0000
0000
0000
0000
0000
0000
0000
0000
0000
0000
0000
,
0010
2000
0000
3200
0000
0320
0000
0032
,
0003
0011
0000
1100
0000
0001
0010
0100
,
1000
0001
0000
0101
0000
0110
0000
1001
,
0000
1000
0001
1000
0010
0001
1000
0100
,
0001
1000
1100
0000
1001
0000
0101
0020
,
0000
0000
0000
0130
0000
0000
0000
0001
0000
0010
0000
0000
0000
0100
0000
1000
0000
0000
0000
0000
0000
0110
0000
0000
,
0000
0000
0000
1001
0000
0000
0000
1000
0000
0010
0000
0000
0000
0100
0000
0001
0000
0000
0000
0000
0000
0101
0000
0000
,
0000
0011
0000
1100
0000
0001
1000
0100
,
0010
0110
0000
1001
0000
0110
0000
1001
,
0000
1000
0010
0100
0000
0001
0010
0100
,
0000
1000
0010
0001
1000
0100
0001
1000
,
0000
0001
0010
0100
0000
1000
0010
0100
,
0000
0001
0010
1000
0001
0100
1000
0001
,
0000
0000
0000
1000
0000
0000
0000
0010
0000
0000
0000
0100
0000
0000
0000
0001
0000
0000
0000
0010
0000
0000
0000
0100
,
0000
0000
0000
1000
0000
0000
0000
0001
0000
0000
0000
1000
0000
0000
0000
0020
0000
0000
0000
0000
0000
0130
0000
0000
,
0000
0100
0001
0100
0001
1000
0100
1000
,
0100
0010
0110
0000
0110
0000
1001
1001
,
0000
0011
0000
1000
0000
1100
0000
0001
,
0000
0101
0000
1010
0000
1001
0000
1001
,
0000
0001
0010
0001
0100
0001
1000
0010
,
0000
0100
0010
1000
0100
0010
0001
1000
,
0000
0010
0100
1000
0100
0001
0010
1000
,
0020
0000
0000
0000
0000
0000
0032
2003
,
0000
0000
0000
3001
0100
0101
0000
1000
,
0100
1100
0000
0001
0010
0011
0000
1000
,
0010
1010
0000
1000
0100
0001
0100
0010
,
0001
0100
1000
0100
0010
0100
0010
1000
,
0001
1000
0001
0010
0000
0010
0000
0001
,
1000
0000
0000
0000
0000
0000
0000
0000
0000
0000
0000
0000
0000
0000
0000
0000
0000
0000
0000
0000
0000
0000
0000
0000
0000
0000
0000
0000
0000
0000
0000
0000
0000
0000
0000
0000
0000
0000
0000
0000
0000
0000
0000
0000
0000
0000
0000
0000
0010
0000
0000
0000
0000
0000
0000
0000
0000
0000
0000
0000
0000
0000
0000
0000
0000
0000
0000
0000
0000
0000
0000
0000
0000
0000
0000
0000
0000
0000
0000
0000
0000
0000
0000
0000
0000
0000
0000
0000
0000
0000
0000
0000
0000
0000
0000
0000
0200
0300
0000
0000
0000
0000
0000
0000
0000
0000
0000
0000
0000
0000
0000
0000
0000
0000
0000
0000
0000
0000
0000
0000
0200
0300
0000
0000
0000
0000
0000
0000
0000
0000
0000
0000
0000
0000
0000
0000
0000
0000
0000
0000
0000
0000
0000
0000
0200
0300
0000
0000
0000
0000
0000
0000
0000
0000
0000
0000
0000
0000
0000
0000
0000
0000
0000
0000
0000
0000
0000
0000
0200
0300
0000
0000
0000
0000
0000
0000
0000
0000
0000
0000
0000
0000
0000
0000
0000
0000
0000
0000
0000
0000
0000
0000
,
0001
1000
0000
0000
0000
0000
0000
0000
;

//--------------- dance-single - ----------------
#NOTES:
     dance-single:
     :
     Hard:
     15:
     0,0,0,0,0:
0000
0000
0000
0000
,
0000
0000
0000
0000
,
0000
0000
0000
0000
0000
0000
0000
0000
0000
0000
0000
0000
0000
0000
0000
0000
0000
0000
0000
0000
0000
0000
0000
0000
0002
0003
0000
0000
0000
0000
0000
0000
0000
0000
0000
0000
0000
0000
0000
0000
0000
0000
0000
0000
0000
0000
0000
0000
2000
3000
0000
0000
0000
0000
0000
0000
0000
0000
0000
0000
0000
0000
0000
0000
0000
0000
0000
0000
0000
0000
0000
0000
0002
0003
0000
0000
0000
0000
0000
0000
0000
0000
0000
0000
0000
0000
0000
0000
0000
0000
0000
0000
0000
0000
0000
0000
2000
0000
0000
0000
0000
0000
0000
0000
0000
0000
0000
0000
0000
0000
0000
0000
0000
0000
0000
0000
0000
0000
0000
0000
3100
0000
0000
0000
0000
0000
0000
0000
0000
0000
0000
0000
0000
0000
0000
0000
0000
0000
0000
0000
0000
0000
0000
0000
0010
0000
0000
0000
0000
0000
0000
0000
0000
0000
0000
0000
0000
0000
0000
0000
0000
0000
0000
0000
0000
0000
0000
0000
0000
0000
0000
0000
0000
0000
0000
0000
0000
0000
0000
0000
0010
0000
0000
0000
0000
0000
0000
0000
0000
0000
0000
0000
,
0000
0000
0001
0000
0100
0000
0000
0100
0000
0000
0010
0000
1000
0000
0000
1000
,
0000
0000
0001
0000
0011
0000
0000
0000
1100
0000
0000
0000
1000
0000
0001
0100
,
0001
0000
0010
0000
0100
0000
0010
0001
1000
0000
0000
0000
0001
0000
0100
0000
,
1000
0000
0100
0000
0001
0000
0100
0000
0010
0000
0000
0000
1010
0000
0000
1000
,
0000
0000
0001
0000
0011
0000
0000
0010
0000
0000
0100
0000
1100
0000
0000
1000
,
0000
0000
0010
0000
0110
0000
0000
0000
1001
0000
0000
0000
0001
0000
1000
0100
,
0010
0000
0000
0000
0100
0000
1000
0010
0100
0000
0000
0000
0001
0100
0001
0000
,
1000
0100
1000
0000
0010
0000
0100
0001
1000
0000
0000
0000
0001
0000
1000
0100
,
1000
0000
0000
0000
0000
0000
0000
0000
0000
0000
0000
0000
0000
0000
0000
0000
0000
0000
0000
0000
0000
0000
0000
0000
0001
0000
0000
0000
0000
0000
0000
0000
0000
0000
0000
0000
0100
0000
0000
0000
0000
0000
0000
0000
0000
0000
0000
0000
0001
0000
0000
0000
0000
0000
0000
0000
0000
0000
0000
0000
0000
0000
0000
0000
0000
0000
0000
0000
0000
0000
0000
0000
1000
0000
0000
0000
0000
0000
0000
0000
0000
0000
0000
0000
0100
0000
0000
0000
0000
0000
0000
0000
0000
0000
0000
0000
1000
0000
0000
0000
0000
0000
0000
0000
0000
0000
0000
0000
0000
0000
0000
0000
0000
0000
0000
0000
0000
0000
0000
0000
0001
0000
0000
0000
0000
0000
0000
0000
0000
0000
0000
0000
0100
0000
0000
0000
0000
0000
0000
0000
0000
0000
0000
0000
0002
0003
0000
0000
0000
0000
0000
0000
0000
0000
0000
0000
0010
0000
0000
0000
0000
0000
0000
0000
0000
0000
0000
0000
0001
0000
0000
0000
0000
0000
0000
0000
0000
0000
0000
0000
0010
0000
0000
0000
0000
0000
0000
0000
0000
0000
0000
0000
,
0100
1000
0100
1000
0001
0100
0001
0100
0010
1000
0002
0000
0023
0130
1000
0010
,
0100
0001
0010
0100
1000
0000
1010
0000
0001
0000
0101
0000
0120
0000
0000
1000
,
0000
1030
0001
0000
0020
0000
0000
0001
0000
0031
1000
0000
0001
0000
0100
0000
,
1000
0100
0001
0001
1000
1000
0001
0010
,
1000
0000
0010
0000
0001
0000
0001
0000
1000
0000
1000
0000
0010
0000
0100
0001
,
0100
0000
0001
1000
0001
0000
1000
0100
1000
0000
0010
0000
0100
0001
0100
0000
,
0001
0000
0000
0100
0000
0000
0001
0000
0000
0000
0000
0000
1000
0000
0000
0001
0000
0000
1000
0000
0000
0001
0000
0000
0020
0000
0000
0000
0000
0000
0230
0000
0000
0000
0000
0000
0000
0000
0000
0000
0000
0000
0320
0000
0000
0000
0032
0000
,
0000
0203
0000
0320
0000
0000
2030
0000
0000
3002
0000
0000
0023
0000
0000
0230
0000
0000
2300
0000
0000
3002
0000
0000
,
0000
0023
0000
0000
0000
0000
0000
0000
,
0000
0000
0000
0000
,
0000
0000
0130
1000
0000
1000
0010
0100
,
0000
0100
0001
1000
0000
1000
0010
0100
,
0002
0023
0230
2300
3001
0010
0100
1000
,
0002
0203
0320
2030
3001
0100
0010
1000
,
0001
0000
0000
0000
0010
0000
0000
0000
0200
0000
0000
0000
0320
0000
0032
0000
0000
2003
0000
0000
0000
3020
0000
0000
0000
0000
0230
0000
0000
0000
0000
0000
,
0302
0000
0000
2003
0000
0000
3100
0000
0000
0000
0100
0000
0000
0000
1000
0000
,
0001
0000
0000
0000
0000
0000
0000
0000
0000
0000
0000
0000
0000
0000
0000
0000
0000
0000
0000
0000
0000
0000
0000
0000
0000
0000
0000
0000
0000
0000
0000
0000
0000
0000
0000
0000
0000
0000
0000
0000
0000
0000
0000
0000
0000
0000
0000
0000
0100
0000
0000
0000
0000
0000
0000
0000
0000
0000
0000
0000
0000
0000
0000
0000
0000
0000
0000
0000
0000
0000
0000
0000
0000
0000
0000
0000
0000
0000
0000
0000
0000
0000
0000
0000
0000
0000
0000
0000
0000
0000
0000
0000
0000
0000
0000
0000
0002
0003
0000
0000
0000
0000
0000
0000
0000
0000
0000
0000
0000
0000
0000
0000
0000
0000
0000
0000
0000
0000
0000
0000
2000
3000
0000
0000
0000
0000
0000
0000
0000
0000
0000
0000
0000
0000
0000
0000
0000
0000
0000
0000
0000
0000
0000
0000
0002
0003
0000
0000
0000
0000
0000
0000
0000
0000
0000
0000
0000
0000
0000
0000
0000
0000
0000
0000
0000
0000
0000
0000
2000
0000
0000
0000
0000
0000
0000
0000
0000
0000
0000
0000
0000
0000
0000
0000
0000
0000
0000
0000
0000
0000
0000
0000
,
3020
0230
0000
0302
0000
2003
0000
3200
,
0000
0310
0001
0100
1000
0100
0001
1000
,
0100
0000
0001
0000
0100
1000
0002
0000
0103
0010
0200
0000
0310
1000
0002
0000
,
0013
0100
0020
0000
0031
0000
1000
0000
0010
0000
0001
0000
1000
0000
0100
0000
,
0001
0000
1000
0000
0001
0010
0200
0000
1300
0001
2000
0000
3010
0100
0002
0000
,
0013
0000
0000
0100
0000
0000
0010
0000
0000
0000
0100
0000
0000
0000
1000
0000
0000
0000
0001
0000
0000
0000
0100
0000
0000
0000
0001
0000
0000
0000
1000
0000
0000
0000
0000
0000
0000
0000
0000
0000
0000
0000
1001
0000
0000
0000
0000
0000
,
0000
0000
0000
0001
0000
0100
0000
0001
0000
1000
0000
0100
0000
1000
0000
0001
0000
0000
0000
0000
0000
0110
0000
0000
,
0000
0000
1001
0000
1000
0010
1000
0000
0001
0100
0001
0000
1000
0001
1000
0000
,
0100
0110
0000
1001
0000
0110
1000
0001
,
1000
0000
0001
0000
0100
0010
0100
0000
0010
1000
0010
0000
1000
0001
1000
0000
,
0001
0010
0100
0000
0010
0000
0001
0000
1000
0000
0010
0000
0100
0000
0001
0000
,
1000
0000
0001
0000
0010
0100
0010
0000
0100
1000
0100
0000
1000
0001
1000
0000
,
0010
0100
0001
0000
0010
0000
0100
0000
1000
0000
0001
0000
0100
0000
0010
0000
,
1000
0000
0000
1010
0000
0000
0000
1010
0000
0000
0000
0110
0000
0000
0000
0101
0000
0000
0000
0101
0000
0000
0000
0011
,
0000
0000
0000
0110
0000
0000
0000
1100
0000
0000
0000
1001
0000
0000
0000
0201
0000
0000
0000
0000
0000
0310
0000
0000
,
0000
0000
0100
0001
0100
0001
1000
0100
1000
0100
0010
0000
0100
0000
1000
0000
,
0001
0100
0101
0000
1100
0000
1001
1001
,
0010
1100
0000
0001
0000
0101
0000
0010
,
0000
1001
0000
0110
0000
1001
0000
1001
,
0001
0100
0010
0000
0100
0001
1000
0000
1000
0000
0001
0000
0010
0000
0100
0000
,
1000
0100
0010
0000
0100
1000
0001
0000
0100
0000
1000
0000
0100
0001
1000
0000
,
0100
0000
0010
0100
0010
0000
0100
0010
0100
0000
1000
0001
1000
0001
1000
0100
,
0010
0000
0002
0000
0000
0000
0000
2003
0000
0000
0000
0000
3020
0000
0000
0000
0230
0000
0000
0302
0000
0000
2003
0000
3020
0000
0000
0000
1030
0000
0001
0000
,
1000
0001
1000
0001
1000
0001
1000
0000
0010
0000
0101
0000
1000
0000
0100
0000
,
1000
0011
0100
0001
0100
1010
0001
0010
,
0001
0000
1100
0000
0010
0000
1000
0001
1000
0001
1000
0000
0001
0000
0100
0010
,
0100
0010
0100
0000
0001
0000
1000
0000
0100
0000
0010
0000
0001
0000
1000
0100
,
0010
0001
1000
0100
0010
0001
1000
0000
0000
0000
1000
0000
0000
0000
0010
0000
,
0100
0000
0000
0000
0000
0000
0000
0000
0000
0000
0000
0000
0000
0000
0000
0000
0000
0000
0000
0000
0000
0000
0000
0000
0000
0000
0000
0000
0000
0000
0000
0000
0000
0000
0000
0000
0000
0000
0000
0000
0000
0000
0000
0000
0000
0000
0000
0000
0001
0000
0000
0000
0000
0000
0000
0000
0000
0000
0000
0000
0000
0000
0000
0000
0000
0000
0000
0000
0000
0000
0000
0000
0000
0000
0000
0000
0000
0000
0000
0000
0000
0000
0000
0000
0000
0000
0000
0000
0000
0000
0000
0000
0000
0000
0000
0000
2002
3003
0000
0000
0000
0000
0000
0000
0000
0000
0000
0000
0000
0000
0000
0000
0000
0000
0000
0000
0000
0000
0000
0000
2002
3003
0000
0000
0000
0000
0000
0000
0000
0000
0000
0000
0000
0000
0000
0000
0000
0000
0000
0000
0000
0000
0000
0000
2002
3003
0000
0000
0000
0000
0000
0000
0000
0000
0000
0000
0000
0000
0000
0000
0000
0000
0000
0000
0000
0000
0000
0000
2002
3003
0000
0000
0000
0000
0000
0000
0000
0000
0000
0000
0000
0000
0000
0000
0000
0000
0000
0000
0000
0000
0000
0000
,
0100
0010
0000
0000
0000
0000
0000
0000
;

//--------------- dance-single - ----------------
#NOTES:
     dance-single:
     :
     Challenge:
     17:
     1.012842,1.594104,0.3702,0.067309,1.256436,632,599,33,6,0,0,1.012842,1.594104,0.3702,0.067309,1.256436,632,599,33,6,0,0:
0000
0000
0000
0000
,
1000
0000
1000
0000
0001
0100
0000
0110
,
0000
0000
1001
0000
1001
0000
1001
0000
1002
0000
0103
0000
0010
0000
0000
0100
,
0001
0000
0100
0001
1000
0000
0000
0100
1000
0000
0100
1000
0001
0000
0000
0100
,
0010
0000
0100
0001
0010
0000
0000
0000
0110
0000
0000
0000
0100
1000
0001
1000
,
0001
0100
0010
0000
0100
0001
1000
0100
0010
0001
0000
0000
2100
0000
3010
0000
,
0102
0000
0013
0000
2100
0000
3010
0000
0100
0001
0100
0001
1000
0000
0000
0010
,
0100
0000
0010
1000
0001
0000
0000
1001
0000
0000
1000
0000
0010
0000
0100
0001
,
1000
0000
0100
0000
0110
0000
0000
0000
1001
0000
0000
0000
1001
0000
1000
0010
,
0100
0000
0000
0000
0100
0001
1000
0001
1000
0000
0000
0000
0001
0010
0001
0010
,
0100
1000
0100
1000
0010
0000
0100
0001
0010
0000
0000
0000
0001
0010
0100
1000
,
0001
0000
0000
0000
0000
0000
0000
0000
0000
0000
0000
0000
0010
0000
0000
0000
0000
0000
0000
0000
0000
0000
0000
0000
0100
0000
0000
0000
0000
0000
0000
0000
0000
0000
0000
0000
1000
0000
0000
0000
0000
0000
0000
0000
0000
0000
0000
0000
0001
0000
0000
0000
0000
0000
0000
0000
0000
0000
0000
0000
0010
0000
0000
0000
0000
0000
0000
0000
0000
0000
0000
0000
0100
0000
0000
0000
0000
0000
0000
0000
0000
0000
0000
0000
1000
0000
0000
0000
0000
0000
0000
0000
0000
0000
0000
0000
0001
0000
0000
0000
0000
0000
0000
0000
0000
0000
0000
0000
0010
0000
0000
0000
0000
0000
0000
0000
0000
0000
0000
0000
0100
0000
0000
0000
0000
0000
0000
0000
0000
0000
0000
0000
1000
0000
0000
0000
0000
0000
0000
0000
0000
0000
0000
0000
0002
0003
0000
0000
0000
0000
0100
0000
0000
0000
0000
0000
0001
0000
0000
0000
0000
0000
0100
0000
0000
0000
0000
0000
0010
0000
0000
0000
0000
0000
1000
0000
0000
0000
0000
0000
0010
0000
0000
0000
0000
0000
1000
0000
0000
0000
0000
0000
,
0100
0000
0010
0000
0100
0000
0010
0000
0001
0000
1000
0000
0001
0000
1000
0000
0010
0000
0100
0000
0010
0000
0100
0000
0001
0000
0010
0000
0001
0000
0010
0000
0100
0000
1000
0000
0100
0000
1000
0000
0001
1000
0001
1000
0001
1000
0001
1000
0200
0000
0000
0000
0310
0000
0000
0000
0001
0000
0000
0000
0100
0000
0000
0000
,
0010
0100
0001
0010
0100
1000
0010
0100
0010
0001
0010
1000
0200
0010
0000
1000
,
0000
0000
1300
0000
0001
0000
0100
0000
0020
0000
0100
0000
0000
0000
1030
0000
0001
0010
0001
0010
0100
1000
0100
1000
0002
0000
0000
0000
1003
0000
0100
0000
,
1000
0000
0001
0100
0001
0000
1000
0100
1000
0000
0001
1000
0001
0000
1000
0010
,
1000
0000
0001
0010
0001
0000
1000
0010
1000
0000
0001
0000
1000
0010
0100
0000
,
0001
0010
0100
0000
1000
0010
0100
0000
0001
0010
0100
0000
1000
0010
1000
0010
,
0100
0000
0000
0001
0000
0000
0100
0000
0000
0001
0000
0000
1000
0000
0000
0100
0000
0000
0010
0000
0000
0001
0000
0000
2000
0000
0000
0000
0000
0000
3020
0000
0000
0000
0000
0000
0000
0000
0000
0000
0000
0000
0230
0000
0000
0000
0302
0000
,
0000
0023
0000
0230
0000
0000
2300
0000
0000
3002
0000
0000
0203
0000
0000
0320
0000
0000
2030
0000
0000
3002
0000
0000
,
0000
0023
0000
0000
0000
0000
0000
0000
,
0000
0000
0000
0000
,
0000
0000
0130
1100
0000
1000
0010
0110
,
0000
0100
0001
1001
0000
1000
0100
0110
,
0020
0032
2003
3020
0130
0001
1000
0100
,
0020
0000
0032
0000
2003
0000
3020
0000
0130
0000
0001
0000
1000
0100
0010
0001
,
1000
0000
0100
0000
0010
0000
0001
0000
2000
0000
0000
0000
3020
0000
0230
0000
0000
0302
0000
0000
0000
0023
0000
0000
0000
0000
0230
0000
0000
0000
0000
0000
,
2300
0000
0000
3002
0000
0000
0103
0000
0000
0000
1001
0000
0000
0000
1000
0000
,
0001
0000
0110
0000
1001
1001
1001
1002
,
0203
0000
0310
0000
0100
0001
0010
0000
0100
1000
0010
0000
0100
0001
0010
0100
,
1000
0010
0100
0000
0001
0000
0100
0000
1000
0000
0100
0000
0001
0000
0010
0000
,
0100
0000
1000
0001
0100
0001
1000
0100
0010
0100
1000
0001
0100
0001
1000
0100
,
0010
0100
1000
0000
1000
0000
0010
0000
0001
0000
0010
0000
1000
0000
0100
0000
,
0010
0000
0001
1000
0100
1000
0001
0100
0010
0100
0001
1000
0100
1000
0001
0100
,
0010
0000
0000
0100
0000
0000
0001
0000
0000
0000
0010
0000
0000
0000
1000
0000
0000
0000
0001
0000
0000
0000
0100
0000
0000
0000
1000
0000
0000
0000
0010
0000
0000
0000
0000
0000
0000
0000
0000
0000
0000
0000
1001
0000
0000
0000
0000
0000
,
0000
0000
0000
1000
0000
0010
0000
0001
0000
1000
0000
0100
0000
0001
0000
0010
0000
0000
0000
0000
0000
0110
0000
0000
,
0000
0000
1001
0000
0001
0010
0100
0000
1000
0010
0100
0000
0001
0010
0100
0000
,
1000
0000
0010
0100
0010
0000
0100
0010
0100
0000
0110
0000
1010
0000
0101
0000
,
1001
0000
0001
0010
0100
1000
0010
0100
0010
1000
0100
0010
0001
0100
0010
0100
,
0001
0010
0100
0000
0100
1000
0010
0000
0010
0100
0010
0000
0010
1000
0001
0000
,
1000
0010
0100
0001
0010
0100
0010
0001
0100
0010
1000
0100
0010
0100
1000
0010
,
0100
0001
1000
0000
1000
0100
0010
0000
0010
0100
0010
0000
0010
0001
0100
0010
,
1000
0000
0000
0101
0000
0000
0000
1010
0000
0000
0000
0110
0000
0000
0000
1100
0000
0000
0000
0011
0000
0000
0000
1001
,
0000
0000
0000
0000
0000
0000
0011
0000
0000
0000
0000
0000
0000
0000
1010
0000
0000
0000
0000
0000
0000
0000
1100
0000
0000
0000
0000
0000
0000
0000
0101
0000
0000
0000
0000
0000
0001
0000
0000
1000
0000
0000
0100
0000
0000
1000
0000
0000
,
0100
1000
0001
0100
1000
0100
0001
0010
1000
0010
0001
0000
0011
0000
0110
0000
,
1100
0000
1001
0000
0001
0010
0100
0000
1000
0010
0100
0000
1001
0000
1001
0000
,
0010
0110
0000
1000
0000
0011
0000
0100
,
0000
0000
1001
0000
0000
0000
0110
0000
0000
0000
1001
0000
0000
0000
0001
0010
,
0100
1000
0001
0000
0100
0010
0100
0000
1000
0000
0100
0000
0001
0010
0100
0010
,
1000
0000
0001
0100
0010
0100
1000
0000
0010
0000
0100
0000
1000
0100
0010
1000
,
0100
0010
0001
1000
0001
1000
0100
0010
0100
0010
0001
0100
1000
0001
0010
1000
,
0100
0000
0020
0000
0000
0000
0000
0032
0000
0000
0000
0000
0203
0000
0000
0000
0320
0000
0000
2030
0000
0000
3002
0000
0023
0000
0000
0000
0031
0000
0010
0000
,
0100
1000
0001
0010
0100
1000
0001
0000
1000
0000
0100
0010
0100
0000
1000
0000
,
0001
0000
0100
0010
0100
0000
0001
0000
1000
0000
0001
0010
0100
0000
1000
0000
,
0001
0000
1000
0010
0100
0000
0001
0100
0010
1000
0001
0100
0010
1000
0001
0000
,
1000
0100
0010
0001
1000
0100
0010
0000
0100
0000
0010
0001
1000
0000
0001
0100
,
1000
0100
0001
0100
1000
0100
0010
0000
0000
0000
1000
0000
0000
0000
0001
0000
,
1000
0000
0000
0000
0000
0000
0000
0000
0000
0000
0000
0000
0000
0000
0000
0000
0000
0000
0000
0000
0000
0000
0000
0000
0000
0000
0000
0000
0000
0000
0000
0000
0000
0000
0000
0000
0000
0000
0000
0000
0000
0000
0000
0000
0000
0000
0000
0000
0110
0000
0000
0000
0000
0000
0000
0000
0000
0000
0000
0000
0000
0000
0000
0000
0000
0000
0000
0000
0000
0000
0000
0000
0000
0000
0000
0000
0000
0000
0000
0000
0000
0000
0000
0000
0000
0000
0000
0000
0000
0000
0000
0000
0000
0000
0000
0000
2002
3003
0000
0000
0000
0000
0000
0000
0000
0000
0000
0000
0000
0000
0000
0000
0000
0000
0000
0000
0000
0000
0000
0000
2002
3003
0000
0000
0000
0000
0000
0000
0000
0000
0000
0000
0000
0000
0000
0000
0000
0000
0000
0000
0000
0000
0000
0000
2002
3003
0000
0000
0000
0000
0000
0000
0000
0000
0000
0000
0000
0000
0000
0000
0000
0000
0000
0000
0000
0000
0000
0000
2002
3003
0000
0000
0000
0000
0000
0000
0000
0000
0000
0000
0000
0000
0000
0000
0000
0000
0000
0000
0000
0000
0000
0000
,
0100
0010
0000
0000
0000
0000
0000
0000
;
