#TITLE:Gimme吟味virtuaる最高star!!!!;
#SUBTITLE:feat. さくらみこ・白上フブキ・夏色まつり・宝鐘マリン;
#ARTIST:sasakure.UK;
#TITLETRANSLIT:Gimme gimmi virtual saiko star!!!!;
#SUBTITLETRANSLIT:;
#ARTISTTRANSLIT:sasakure.UK;
#GENRE:POP;
#CREDIT:;
#MUSIC:Gimme gimmi virtual saiko star!!!!.ogg;
#BANNER:Gimme gimmi virtual saiko star!!!!.png;
#BACKGROUND:Gimme gimmi virtual saiko star!!!!-bg.png;
#CDTITLE:;
#SAMPLESTART:59.839;
#SAMPLELENGTH:12.000;
#SELECTABLE:YES;
#OFFSET:-0.023;
#BPMS:0.000=160.000;
#STOPS:;
#BGCHANGES:2.000=Gimme gimmi virtual saiko star!!!!.avi=1.000=0=0=0=StretchNoLoop====,
99999.000=-nosongbg-=1.000=0=0=0=StretchNoLoop====
;
#FGCHANGES:;

//--------------- dance-single - ----------------
#NOTES:
     dance-single:
     :
     Hard:
     15:
     0,0,0,0,0:
0000
0000
0000
0000
,
1001
0000
0000
0000
1000
0000
0001
0100
0001
0000
1000
0100
1000
0000
0220
0000
,
0000
0000
0330
2002
0000
0000
0000
3003
,
2200
0000
3300
0202
0000
0303
1000
0100
,
0010
0000
0001
0000
1000
0000
0100
0000
0010
0000
0001
0000
1000
0100
0010
0000
,
0100
0010
0001
0000
1000
0100
0010
0001
1000
0000
0010
0000
0110
0000
1001
0000
,
0001
0100
0000
1100
0000
0000
1000
0010
0000
0011
0000
0001
1000
0000
0110
0000
,
1000
0000
0001
0100
0001
0000
1000
0000
1010
0000
0000
0110
0000
0000
1001
0000
,
1000
0100
0000
0101
0000
0000
0001
0010
0000
1010
0000
1000
0001
0000
0110
0000
,
0001
0000
1000
0000
1001
0000
0001
0000
0011
0000
0000
0110
0000
0000
1001
0000
,
0001
0010
0000
1010
0000
0000
1000
0100
0000
0101
0000
0001
1000
0000
0110
0000
,
1000
0000
0001
0010
0001
0000
1000
0000
1100
0000
0000
0110
0000
0000
1001
0000
,
1000
0010
0000
0011
0000
0000
0001
0100
0000
1100
0000
1000
0001
0000
0110
0000
,
0001
1000
1001
0001
0100
2002
0000
3003
,
1100
0000
0000
0000
0010
0000
0011
0000
0000
0000
0001
0100
0001
0000
1000
0000
,
1010
0000
0000
0000
0001
0000
1001
0000
0110
0000
0001
1000
0000
0000
0010
0000
,
1010
0000
0000
0000
0100
0000
0101
0000
0000
0000
1000
0100
1000
0000
0100
0000
,
0110
0000
0010
0000
0001
0000
0001
0000
1001
0000
0010
0100
0000
0000
0000
0000
,
1000
0000
0001
0000
1000
0000
1100
0000
0000
1001
0000
0000
0101
0000
0000
0000
,
0001
0000
1000
0000
0001
0000
0011
0000
0000
1001
0000
0000
1010
0000
0000
0000
,
0010
0000
0100
0000
0010
0000
0110
0000
0000
1001
0000
0000
0110
0000
0000
0000
,
1001
0000
0010
0000
0100
0000
1001
0000
0000
0110
0000
0000
1001
0000
0000
0000
,
2002
0000
3003
1000
0100
0010
0100
1000
,
0001
0000
0100
0000
1000
0000
0100
0000
0001
0000
0010
0100
0000
0010
0001
0000
,
2002
3003
1001
0001
0100
0010
0100
0001
,
1000
0000
0100
0000
0001
0000
0100
0000
1100
0000
0022
0000
0000
0033
0000
0000
,
1001
0000
0001
0000
1000
0000
1010
0000
0000
0101
0000
0000
1010
0000
0000
0000
,
1000
0000
0001
0000
0010
0000
0110
0000
0000
1001
0000
0000
1001
0000
0000
0000
,
0220
0330
1000
0100
1000
0100
0010
0001
,
0101
0000
0100
0000
0101
0000
0010
0000
1000
0000
0100
0010
0100
0000
0002
0000
,
0000
0000
0103
0000
0100
0000
1000
0000
0010
0000
0000
0010
0000
0000
0102
0000
,
0000
0000
1003
0000
0001
0000
0100
0000
0010
0000
0000
0010
0000
0000
2100
0000
,
0000
0000
3100
0000
0010
0000
0001
0000
1000
0000
0000
1000
0000
0000
0110
0000
,
0000
0000
0010
0100
0010
0000
1000
0000
0001
0000
0000
1001
0000
0000
0000
0000
,
1000
0100
0010
0001
1001
0000
0000
0001
,
0100
0010
0110
0000
0001
0100
0001
1000
,
0100
0010
0100
1000
0001
0100
0010
0100
,
0001
1000
0010
1000
0001
0010
0100
0010
,
0100
1000
0100
1000
0001
0100
0001
0100
0010
1000
0010
1000
0001
0010
0001
0010
,
0000
0000
0100
0010
0001
1000
0000
0001
,
0100
1000
0010
0001
0100
1000
0010
0001
,
0100
0000
0010
0000
1000
0000
0010
0000
1000
0000
0000
0011
0000
0000
1000
0000
,
0100
0001
0010
1000
0100
0001
0010
1000
,
0100
0000
0010
0000
0001
0000
1000
0000
0100
0000
0000
1001
0000
0000
0000
0000
,
1100
0100
1000
0100
1100
0100
0010
0100
,
0110
0100
1000
0001
1001
0000
1000
0001
,
0000
0000
0001
0000
1000
0000
0000
0000
1000
0100
1000
0000
0001
0000
1010
0000
,
0000
0101
0001
0010
0001
1000
0001
1000
,
0100
0001
0010
1000
0100
0001
0010
1000
,
0100
0000
0010
0000
0001
0000
0010
0000
0001
0000
0000
1010
0000
0000
0001
0000
,
0100
1000
0010
0001
0100
1000
0010
0001
,
0100
0000
0010
0000
1000
0000
0001
0000
0100
0000
0000
1001
0000
0000
0000
0000
,
0101
0100
0001
0100
0101
0100
0010
0100
,
0110
0100
0001
1000
1001
0000
0001
0101
,
1000
0000
1100
0000
0001
0000
0010
0000
0100
0010
0100
0000
1000
0000
1010
0000
,
0000
1100
1000
0100
0010
0001
0011
0010
,
1001
0000
0001
0100
0000
0010
2000
0000
0000
0000
3001
0010
0001
0000
0010
0100
,
0020
0000
0000
0000
0130
1000
0100
0000
1000
0100
0010
0001
1000
0100
0010
0001
,
2000
0000
0000
3020
0000
0000
0230
0000
0000
0302
0000
0000
0013
0000
0100
0000
,
1000
0010
1000
0010
0100
0000
0001
0000
1000
0001
1000
0001
0100
0010
0100
0010
,
1000
0000
0001
0000
0100
0010
0100
0000
1000
0000
0100
0010
0100
0000
0001
0000
,
0010
0100
0010
0000
1000
0000
0010
0100
0020
0000
0000
0032
0000
0000
1003
0010
,
0100
0000
0100
0001
0000
0001
1000
0000
0100
1000
0100
1000
0010
0100
0010
0100
,
0001
0100
0001
0010
0100
0010
0200
0000
0000
0000
0010
0000
0310
0000
1001
0000
,
0000
0001
0010
0100
1000
0002
0000
1000
,
0000
1000
0000
0023
0000
0100
0100
2030
,
0000
0000
3010
0000
0100
0000
0010
0000
0200
0000
0000
0001
0000
0000
0010
0000
,
0000
1300
0100
0001
0020
0000
0000
0130
,
1000
0000
0100
0000
1000
0000
0010
0000
0100
0000
0000
1001
0000
0000
0100
0000
,
0001
0000
0100
0000
0001
0000
0010
0000
0100
0000
0000
1001
0000
0000
0100
0000
,
1000
0020
0000
0130
0001
0020
0000
0130
,
1000
0002
0000
0103
0001
2000
0000
3001
,
0010
0001
0010
0000
0100
0010
0100
0000
1000
0010
1000
0000
0010
0100
0010
0000
,
0100
0001
0100
0000
0010
1000
0010
0000
1000
0100
1000
0000
0001
0010
0001
0000
,
1000
0100
1000
0001
0100
0001
1000
0100
0010
0001
1000
0001
0100
0010
1000
0001
,
0010
0000
0100
1000
0010
0001
0000
0001
,
0010
1000
0100
0001
0010
1000
0100
0001
,
0010
0000
0100
0000
1000
0000
0001
0000
1000
0000
0000
0101
0000
0000
1000
0000
,
0010
0001
0100
1000
0010
0001
0100
1000
,
0010
0000
0100
0000
0001
0000
1000
0000
0010
0000
0000
1001
0000
0000
0000
0000
,
0110
0010
0100
0010
1010
0010
1000
0010
,
0110
0100
0001
0100
0101
0000
1000
1100
,
0001
0000
0101
0000
1000
0000
0010
0000
0100
0001
0010
0000
0001
0000
0110
0000
,
0000
1001
0001
0110
0001
1000
0001
0101
,
1000
0000
1100
0000
0001
0000
0010
0000
0100
1000
0010
0000
1000
0000
0110
0000
,
0000
1001
1000
0110
0001
0100
1001
0100
,
1001
0000
0100
0000
0010
0000
1000
0001
1000
0000
0100
0000
0110
0000
1000
0000
,
0011
0100
1010
0010
0101
0100
1001
0000
,
0001
0000
0100
0000
0010
0000
0001
0000
1000
0000
0100
0001
0010
0000
0100
0000
,
1000
0001
1000
0001
0010
0100
1000
0100
,
0001
0000
0100
0000
0010
0000
1000
0000
0001
0000
0100
1000
0010
0000
0100
0000
,
0001
1000
0001
1000
0110
0110
1001
0000
,
1000
0000
0010
0000
0100
0000
0001
0000
1000
0000
0001
0010
1000
0000
0001
0000
,
0100
1000
0100
0010
0001
0100
0010
0001
,
0011
0000
0010
0000
0100
0000
1000
0000
0001
0000
0010
1000
0100
0000
0010
0000
,
0011
0000
0001
0000
0010
0000
0100
0000
1000
0100
1000
0100
0020
0000
0000
0000
,
0031
0000
1000
0000
0100
0000
1000
0000
0001
0000
0100
0010
0100
0000
1000
0000
,
0001
0000
1000
0000
0100
0000
0001
0000
0010
0000
0100
0000
0001
0100
0010
0000
;

//--------------- dance-single - ----------------
#NOTES:
     dance-single:
     :
     Challenge:
     18:
     0.745975,0.559824,0,0,0,776,776,0,0,0,0,0.745975,0.559824,0,0,0,776,776,0,0,0,0:
0000
0000
0000
0000
,
1001
0000
0000
0000
0001
0100
0001
1000
0100
1000
0001
0100
0001
0000
2020
0000
,
0000
0000
3030
0202
0000
0000
0000
0303
,
1000
0000
0001
0000
1000
0000
0100
0000
0010
0000
0100
0000
1000
0000
0000
0000
0000
0000
0001
0000
1000
0000
0001
0000
0100
0000
0010
0000
0100
0000
0001
0000
0000
0000
0000
0000
1000
0000
0000
0100
0000
0000
1000
0000
0000
0100
0000
0000
,
0010
0001
0010
0001
1000
0100
1000
0100
0010
0001
0010
0001
1000
0100
0010
0001
,
1000
0100
0010
0001
1000
0010
0100
0001
0100
0010
0100
0000
0110
0000
1001
0000
,
0001
0000
0000
0100
0000
0000
0000
0000
0000
1100
0000
0000
0000
0000
0000
0000
0000
0000
1000
0000
0000
0100
0000
0000
0000
0000
0000
0001
0000
0000
0010
0000
0001
0000
0010
0000
0100
0000
0000
0000
0000
0000
1100
0000
0000
0000
0000
0000
,
1000
0010
0100
0001
0100
0000
1010
0000
0101
0000
0001
0010
0001
0000
1100
0000
,
1000
0000
0000
0100
0000
0000
0000
0000
0000
0101
0000
0000
0000
0000
0000
0000
0000
0000
0001
0000
0000
0100
0000
0000
0000
0000
0000
1000
0000
0000
0010
0000
1000
0000
0010
0000
0100
0000
0000
0000
0000
0000
0001
0000
0000
0000
0000
0000
,
0101
1000
1100
0100
0120
0001
0031
0000
,
0001
0000
0000
0010
0000
0000
0000
0000
0000
1010
0000
0000
0000
0000
0000
0000
0000
0000
1000
0000
0000
0010
0000
0000
0000
0000
0000
0001
0000
0000
0100
0000
0001
0000
0100
0000
0010
0000
0000
0000
0000
0000
1010
0000
0000
0000
0000
0000
,
1000
0100
0010
0001
0010
0000
1100
0000
0011
0000
0001
0100
0001
0000
1010
0000
,
1000
0000
0000
0010
0000
0000
0000
0000
0000
0011
0000
0000
0000
0000
0000
0000
0000
0000
0001
0000
0000
0010
0000
0000
0000
0000
0000
1000
0000
0000
0100
0000
1000
0000
0100
0000
0010
0000
0000
0000
0000
0000
0001
0000
0000
0000
0000
0000
,
0011
1000
1010
0010
0210
0001
0301
1000
,
1000
0100
0000
0000
0000
0000
0100
0000
0000
0000
0000
0000
0010
0000
0000
0000
0000
0000
0010
0001
0000
0000
0000
0000
0001
0000
0000
0000
0000
0000
0001
0000
0000
0100
0000
0000
0001
0000
0000
0000
0000
0000
0100
0000
0000
0000
0000
0000
,
0100
0010
0000
0000
0000
0000
0010
0000
0000
0000
0000
0000
1000
0000
0000
0000
0000
0000
1000
0010
0000
0000
0000
0000
0110
0000
0000
0000
0000
0000
1000
0000
0000
0001
0000
0000
0000
0000
0000
0000
0000
0000
0001
0000
0000
0000
0000
0000
,
0001
0100
0000
0000
0000
0000
0100
0000
0000
0000
0000
0000
0010
0000
0000
0000
0000
0000
0010
1000
0000
0000
0000
0000
1000
0000
0000
0000
0000
0000
1000
0000
0000
0100
0000
0000
1000
0000
0000
0000
0000
0000
0100
0000
0000
0000
0000
0000
,
0100
0010
0000
0000
0000
0000
0010
0000
0000
0000
0000
0000
0001
0000
0000
0000
0000
0000
0001
1000
0000
0000
0000
0000
1001
0000
0000
0000
0000
0000
0010
0000
0000
0100
0000
0000
0000
0000
0000
0000
0000
0000
0100
0000
0000
0000
0000
0000
,
1010
0000
1000
0000
0100
0000
0011
0000
0000
1100
0000
0000
0011
0000
0001
0000
,
0100
0000
0010
0100
0010
0000
0110
0000
0000
1001
0000
0000
0110
0000
1000
0000
,
0011
0000
0001
0000
1000
0000
1001
0000
0000
1010
0000
0000
0101
0000
0001
0000
,
1100
0000
0101
0000
1100
0000
1010
0000
0000
0110
0000
0000
1001
0000
1000
0000
,
0001
0000
0010
0000
0100
0000
1000
0000
0001
0000
0010
0000
0200
0000
0000
0000
0000
0000
1300
0000
0000
0000
0000
0000
0010
0000
0000
0000
0000
0000
0100
0000
0000
0001
0000
0000
0100
0000
0000
0000
0000
0000
0001
0000
0000
0000
0000
0000
,
1000
0000
0100
0010
0100
0000
0010
0000
0001
0000
0010
0100
0000
1000
0100
0010
,
1001
0000
0000
0000
1001
0000
1000
0000
0001
0100
0010
0100
0000
1000
0100
0000
,
0001
0000
0100
0000
1000
0000
0100
0000
0101
0000
1010
0000
0010
0100
0001
0000
,
1001
0000
0100
0000
0010
0000
1010
0000
0000
0101
0000
0000
1010
0000
0100
0000
,
0001
0000
1000
0000
0001
0000
1100
0000
0000
0011
0000
0000
1100
0000
0010
0000
,
1001
0000
0000
0000
0001
0000
1000
0000
0001
0000
1000
0000
0010
0000
0100
0010
,
1001
0000
1000
0000
1010
0000
0010
0000
1000
0100
0001
0100
1000
0100
0020
0000
,
0000
0000
0031
0000
0001
0000
0100
0000
0010
0000
0000
0010
0000
0000
0110
0000
,
0000
0000
0100
0000
0001
0000
1000
0000
0100
0000
0000
0100
0000
0000
0110
0000
,
0000
0000
1000
0000
0100
0000
0010
0000
0001
0000
0000
0001
0000
0000
1001
0000
,
0000
0000
0000
0000
0000
0000
0001
0000
0000
0100
0000
0000
0001
0000
0000
0000
0000
0000
1000
0000
0000
0000
0000
0000
0100
0000
0000
0000
0000
0000
1000
0000
0100
0000
0010
0000
0001
0000
0010
0000
0100
0000
1000
0000
0000
0000
0000
0000
,
0100
0010
0100
0010
1001
0000
0000
1000
,
0010
0100
0110
0000
1000
0001
1000
0001
,
1000
0100
0010
0001
1000
0100
0010
0000
0001
0100
0010
1000
0001
0100
0010
0000
,
1000
0100
0010
0001
1000
0100
0010
0000
0001
0100
0010
1000
0001
0100
0010
0000
,
1000
0100
0010
0001
1000
0010
0100
0001
1000
0100
0010
0001
1000
0010
0100
0001
,
0000
0000
0000
0000
0110
0000
1001
0000
0110
0000
1001
0000
0000
0000
0001
0100
,
0010
0000
0001
0010
1000
0000
0001
0010
1000
0000
1010
0000
0011
0000
0001
0000
,
0100
0000
0010
0000
0100
0000
0010
0000
1000
0000
0000
1001
0000
0000
1000
0100
,
0010
0000
1000
0010
0001
0000
1000
0010
0001
0000
0011
0000
1010
0000
1100
0000
,
0100
0000
0010
0000
0100
0000
0001
0000
0100
0000
0000
1001
0000
0000
0000
0000
,
0110
0010
1000
0100
0110
0010
0001
0100
,
0110
0010
1000
0001
1001
0000
1000
0100
,
0000
0000
0100
0000
1000
0000
0000
0000
1000
0100
0010
0000
0100
0000
1001
0000
,
0000
0000
1010
0000
1000
0000
0010
0000
1000
0000
0001
0000
1000
0000
0001
0010
,
0100
0000
0001
0100
1000
0000
0001
0100
1000
0000
1100
0000
0101
0000
0001
0000
,
0010
0000
0100
0000
0010
0000
0100
0000
1000
0000
0000
1001
0000
0000
1000
0010
,
0100
0000
1000
0100
0001
0000
1000
0100
0001
0000
0101
0000
1100
0000
1010
0000
,
0010
0000
0100
0000
0010
0000
0001
0000
0010
0000
0000
1001
0000
0000
0000
0000
,
1100
0000
0100
1000
0100
0000
0010
0000
0011
0000
0001
0100
0001
0000
0010
0000
,
1010
1000
0010
0100
1001
0000
1000
0101
,
1000
0000
0000
0101
0000
0000
1000
0100
0010
0001
0000
0000
1001
0000
0000
0001
0000
0000
0010
0000
0000
1100
0000
0000
,
0000
0011
1000
0100
1000
0001
1010
0100
,
1001
0000
0000
0000
0000
0000
0001
0000
0000
0010
0000
0000
0100
0000
0000
0010
0000
0000
0002
0000
0000
0000
0000
0000
0003
0000
0000
0000
0000
0000
0001
0000
0000
0010
0000
0000
0200
0000
0000
0000
0000
0000
1300
0000
0100
0000
0010
0000
,
0002
0000
0000
0000
0000
0000
1000
0000
0000
0000
0000
0000
1003
0000
0000
0010
0000
0000
0100
0000
0000
0001
0000
0000
1000
0000
0000
0010
0000
0000
0100
0000
0000
0001
0000
0000
1000
0000
0100
0000
0010
0000
0100
0000
0010
0000
0001
0000
,
2000
0000
0000
3020
0000
0000
0130
0001
0000
1100
0000
0000
0010
0000
0001
0000
,
1000
0010
0100
0010
1000
0010
0100
0001
1000
0100
0010
0100
0010
0001
0010
0001
,
0010
0001
1000
0000
1000
0010
0100
0010
0001
0010
0100
0010
0100
1000
0100
0001
,
0100
0000
0000
0010
0000
0000
0100
0000
0000
0010
0000
0000
1000
0000
0000
0010
0000
0000
0001
0000
0000
0010
0000
0000
2000
0000
0000
0000
0000
0000
0000
0000
0000
3002
0000
0000
0000
0000
0000
0000
0000
0000
1003
0000
0100
0000
0010
0000
,
0001
0000
0001
0010
0000
0010
0100
0000
0100
1000
0100
0010
0001
1000
0100
0000
,
1000
0100
1000
0100
0010
0100
0010
0001
0010
0001
0010
0100
1000
0001
0010
0100
1000
0001
0010
0100
1000
0002
0000
0000
,
0000
0103
0001
0100
0010
0200
0000
1000
,
0000
0000
0010
0000
0000
0000
0301
0000
1000
0010
1000
0001
0010
0001
2000
0000
,
0000
0000
3001
0000
0100
0000
0001
0000
0020
0000
0000
0100
0000
0000
1000
0000
,
0000
0000
0000
0031
0000
0000
0100
0000
0000
1000
0000
0000
0100
0000
0000
0001
0100
0010
1000
0001
0100
0010
0000
0000
,
0100
0000
0001
0000
1000
0000
0001
0000
0101
0000
0000
1001
0000
0000
1000
0000
,
0100
0000
1000
0000
0001
0000
1000
0000
1100
0000
0000
1001
0000
0000
1001
0000
,
1000
0100
0010
0001
1000
0100
0010
0000
0001
0100
0010
1000
0001
0100
0010
0000
,
1000
0100
0010
0001
1000
0100
0010
0000
0001
0100
0010
1000
0001
0100
0010
0000
,
1000
0001
1000
0100
1000
0001
1000
0100
1000
0001
0100
0001
1000
0001
0100
0001
,
1000
0010
1000
0001
1000
0010
1000
0001
0010
0001
1000
0001
0010
0001
1000
0001
,
1000
0100
1000
0001
1000
0001
0100
0001
0100
0001
1000
0001
1000
0100
1000
0001
1000
0100
0010
0100
0010
0100
1000
0100
,
0010
0000
0000
0000
0110
0000
1001
0000
0110
0000
1001
0000
0000
0000
1000
0100
,
0010
0000
1000
0010
0001
0000
1000
0010
0001
0000
0011
0000
1010
0000
1000
0000
,
0100
0000
0010
0000
0100
0000
0010
0000
0001
0000
0000
1001
0000
0000
0001
0100
,
0010
0000
0001
0010
1000
0000
0001
0010
1000
0000
1010
0000
0011
0000
0101
0000
,
0100
0000
0010
0000
0100
0000
1000
0000
0100
0000
0000
1001
0000
0000
0000
0000
,
0011
0000
0010
0001
0010
0000
0100
0000
1100
0000
1000
0010
1000
0000
0100
0000
,
0101
0001
0100
0010
1001
0000
1010
1001
,
1100
0000
0000
1001
0000
0000
0001
0010
0100
1000
0000
0000
1001
0000
0000
1000
0000
0000
0100
0000
0000
0011
0000
0000
,
0000
1100
0001
0010
0001
1000
0011
1001
,
0101
0000
0000
1001
0000
0000
1000
0010
0100
0001
0000
0000
1001
0000
0000
0001
0000
0000
0100
0000
0000
1010
0000
0000
,
0000
0101
1000
0010
1000
0110
1001
0110
,
1001
0000
0000
1000
0100
0010
0001
0000
0000
1001
0000
0000
0010
0000
0000
0100
0000
0000
1100
0000
0000
1001
0000
0000
,
1100
1001
0011
0001
1010
0110
0110
1001
,
0001
0000
0000
0010
0000
0000
1000
0000
0000
0010
0000
0000
0001
0000
0000
0100
0010
1000
0001
0000
0000
0010
0000
0000
,
0011
0001
1010
1000
1001
0100
0010
0100
,
1001
0000
0000
1000
0000
0000
0100
0000
0000
0001
0000
0000
0100
0000
0000
1000
0100
0010
0001
0000
0000
0010
0000
0000
,
1001
0000
1000
0000
0010
0000
0100
0000
0001
0010
0100
1000
1001
0000
0001
0000
,
0100
0000
0000
0010
0000
0000
0100
0000
0000
0001
0000
0000
1000
0000
0000
0001
0010
0100
1000
0000
0000
0001
0000
0000
,
1100
1000
0101
0001
1001
0100
0010
0100
,
1001
0000
0000
0001
0000
0000
0010
0000
0000
0100
0000
0000
1000
0000
0000
0001
0100
0010
1000
0000
0000
0100
0000
0000
,
1001
0000
0001
0000
0100
0000
0010
0000
1000
0100
0010
0001
1001
0000
1001
0000
,
0001
0000
0000
0100
0000
0000
0010
0000
0000
1000
0000
0000
0001
0000
0000
1000
0100
0010
0001
0000
0000
0100
0000
0000
,
1000
0000
0100
0000
0001
0000
0100
0000
0010
0000
0100
0000
0001
0010
1000
0000
;
