#TITLE:月蝕グランギニョル;
#SUBTITLE:;
#ARTIST:ALI PROJECT;
#TITLETRANSLIT:Gesshoku Grand Guignol;
#SUBTITLETRANSLIT:;
#ARTISTTRANSLIT:ALI PROJECT;
#GENRE:ANIME;
#CREDIT:;
#MUSIC:Gesshoku Grand Guignol.ogg;
#BANNER:Gesshoku Grand Guignol.png;
#BACKGROUND:Gesshoku Grand Guignol-bg.png;
#CDTITLE:;
#SAMPLESTART:6.290;
#SAMPLELENGTH:15.000;
#SELECTABLE:YES;
#OFFSET:1.210;
#BPMS:0.000=128.000;
#STOPS:;
#LASTBEATHINT:0.457432;
#BGCHANGES:3.000=Gesshoku Grand Guignol.avi=1.000=0=0=0,
99999.000=-nosongbg-=1.000=0=0=0=StretchNoLoop====
;
#FGCHANGES:;

//--------------- dance-single - ----------------
#NOTES:
     dance-single:
     :
     Hard:
     11:
     0.51433,0.551661,0.263953,0.211162,0.242836,341,316,25,20,0,0,0.51433,0.551661,0.263953,0.211162,0.242836,341,316,25,20,0,0:
0000
0000
0000
0000
,
0001
1000
0001
1000
0010
0100
0001
0000
0000
1000
0001
1000
,
0001
0010
0100
1000
0000
0000
0001
0100
0001
1000
0100
1000
,
0001
0000
0000
1000
0100
1000
0100
0010
0100
1000
0000
0000
,
0001
1000
0100
0010
0001
1000
1001
0000
,
1000
0100
0100
0000
0001
0100
0100
0000
,
1000
1000
0001
0001
0010
0100
1100
0000
,
1000
0001
0100
0010
1000
0010
0100
0000
,
0001
0100
0010
0100
0001
1000
0001
0000
,
1000
0010
0010
0000
0001
0010
0010
0000
,
0001
1000
1000
0001
0100
0100
1000
0000
,
0100
0001
0010
1000
0010
0100
1000
0001
,
1001
0000
0001
0100
0001
0000
1000
0100
,
1000
0001
0010
0000
0100
0000
1000
0001
,
1000
0010
0100
0000
0100
0000
0001
0010
,
0010
0100
1000
0001
0100
0001
1000
0000
,
0001
0010
0001
0010
0100
0010
0100
1000
0100
1000
0001
1000
,
0001
0100
0001
0100
0010
1000
0010
0000
0000
0000
0000
0000
,
0001
1000
0000
0100
0000
1000
0001
0000
0020
0000
0000
0000
0230
0000
0000
0000
,
2300
3002
0203
0320
,
2030
0000
3001
0000
1001
0000
0000
0000
1000
0000
0000
1100
0000
0000
0001
0000
,
0100
0000
0000
0101
0000
0000
1000
0000
0010
0000
0000
1010
0000
0000
0001
0000
,
0010
0000
0000
0011
0000
0000
1000
0000
0200
0000
0000
0000
0320
0000
0000
0000
,
0032
0203
2300
3200
,
0302
0000
1003
0000
1001
0000
0000
0000
1000
0000
0000
0101
0000
0000
0001
0000
,
0010
0000
0000
1100
0000
0000
1000
0000
0100
0000
0000
0011
0000
0000
0001
0000
,
0010
0100
1000
0001
1000
0020
0000
1000
,
1030
0000
0000
0000
0001
0000
0100
0000
0020
0000
0000
0000
1030
0000
0000
1000
,
0001
0010
0100
0000
1000
0002
0000
0013
,
0200
0000
0000
0000
0000
0000
0000
0000
0000
0000
0000
0000
1300
0000
0000
0000
0000
0000
0001
0000
0000
0100
0000
0000
0002
0000
0000
0000
0000
0000
0000
0000
0000
0000
0000
0000
1003
0000
0000
0000
0010
0000
0000
0000
0100
0000
0000
0000
,
0001
1000
1001
0000
0001
0011
0000
1000
,
1100
0000
0000
0000
0001
0000
0010
0000
0100
0000
0000
2000
0000
0000
0001
0000
,
3001
0000
0000
1001
0000
0000
0010
0000
0100
0000
1000
0000
0010
0000
0100
0000
,
0001
0010
0100
1000
1100
0000
0100
0010
,
0001
1000
0100
0010
0011
0000
0001
0010
,
0001
0000
1000
0100
1000
0001
0010
0001
,
1000
0100
0010
0001
1000
0010
0100
0001
,
1000
0001
1001
0000
0001
1000
0100
0000
,
1000
0001
0100
0000
0001
0001
1000
1000
,
0010
0100
1001
0000
0001
0010
0100
1000
,
0001
0010
1100
0000
1000
0010
0100
0010
,
1000
0001
1001
0000
0100
1000
0001
0000
,
0100
0001
1000
0000
1001
0001
1000
0010
,
1000
0001
1001
0000
1000
0100
0010
0001
,
0100
0000
0010
0000
0100
0000
0001
0000
1000
0000
0000
1000
0000
0000
1000
0000
,
0000
0100
0000
0000
0110
0000
0000
0000
0100
0000
1000
0000
0001
0000
0000
0000
,
1000
0001
0100
0000
0010
1000
0100
0000
,
0010
0001
0100
0010
1000
0000
0000
0000
;

//--------------- dance-single - ----------------
#NOTES:
     dance-single:
     :
     Challenge:
     14:
     0.820515,0.827491,0.992462,0,0.659881,544,450,94,0,0,0,0.820515,0.827491,0.992462,0,0.659881,544,450,94,0,0,0:
0000
0000
0000
0000
,
0011
0000
0010
0000
0100
0000
1000
0000
0100
0000
0010
0000
0011
0000
0000
1001
0000
0000
1010
0000
0010
0000
0100
0000
,
0001
0000
0100
0000
0010
0000
1010
0000
0000
1001
0000
0000
1100
0000
0100
0000
1000
0000
0001
0000
0100
0000
0001
0000
,
0101
0000
0000
0000
0000
0000
1100
0000
0000
0000
0000
0000
0011
0000
0000
0000
0001
0000
0010
0000
0100
0000
0000
0000
1000
0000
0000
0000
0100
0000
0010
0000
0001
0000
0000
0000
1000
0000
0000
0100
0000
0000
1000
0000
0000
0001
0000
0000
,
0010
0100
1000
0010
0001
0000
0011
0000
0110
0000
1010
0000
1001
0000
0000
0000
,
1000
0100
0010
0100
1000
0000
0000
0001
0100
0000
0010
0000
1100
0000
0101
0000
,
1001
0000
1000
0100
0010
0000
0001
0100
0010
0000
1000
0000
1010
0000
0000
0000
,
0001
0110
1000
0110
0001
1010
0110
0101
,
1000
0100
1000
0100
0010
0000
0001
0000
0110
0000
1100
0000
0101
0000
0000
0000
,
0001
1000
0100
0001
0100
0000
0000
1000
0010
0000
0110
0000
1010
0000
0101
0000
,
0001
0000
0001
0010
0100
0000
1000
0100
0010
0000
0110
0000
1001
0000
0000
0000
,
0100
1001
0010
1001
0001
1010
0100
0011
,
1001
0000
0000
1000
0100
0000
0010
0000
1000
0000
0010
0000
0011
0000
0010
0001
,
0100
0010
0001
0010
0100
0000
0001
0000
1000
0100
0001
0000
0100
0000
0001
0100
,
1000
0010
0100
0010
1000
0000
0001
0000
0011
0000
1000
0100
0010
0000
1000
0000
,
0010
0001
0100
0000
0010
0000
1000
0000
0010
0000
0100
0000
0001
0000
0000
0000
,
0001
0100
0110
1000
0100
0110
0001
1000
1010
0010
0100
0101
,
0001
0010
0110
1000
1001
0001
1001
0000
0000
0000
0000
0000
,
0001
0010
0000
0100
0000
0010
0001
0000
0011
0000
0100
0000
1000
0000
0001
0000
,
0100
0010
1000
0001
0011
1000
0010
0001
,
0010
0000
0100
0000
0101
0000
0000
0000
1000
0100
0000
1000
0100
0010
0001
0000
,
0001
0100
0000
0001
0100
0010
1000
0000
1000
0010
0000
1000
0010
0100
0001
0000
,
0001
0010
0000
0001
0010
0100
1000
0000
1100
0000
0100
0000
0010
0000
0001
0000
,
1000
0001
0010
0100
1001
0001
1000
0010
,
0100
0000
0001
0000
1000
0000
0000
0000
0001
0100
0000
0010
1000
0100
0010
0000
,
0010
0001
0000
0100
0001
0010
0100
0000
0100
1000
0000
0010
1000
0100
0010
0000
,
0001
0000
0010
0100
0010
0000
1000
0000
0010
0000
0001
0000
0000
0000
1000
0000
,
1000
0000
0000
0000
0001
0000
0100
0000
0010
1000
0010
0000
1000
0000
0010
0100
,
0010
0000
0100
0000
0010
0001
0010
0000
1000
0000
0100
0000
0010
0001
0010
0000
,
0001
0000
0000
0000
0000
0000
0010
0000
0000
0100
0000
0000
0010
0000
0000
0000
0000
0000
0100
0000
0000
0000
0000
0000
1100
0000
0000
0000
0000
0000
0000
0000
0000
0000
0000
0000
1000
0000
0000
0000
0100
0000
0000
0000
0010
0000
0000
0000
,
0001
0000
0001
0010
0100
0000
1000
0000
0001
0000
0011
0000
0000
0000
0100
0000
,
1100
0000
0000
0000
0001
0000
0010
0000
0100
0000
1000
0100
1000
0000
0001
0000
,
1000
0000
0001
0100
0001
0000
0010
0000
0110
0000
1000
0100
0000
0010
0001
0000
,
1001
0000
0001
0100
0000
0010
1000
0000
1001
0000
0001
1000
0000
0100
0010
0000
,
0001
0000
1000
0010
0100
0000
0001
0000
1010
0000
0001
0100
0001
0000
0011
0000
,
0011
0000
1000
0100
1000
0000
1001
0000
1000
0010
0100
0001
1000
0100
0001
0100
,
1000
0000
1001
0000
0101
0000
1001
0000
1000
0100
0010
1000
0010
0000
0011
0000
,
1001
0000
1100
0000
0110
0000
1000
0000
0001
0010
1000
0001
0100
0000
0000
1000
,
0001
0000
0100
0000
1010
0000
0110
0000
0101
0000
0100
0001
0010
0000
0100
1000
,
0010
0101
1001
0000
0001
0110
1000
0110
,
0001
0000
1010
0000
0110
0000
0101
0000
0001
0100
0010
0001
0010
0000
1010
0000
,
1001
0000
0101
0000
0110
0000
0001
0000
1000
0010
0001
1000
0100
0000
0000
0001
,
1000
0000
1100
0000
0110
0000
0011
0000
1001
0000
0001
0010
1000
0000
0001
0100
,
1000
1100
0011
0000
0100
1001
0010
1001
,
0100
0000
1100
0000
0101
0000
0011
0000
1010
0000
0000
1000
0100
0000
1000
0000
,
0001
0100
0001
0000
0011
0000
0010
0001
0100
1000
0100
0010
1000
0000
0100
0000
,
0010
0001
0100
0000
0010
0000
1000
0001
0010
0100
0001
0100
1000
0000
0001
0000
,
0010
0100
1000
0010
0100
0000
0000
0000
;
