#TITLE:現実凸撃ヒエラルキー;
#SUBTITLE:;
#ARTIST:私(CV.悠木碧);
#TITLETRANSLIT:Genjitsu Totsugeki Hierarchy;
#SUBTITLETRANSLIT:;
#ARTISTTRANSLIT:Watashi(CV.Yuki Aoi);
#GENRE:Anime;
#CREDIT:;
#MUSIC:Genjitsu Totsugeki Hierarchy.ogg;
#BANNER:Genjitsu Totsugeki Hierarchy.png;
#BACKGROUND:Genjitsu Totsugeki Hierarchy-bg.png;
#CDTITLE:;
#SAMPLESTART:55.487;
#SAMPLELENGTH:13.480;
#SELECTABLE:YES;
#OFFSET:0.777;
#BPMS:0.000=148.000;
#STOPS:;
#BGCHANGES:2.000=Genjitsu Totsugeki Hierarchy.avi=1.000=0=0=0=StretchNoLoop====,
99999.000=-nosongbg-=1.000=0=0=0=StretchNoLoop====
;
#FGCHANGES:;

//--------------- dance-single - ----------------
#NOTES:
     dance-single:
     :
     Hard:
     15:
     0,0,0,0,0:
0000
0000
0000
0000
,
0000
0000
0000
0000
,
1001
0000
0001
0010
0000
0100
1000
0000
2001
0000
0000
0000
0000
0000
0000
0000
,
0000
0000
3010
0000
1000
0100
0000
0100
1000
0000
0001
0100
0000
0100
0001
0000
,
1001
0000
1000
0010
0000
0100
0001
0000
0102
0000
0000
0000
0000
0000
0000
0000
,
0013
0000
0100
1000
0100
1000
0100
1000
0002
0000
0000
0000
0103
0000
0001
0000
,
0010
0000
0100
1000
0000
0100
0010
0000
0001
0000
0100
0000
0010
0000
1000
0000
,
0001
0000
0100
0010
0000
0100
0001
0000
0020
0000
0000
0000
0130
0000
1000
0000
,
1010
0000
0100
0001
0011
0000
0010
0100
,
1000
0000
0001
0100
0000
0001
1000
0000
0010
0100
0010
0100
0001
1000
0001
1000
,
0010
0000
0100
0001
0100
0000
0010
1000
0010
1000
0100
1000
0100
0000
0010
0000
,
0100
0000
1000
0010
1000
0000
0001
0100
0001
0100
0010
0100
0010
0100
0010
1000
,
0010
0000
0100
0001
0100
0000
0001
0000
1000
0100
0010
0001
1000
0000
0001
0000
,
1000
0010
1000
0000
1010
0000
0000
0000
0001
0010
0001
0000
0011
0000
0000
0000
,
1001
0000
1000
0100
0000
1000
0100
0000
0010
0000
0001
0010
0001
0010
0100
1000
,
0001
0100
0001
0100
0010
1000
0010
1000
,
0100
0000
0001
0000
0100
0000
1000
0000
0001
0000
0000
0000
1000
0000
0001
0100
,
0001
0000
1000
0100
1000
0000
0010
0000
0110
0000
0010
0100
0010
0000
1000
0000
,
0002
0203
0320
2030
3002
1003
1001
1000
,
0100
0100
0001
1000
0001
0100
0100
1000
,
0001
0000
0010
0000
0100
0000
1000
0000
0001
0000
0000
1010
0000
0100
0001
0000
,
0011
0010
0100
0010
1100
0100
0010
0100
,
1000
0000
0010
0100
0010
0000
0100
0001
2000
0000
0000
0000
0000
0000
0000
0000
,
3002
0000
0000
0000
0000
0000
0103
0010
0100
0000
0000
0010
0000
0000
1000
0000
,
0001
0000
0100
0010
0100
0010
0100
0010
0100
0000
0010
1000
0002
0000
0000
0000
,
2003
0000
0000
0000
0000
0000
3100
0010
0100
0000
0000
0010
0000
0000
0001
0000
,
0010
0100
0010
0100
0010
0100
0010
0100
0010
0000
0001
1000
0000
1000
0010
0000
,
0100
0000
0001
0000
1000
0000
0010
0000
0100
0001
0100
0000
0010
0000
1000
0000
,
0001
0010
0001
0000
0010
0000
0100
0000
1000
0010
0000
0010
0001
0000
0010
1000
,
0100
0000
0100
0010
0000
0000
0001
1000
0001
0000
0000
0100
0010
0000
1000
0001
,
1000
0000
0000
0100
0010
0000
0100
1000
0001
0000
0000
0100
0010
0000
1000
0000
,
0001
0000
0100
0010
0000
0100
0010
0000
1000
0000
0100
0010
0000
0100
0010
0000
,
0001
1000
0010
1000
0001
0010
0100
1000
,
0010
0000
0100
0001
0000
0010
0100
0000
1000
0000
0001
0100
0000
0010
1000
0100
,
0010
0000
0001
0000
0100
0000
0001
0000
1000
0000
0100
0000
2000
0000
0000
0000
0000
0000
3001
0000
0000
0100
0000
0000
,
0110
0000
0010
0000
1000
0000
0001
0000
0100
0000
0001
0010
0000
0100
1000
0000
,
0001
0000
1000
0010
0000
0100
0001
0100
0001
0000
0020
0000
0000
0000
0130
0000
,
1000
0100
0001
0100
1000
0001
0100
1000
,
0100
0000
0001
1000
0000
0001
0100
0000
0010
0100
0010
0000
0100
0001
1000
0001
,
1000
0000
0010
0000
0100
0000
0001
0000
1000
0000
0001
0010
0000
0100
1000
0100
,
1000
0000
0010
1000
0000
0001
0100
0001
0100
0000
0001
1000
0000
0000
0010
0000
,
1020
0000
0000
2030
0000
0000
3001
0000
0012
0000
0000
0023
0000
0000
0130
0000
,
0210
0000
0000
0000
0000
0000
1300
0000
0010
0100
0010
0000
1001
0000
0000
0000
,
0011
0000
0000
0000
0101
0000
0000
0000
0110
0000
0000
1001
0000
0000
0001
0010
,
0100
0000
1000
0000
0001
0000
0000
1000
0010
1000
0010
0100
0001
0100
0001
1000
,
0010
0000
0000
0000
0101
0000
0000
0000
0110
0000
0000
1001
0000
0000
1000
0100
,
0010
0000
0100
0000
1000
0000
0000
0001
0010
0000
0001
1000
0000
0001
0100
0000
,
1010
0000
0000
0000
0101
0000
0000
0000
0011
0000
0000
1100
0000
0000
1000
0100
,
0010
0000
0001
0000
1000
0000
0000
0010
0100
0010
0100
0001
1000
0001
1000
0100
,
0010
0000
0000
0000
1001
0000
0000
0000
1100
0000
0000
0101
0000
0000
0001
0100
,
0010
0000
1000
0000
0001
0000
0000
1000
0010
0000
1000
0100
0000
1000
0001
0000
,
2000
0000
0000
3200
0000
0000
0320
0000
0032
0000
0000
2003
0000
0000
3020
0000
,
0000
0130
0001
0100
0010
1000
0010
0100
0001
1000
0100
0010
,
0002
0000
2003
0000
,
0000
0000
0000
3010
0110
0000
0000
0000
;

//--------------- dance-single - ----------------
#NOTES:
     dance-single:
     :
     Challenge:
     17:
     0.341251,0.272485,0,0,0,215,215,0,0,0,0,0.341251,0.272485,0,0,0,215,215,0,0,0,0:
0000
0000
0000
0000
,
0000
0000
0000
0000
,
1001
0000
0001
0100
0000
0001
0010
0100
2000
0000
0000
0000
0000
0000
0000
0000
,
0000
0000
0000
0000
0000
0000
3010
0000
0000
0000
0000
0000
0100
0000
0000
0001
0000
0000
0000
0000
0000
0001
0000
0000
1000
0000
0100
0000
1000
0000
0100
0000
0010
0000
0001
0000
1000
0000
0100
0000
1000
0000
0100
0000
0010
0000
0001
0000
,
1000
0000
1000
0010
0000
0100
0001
0010
0200
0000
0000
0000
0000
0000
0000
0000
,
0310
0000
0001
0100
0001
0100
0001
0100
0010
0000
0000
0000
1000
0000
0100
0000
,
0010
0000
0001
0100
0000
0010
0100
0000
0010
0000
1000
0001
0100
0001
1000
0001
,
0100
0000
0010
1000
0000
0100
1000
0000
0001
0000
0010
0000
0001
1000
0010
0100
,
0020
0000
1030
0000
0001
1000
0100
0010
0200
0000
1300
0000
0010
0000
0100
0000
,
0001
0000
0100
1000
0000
0100
0010
0100
0001
0010
0100
1000
0100
0010
0001
1000
,
0001
0010
0001
0010
0100
1000
0100
1000
0001
0100
0001
0100
0010
1000
0010
1000
,
0001
0100
0001
1000
0001
0100
0001
1000
0100
1000
0001
1000
0100
1000
0001
1000
,
0001
0000
0000
0010
0000
0000
0100
0000
0000
1000
0000
0000
0001
0000
0000
1000
0000
0000
0100
0000
0000
0010
0000
0000
0001
0000
0010
0000
0100
0000
0010
0000
0100
0000
1000
0000
0001
0000
0000
0100
0000
0000
0010
0000
0000
0100
0000
0000
,
0001
1000
0001
0000
1010
0000
0000
0000
1000
0100
1000
0000
0011
0000
0000
0000
,
1010
0000
0010
1000
0100
0010
0001
1000
0001
0000
1000
0010
1000
0010
0100
0010
,
0100
0000
0010
0100
0001
0000
0100
0010
1000
0000
0010
0100
0010
0100
0001
1000
,
0001
0000
0010
0100
1000
0000
0100
0010
0001
0000
1000
0100
0000
1000
0001
0100
,
0010
0000
0010
0100
0001
0000
1000
0100
0010
0000
0010
0100
1000
0000
0100
0000
,
0012
0003
0120
0030
1200
0300
1020
0030
0102
0000
0103
0000
1010
0000
0010
0100
,
0010
0000
0100
0000
0001
0000
0010
0000
0100
0000
1000
0100
1000
0000
0001
0000
,
0100
0000
1000
0000
0100
0001
0010
0100
0001
0000
0001
0100
0000
0100
1000
0000
,
1010
0000
0100
0001
0010
0000
0100
0000
0010
0000
0100
1000
0010
0000
0100
0000
,
0001
0000
1000
0010
0100
0010
0100
0001
0020
0000
0000
0000
0000
0000
0000
0000
,
0230
0000
0000
0000
0000
0000
0001
0000
0000
0000
0000
0000
0010
0000
0000
0000
1300
0000
0000
0000
1000
0000
0010
0000
0000
0000
0000
0110
0000
0000
0000
0000
,
1001
0000
0000
0000
0000
0000
0000
0000
0001
0000
0000
0000
0010
0000
0000
0000
0100
0000
0000
0000
0010
0000
0000
0000
0001
0000
0000
0000
0010
0000
0000
0100
0000
0000
2000
0000
0000
0000
0000
0000
0000
3001
0000
0000
0000
1000
0000
0000
0000
0002
0000
0000
0000
0000
0000
0000
0000
0000
0000
0000
0000
0000
0000
0000
,
0103
0000
0000
0020
0000
0000
0000
0000
1030
0000
0000
0100
0000
0010
0000
0001
0000
0010
0000
0100
0000
0010
0000
0100
0000
1000
0000
0000
0010
0000
0200
0000
,
0000
0000
0301
0000
1000
0000
0100
0000
0010
0000
0001
0000
0020
0000
0000
0000
0000
0000
0000
0100
0000
0000
0000
0100
0000
0000
0000
0230
0000
0000
0000
0000
,
0000
0000
1300
0000
0010
0000
1000
0000
0010
0000
0100
0000
0000
0001
0000
0100
0000
0000
1000
0000
0100
0000
0000
0001
0000
0010
0000
0100
0000
1000
0000
0001
,
0000
1000
0010
0100
0001
0100
0010
1000
0002
0000
0000
0000
1003
0000
0010
0100
,
0010
0000
0000
0110
0000
0000
0001
0000
0011
0000
0000
0010
0000
0000
0100
0000
,
1100
0000
0000
0100
0010
0000
0010
0001
0010
0000
0000
0001
1000
0000
0010
0000
,
0110
0000
0100
0001
0000
1000
0001
0010
0100
0000
0100
1000
0000
0001
0100
0001
,
0100
0000
0010
0000
1000
0000
0001
0010
0100
1000
0001
0010
0100
1000
0100
0010
,
0001
0010
0010
1000
0010
0010
0001
1000
0001
0100
0100
1000
0100
0100
0001
1000
,
0001
0000
0010
0000
1000
0000
0010
0000
0001
0000
0100
0000
0020
0000
0000
0000
0000
0000
0130
0000
0000
1010
0000
0000
,
0101
0000
0010
1000
0001
0000
0010
0000
0100
0000
0001
0100
0000
0100
1000
0010
,
0100
0000
1000
0100
0000
0100
0001
0010
0100
0000
1000
0000
0001
0000
0100
0010
,
1000
0000
1010
0000
1000
0000
1001
0000
0001
0000
0001
0010
0100
0000
1000
0000
,
1100
0000
0010
0001
0010
0000
0100
1000
0100
0010
0001
0100
0010
1000
0001
1000
,
0001
0000
0010
0100
0010
0000
0100
1000
0100
0000
0001
0100
0000
0100
1000
0010
,
0001
0000
0010
1000
0000
1000
0100
0010
0001
0000
0001
1000
0000
0000
0010
0100
,
0010
0000
0100
0001
0000
0000
0011
0000
1100
0000
1000
0100
1000
0000
0100
0000
,
0110
0000
0000
0000
0000
0000
0010
0000
0000
0001
0000
0000
0000
0000
0000
0010
0000
0000
0100
0000
0000
0000
0000
0000
1000
0000
0100
0000
0010
0000
0001
0000
0000
0000
0000
0000
1001
0000
0000
0000
0000
0000
0000
0000
0000
0000
0000
0000
,
0101
0000
0000
0000
1010
0000
0000
0000
0110
0000
0000
0110
0000
0000
0100
0001
,
0100
0000
0000
0000
0000
0000
0010
0000
0000
0000
0000
0000
1000
0000
0000
0000
0000
0000
0000
0000
0000
0001
0000
0000
1000
0000
0100
0000
1000
0000
0100
0000
0010
0000
0001
0000
1000
0000
0100
0000
1000
0000
0100
0000
0010
0000
0001
0000
,
1000
0000
0000
0000
0101
0000
0000
0000
1100
0000
0000
0011
0000
0000
0010
0100
,
0010
0000
0100
0000
1000
0000
0000
0001
0100
0000
1000
0100
0000
0001
1000
0000
,
0001
0010
0001
0010
0100
0000
0010
0001
1000
0000
0001
0100
0000
0010
1000
0010
,
0100
0000
0000
0000
0000
0000
0110
0000
0000
0000
0000
0000
0010
0000
0000
1000
0000
0000
0010
0000
0000
0100
0000
0000
0001
0000
0100
0000
0001
0000
0100
0000
0010
0000
1000
0000
0001
0000
0100
0000
0001
0000
0100
0000
0010
0000
1000
0000
,
0001
0100
0001
0010
0100
0010
0001
0010
0100
1000
0010
0100
0010
1000
0010
0100
,
0001
0000
1000
0000
0100
0000
1000
0000
0100
0000
1000
0000
0001
0000
1000
0000
0100
0000
1000
0000
0100
0000
1000
0000
0010
0000
0000
0000
0000
0000
0100
0000
0000
0001
0000
0000
0000
0000
0000
1000
0000
0000
0001
0000
0000
0000
0000
0000
,
0021
0000
0000
1000
0000
0000
0130
0000
1020
0000
0000
0001
0000
0000
0130
0000
,
0000
0001
1000
0100
0010
0001
0010
0100
1000
0001
0100
1000
,
0200
0000
0000
0000
0000
0000
0000
0000
0000
0000
0310
1000
0002
0000
0000
0000
0000
0000
0000
0000
0000
0000
0000
0000
,
0000
0000
0000
0000
0000
0000
0000
0000
0000
0013
0100
1000
0001
0000
0000
0000
0000
0000
0000
0000
0000
0000
0000
0000
;
