#TITLE:幻愛遊戯;
#SUBTITLE:;
#ARTIST:GARNiDELiA;
#TITLETRANSLIT:Genai Yugi;
#SUBTITLETRANSLIT:;
#ARTISTTRANSLIT:GARNiDELiA;
#GENRE:Anime;
#CREDIT:;
#MUSIC:Genai Yugi.ogg;
#BANNER:Genai Yugi.png;
#BACKGROUND:Genai Yugi-bg.png;
#CDTITLE:;
#SAMPLESTART:56.205;
#SAMPLELENGTH:11.273;
#SELECTABLE:YES;
#OFFSET:1.431;
#BPMS:0.000=165.000;
#STOPS:;
#LASTBEATHINT:3.577750;
#BGCHANGES:6.000=Genai Yugi.avi=1.000=0=0=0=StretchNoLoop====,
99999.000=-nosongbg-=1.000=0=0=0=StretchNoLoop====
;
#FGCHANGES:;

//--------------- dance-single - ----------------
#NOTES:
     dance-single:
     :
     Hard:
     11:
     0,0,0,0,0:
0000
0000
0000
0000
,
0000
0000
0000
0000
,
0000
0000
0000
0000
,
0000
0000
0000
0000
,
0011
0000
1100
0000
0001
1000
0000
1010
,
0000
0001
0000
1000
0010
0100
0001
1000
,
1100
0000
0011
0000
0101
0000
0001
1000
,
0000
0010
0000
0120
0000
0000
0130
0000
,
1010
0000
0101
0000
0001
1000
0000
0002
,
0000
0023
0000
0230
0000
2300
0000
3001
,
0101
0000
1010
0000
1100
0000
1000
0001
,
0000
0010
0000
0010
0100
0000
0000
0000
,
1000
0001
0010
0000
0100
1000
0001
0000
,
0100
0001
0010
0100
0010
0001
1000
0000
,
0001
0100
0010
0000
0010
0100
0001
0000
,
0001
0010
0100
1000
0001
0010
0001
0100
,
1000
0000
0100
0000
0001
1000
0100
0000
,
0010
0000
0100
0000
0010
0001
1000
0000
,
0001
0100
0001
0000
1000
0100
1000
0000
,
0110
0000
0000
1001
0000
0000
0000
0000
,
0001
0001
0010
0100
0010
0001
1000
0000
,
0010
0010
0100
0001
1000
0010
0100
0000
,
0100
0001
0010
0000
0100
1000
0010
0000
,
0100
0002
0023
0230
2300
3020
0230
0302
,
0013
0000
1001
0000
0001
0100
1000
0000
,
0110
0000
1001
0000
1000
0100
0001
0000
,
0100
1000
0010
0000
0100
0001
0010
0000
,
0110
0000
0000
1001
0000
0001
1000
0000
,
0010
1000
0001
0001
0010
0100
1000
1000
,
0020
0000
0100
0230
0000
0302
0000
0013
,
0100
0010
0001
0001
1000
0100
1000
1000
,
0002
0000
1003
2000
0000
3020
0000
0130
,
0010
0000
0100
0001
0010
1000
0010
1000
,
0002
0000
0103
2000
0000
3020
0000
1030
,
0002
0000
0103
0010
0000
0100
0000
1001
,
0000
0001
0001
0200
0000
0010
0310
0000
,
1010
1100
1010
1100
,
0011
0101
0011
0101
,
1001
0000
0010
0100
0000
0001
0000
0101
,
0000
1100
0000
1001
0000
0100
0001
0020
,
0000
0130
1000
0100
0010
0001
1000
0000
,
0001
0100
0001
0100
0010
0101
0000
1001
,
0000
1000
0100
1000
0100
0001
0100
1000
,
0001
0100
0010
0100
0000
0110
0000
1001
,
0000
0001
0100
1000
0100
0101
0000
1001
,
0000
1000
0100
0001
0100
1100
0000
0101
,
0000
0001
0100
0010
0100
0010
1000
1100
,
0000
0101
0000
1001
0000
0001
0100
0020
,
0000
0130
0001
1000
0100
0010
0001
0000
,
1000
0010
1000
0010
0000
1010
0000
0101
,
0000
1000
0100
0001
0100
0001
0100
0000
,
1000
0001
0100
0010
0000
1010
0000
0101
,
0000
0001
0010
0100
0001
1000
0010
0001
,
0100
0010
0100
0110
0000
0000
0010
0100
,
0000
0001
1000
0001
1000
0001
1000
0100
,
0000
0000
0000
0000
,
0001
0010
0100
1000
0000
1000
0100
0010
,
0000
0010
0001
2000
0000
0010
3010
0110
,
0000
0100
0001
0100
0001
0010
0100
1000
,
0000
0000
1000
0010
0000
0010
0100
0001
,
0011
0000
0010
0100
0000
0100
0000
1000
,
0000
0001
0100
0000
2002
0000
0000
0000
,
0000
3003
0000
0000
;

//--------------- dance-single - ----------------
#NOTES:
     dance-single:
     :
     Challenge:
     15:
     0.723625,0.683159,0.011108,0,0.027771,456,455,1,0,0,0,0.723625,0.683159,0.011108,0,0.027771,456,455,1,0,0,0:
0000
0000
0000
0000
,
0000
0000
0000
0000
,
0001
0101
0000
1000
1100
0000
0001
0101
,
0000
0000
0110
0000
0000
0000
1001
0000
0000
0000
0001
0010
0100
0000
0000
0000
,
0011
0000
1100
0000
0011
1100
1000
0101
,
0000
0000
0110
0000
0000
0000
1100
0000
0001
0000
1000
0100
0010
0000
0100
0000
,
1000
0000
0001
0100
0010
0000
0001
0010
0100
0000
0001
0000
1000
0000
1100
0000
,
0000
0000
0011
0000
0000
0000
0101
0000
1000
0000
0001
0010
0100
0000
0010
0001
,
1000
0000
0010
0000
0101
0000
0000
0000
1010
0000
0101
0000
0001
0000
1000
0001
,
0100
0020
0100
0230
0000
0302
0000
1003
,
1100
0000
0100
0010
0001
0000
1000
0010
0100
0000
1000
0000
0100
0000
0001
0000
,
0000
1010
0000
0101
1100
0000
0000
0000
,
1000
0000
0001
0000
0100
0000
0001
0000
0100
0000
0010
0000
1000
0000
0001
0010
,
0001
0000
0100
0000
0010
0000
1000
0100
1000
0000
0001
0000
0100
0000
0010
0000
,
0100
0000
0010
1000
0001
0000
0010
0100
0010
0000
0100
1000
0001
0000
0100
0010
,
0100
0000
0001
0000
0010
0000
0100
0000
1000
0010
0200
0000
0000
0000
0310
0000
,
1000
0000
0100
0000
0010
0000
0001
0100
0001
0000
0010
0000
0100
0000
1100
0000
,
0000
0000
1010
0000
0000
0000
0101
0000
0001
0000
0100
0000
0010
0000
1000
0001
,
0010
0000
0010
0100
0010
0000
0100
1000
0010
0000
0010
0100
0001
0000
0010
0000
,
0110
0000
0000
1001
0000
0000
0000
0000
,
0101
0000
0001
0100
0010
0000
0100
0001
0100
0001
1000
0010
0100
0001
0100
0001
,
0010
0000
0010
0001
1000
0000
0100
1000
0100
1000
0001
0010
0100
1000
0100
1000
,
0010
0000
0010
1000
0001
0000
0100
0010
0100
0010
1000
0001
0010
0100
0010
0100
,
1000
0000
0000
0000
0000
0000
0002
0000
0000
0000
0000
0000
0023
0000
0000
0000
0000
0000
0230
0000
0000
0000
0000
0000
2300
0000
0000
0000
0000
0000
3001
0000
0010
0000
0100
0000
2000
0000
0000
0000
0000
0000
3010
0000
0000
0100
0000
0000
,
0001
0010
1000
0001
0100
1000
0001
0001
,
1000
0010
0001
1000
0100
0001
1000
1000
,
0100
0000
0010
0001
1000
0000
0010
0100
0010
0000
0100
0001
1000
0001
1000
0100
,
0010
0000
0100
1000
0001
0000
0102
0000
0000
0000
1000
0000
1003
0000
0000
0000
,
0101
0000
0010
0000
0010
0000
1000
0000
1100
0000
0010
0000
0010
0000
0001
1000
,
0100
0000
0000
0000
1100
0000
0011
0000
0000
0000
0101
0000
0000
0000
0001
1000
,
0010
0100
0100
0001
0011
0100
0100
1000
,
1100
0000
0000
0000
0011
0000
1100
0000
0000
0000
1100
0000
0000
0000
1000
0001
,
1000
0010
0100
0010
0100
0001
1000
1000
,
0101
0010
0100
0010
0100
0001
0001
0010
,
1100
0000
0010
0101
0000
1001
0000
1100
,
0000
1000
0010
0100
0002
1000
1003
0000
,
0101
0010
0101
0010
1100
0010
1100
0010
,
0101
0010
1100
0010
0101
0010
1100
0010
,
1001
0000
0010
0110
0000
1010
0000
0101
,
0000
1100
0000
1001
0000
0001
1000
1100
,
0000
0000
1000
0010
0100
0000
1000
0100
0010
0000
0100
0000
0102
0000
0000
0000
,
1003
0000
0001
0100
0001
0000
0010
0000
0100
0000
1100
0000
0000
0000
1001
0000
,
0000
0000
1000
0100
0001
0000
0100
0000
1000
0000
0001
0100
1000
0000
0100
0000
,
0101
0000
0001
0000
1100
0000
1000
0001
0100
0000
0110
0000
0000
0000
1001
0000
,
0000
0000
0001
0010
0100
0000
0010
0100
1000
0000
1100
0000
0010
0000
0101
0000
,
0000
0000
1000
0010
0100
0000
0010
0100
0001
0000
0101
0000
0010
0000
1100
0000
,
0000
0000
0001
0100
0001
0000
0010
0100
0010
0000
0100
1000
0001
0000
0101
0000
,
0000
0000
1100
0000
0000
0000
0001
0010
0100
1000
0001
0010
0100
1000
0010
0000
,
0000
0000
0100
0001
0010
0000
0100
0010
0001
0000
0100
0000
0102
0000
0000
0000
,
1003
0000
0010
0100
0010
0000
1000
0000
0100
0000
0011
0000
0000
0000
0101
0000
,
0001
0000
0100
0001
0010
0000
1000
0000
0001
0000
0100
1000
0001
0000
0100
0000
,
1000
0100
0001
0101
0000
1010
0000
0101
,
0001
0010
0100
1000
1100
1000
0010
0100
,
0101
1001
1100
1001
0000
1000
0010
0100
,
0001
0000
1000
0100
1000
0000
0010
0100
0010
0000
0100
0001
0010
0100
1000
0000
,
0000
0000
0000
0000
,
0001
1000
0100
1100
0000
1000
0001
0101
,
0000
0100
0001
1002
0000
0010
0013
0110
,
0000
1000
0001
1000
0001
0100
0010
2000
,
0000
0000
0001
3002
0000
0013
0100
0010
,
0011
0000
0110
1100
0000
1100
0000
0101
,
0000
0001
0100
0000
0220
0000
0000
0000
,
0000
0330
0000
0000
;
