#TITLE:檄!帝国華撃団;
#SUBTITLE:;
#ARTIST:帝国歌劇団;
#TITLETRANSLIT:Geki! Teikoku-Kagekidan;
#SUBTITLETRANSLIT:;
#ARTISTTRANSLIT:Shinguji Sakura;
#GENRE:ANIME;
#CREDIT:;
#MUSIC:Geki! Teikoku-Kagekidan.ogg;
#BANNER:Geki! Teikoku-Kagekidan.png;
#BACKGROUND:Geki! Teikoku-Kagekidan-bg.png;
#CDTITLE:;
#SAMPLESTART:50.151;
#SAMPLELENGTH:13.502;
#SELECTABLE:YES;
#OFFSET:-0.647;
#BPMS:0.000=142.659;
#STOPS:;
#DISPLAYBPM:143.000;
#BGCHANGES:3.750=Geki! Teikoku-Kagekidan.avi=1.000=0=0=0=StretchNoLoop====,
99999.000=-nosongbg-=1.000=0=0=0=StretchNoLoop====
;
#FGCHANGES:;

//--------------- dance-single - ----------------
#NOTES:
     dance-single:
     :
     Hard:
     11:
     0.606981,0.61343,0.689006,0.493787,0.086126,370,310,60,43,0,0,0.606981,0.61343,0.689006,0.493787,0.086126,370,310,60,43,0,0:
0000
0000
0000
0000
,
0011
0000
0000
1100
0000
0000
1010
0000
0000
0101
0000
0000
1001
0000
0000
0110
,
0000
0000
0001
0010
0100
0010
0001
0010
,
1100
0000
0000
0011
0000
0000
0000
0000
1000
0000
0100
0000
0010
0000
0001
0000
,
1100
0000
0101
0000
1100
0000
0001
0100
,
0001
0000
0010
0100
1000
0000
0010
0100
,
0001
0100
0010
1000
0100
0000
0100
0001
,
0100
0000
1000
0010
0100
0000
0001
0010
,
0100
1000
0010
1000
0200
0000
0310
0000
,
0011
0011
0011
0000
0001
0100
0001
0100
,
1010
1010
1010
0000
1000
0100
1000
0010
,
0100
0000
0001
0010
0100
1000
0001
1000
,
0010
0100
0010
0100
0001
0000
1001
0000
,
0001
0010
0100
1000
0100
0000
0110
0000
,
0001
0100
0010
0100
0001
0000
1010
0000
,
1000
0100
0001
0100
1000
0000
0001
0100
,
1000
0000
0100
0000
0001
0010
0001
0010
,
0100
0000
1000
0100
0010
0001
0010
0001
,
0010
0000
0010
0001
0100
0000
1001
1000
,
0010
0100
0100
0001
0010
0100
2000
0000
,
0002
3003
0110
0000
0001
0010
0001
0010
,
0001
0100
0010
1000
0001
0000
1001
0000
,
1000
0100
0010
0001
1000
0000
1001
0000
,
0001
1000
0010
0100
0001
0000
0001
0010
,
1000
0000
0010
0001
0100
1000
0100
0001
,
0020
0000
0031
1000
0010
0100
1000
0100
,
0001
0000
1000
0010
0100
0000
0001
0010
,
0100
1000
0001
0010
0100
1000
0001
0000
,
1000
0100
0100
0001
1000
0010
0010
0001
,
1000
0100
0100
0001
1100
0000
0110
0000
,
0011
0000
1001
0000
0001
0010
0001
0010
,
0100
1000
0001
0000
1010
0000
0011
0000
,
2010
0000
0000
3200
0320
0032
0023
0230
,
2300
0001
3001
0000
0011
0000
0110
0000
,
1100
0000
1001
0000
1000
0010
0100
0001
,
1000
0000
0001
0010
0100
1000
0200
0320
,
0032
0000
0000
2003
3002
0203
0320
2030
,
3002
1000
1003
0000
1100
0000
0101
0000
,
1001
0000
1001
0000
1000
0001
1000
0001
,
0100
0000
0100
0001
1010
0000
0011
0000
,
1002
0000
0000
2003
3020
0230
0302
0023
,
0230
1000
1300
0000
1010
0000
0011
0000
,
0101
0000
0110
0000
1000
0100
0001
0100
,
1000
0000
0100
1000
0010
0100
0002
0023
,
0200
0000
0000
0000
0000
0000
0000
0000
0000
0000
0000
0000
0000
0000
0000
0000
0000
0000
0000
0000
0000
0000
0000
0000
0000
0330
0000
0000
0000
0000
0000
0000
0000
0000
0000
0000
0000
2200
0000
0000
0000
0000
0000
0000
0000
3300
0000
0000
0000
0202
0000
0000
0000
0000
0000
0000
0000
0000
0000
0303
0000
0000
0000
0022
0000
0000
0000
0000
0000
0000
0033
0000
0000
0000
0000
2020
0000
0000
0000
0000
0000
0000
3030
0000
0000
0000
0000
0220
0000
0000
0000
0000
0000
0000
0000
0000
,
0330
0000
2002
0000
0000
0000
0000
0000
3003
0000
0000
0000
0001
0000
0000
0000
0000
0000
0010
0000
0000
0000
0000
0000
0100
0000
0000
0000
0000
0000
0000
0000
0000
1000
0000
0000
0000
0000
0000
0000
0000
0000
0100
0000
0000
0000
0000
0000
,
0010
0000
0001
1000
0001
0100
0010
0100
,
1010
0000
0000
0101
0000
0000
0011
0000
0000
1010
0000
0000
1001
0000
0000
0110
,
0000
0000
0001
0100
1000
0100
0001
0010
,
1100
0000
0000
0012
0000
0000
0000
0000
0103
0000
0010
0000
0100
0000
0010
0000
,
0100
0001
0000
0001
1000
0000
0100
0010
;

//--------------- dance-single - ----------------
#NOTES:
     dance-single:
     :
     Challenge:
     15:
     0.751344,0.847118,0.861257,0.493787,0.459337,458,383,75,43,0,0,0.751344,0.847118,0.861257,0.493787,0.459337,458,383,75,43,0,0:
0000
0000
0000
0000
,
0011
0000
0000
1100
0000
0000
1010
0000
0000
0101
0000
0000
1001
0000
0000
0110
,
0000
0000
0000
0000
0000
0000
0001
0010
0001
0010
0000
0000
0100
1000
0100
1000
0000
0000
0001
0010
0100
1000
0000
0000
,
1100
0000
0000
0011
0000
0000
0000
0000
1000
0000
0100
0000
0010
0000
0001
0000
,
1100
0000
0000
0000
0101
0000
0000
0000
1100
0000
0000
0000
0001
0010
0100
1000
,
0001
0000
0000
0001
0010
0000
0100
0000
1000
0000
0000
1000
0010
0000
1000
0000
,
0001
0000
0100
0000
1000
0000
0100
0000
0001
0000
0001
0010
0100
0010
0001
0010
,
0100
0000
0000
0100
1000
0000
0010
0000
0100
0000
0000
0100
0001
0000
0010
0000
,
0100
1000
0100
0001
0200
0000
0310
0000
,
0011
0000
0011
0000
0011
0000
0000
0000
0001
0010
0100
0010
0001
0000
0100
0000
,
1010
0000
1010
0000
1010
0000
0000
0000
1000
0010
0100
0010
1000
0000
0010
0000
,
0100
0000
0000
0100
0001
0000
0010
0000
0100
0000
1000
0100
1000
0000
1100
0000
,
0011
0000
0001
0100
0001
0000
1000
0100
1000
0000
0000
0000
1001
0000
0100
0000
,
0010
0000
0000
0001
0100
0000
0010
0000
0100
0000
0000
0000
0110
0000
0000
0000
,
1000
0010
0001
0010
1000
0001
0010
0100
,
1000
0000
0000
0100
0001
0000
0100
0000
0010
0000
0000
0000
0001
0000
0100
0000
,
1000
0000
0100
0000
0001
0010
0001
0010
,
0100
0000
1000
0100
0010
0001
0010
0001
,
0010
0000
0000
0000
0010
0000
0001
0000
0100
0000
0000
0000
1001
0000
1000
0100
,
0010
0001
0001
0010
0100
1000
0002
0000
,
2000
0000
3003
0000
0110
0000
0000
0000
0001
0010
0100
0010
0001
0010
0100
1000
,
0002
0000
0000
0100
0103
0000
0001
0000
1000
0000
0000
0000
1001
0000
0000
0000
,
1000
0100
0010
0001
0010
0000
0110
0100
,
2000
0000
0000
0010
3010
0000
1000
0000
0001
0000
0000
0000
0101
0000
0001
0000
,
1001
0000
0001
0000
0100
0010
0100
0000
1000
0000
0000
1000
0100
0000
0001
0000
,
0020
0000
0130
1000
0010
0100
1000
0100
,
0001
0000
1000
0010
0100
0000
0001
0110
,
1000
0110
0001
1001
0100
0001
1000
0000
,
0100
0000
1000
0100
1000
0010
1000
0001
0100
0001
0010
0001
0010
0100
1000
0001
,
0010
0001
1000
0010
1000
0001
0010
0100
1100
0000
0000
0000
0110
0000
0000
0000
,
0011
0000
1001
0000
0001
0010
0001
0010
,
0100
0000
1000
0000
0001
0100
0010
0000
1010
0000
0000
0000
0011
0000
0000
0000
,
2010
0000
0000
3200
0302
2003
3020
0032
,
0203
0000
0301
1000
0100
0010
0100
0000
0011
0000
0000
0000
0110
0000
0000
0000
,
1100
0000
1001
0000
0001
0001
0010
0100
,
1000
0010
0001
0010
0100
0001
0010
1000
,
0020
0000
0000
0032
0203
2300
3002
0023
,
2030
3001
0011
0100
1100
0000
0101
0000
,
1001
0000
1001
0000
0001
1000
0001
1000
,
0010
0100
0010
1000
0011
0000
1100
0000
,
0012
0000
0000
2003
3020
0032
2003
3200
,
0302
0000
1003
0100
0010
0100
1000
0000
1010
0000
0000
0000
0011
0000
0000
0000
,
0101
0000
0110
0000
1100
1100
0001
0010
,
0100
0001
0100
1000
0010
0100
0002
0023
,
0200
0000
0000
0000
0000
0000
0000
0000
0000
0000
0000
0000
0000
0000
0000
0000
0000
0000
0000
0000
0000
0000
0000
0000
0000
0330
0000
0000
0000
0000
0000
0000
0000
0000
0000
0000
0000
2200
0000
0000
0000
0000
0000
0000
0000
3300
0000
0000
0000
0202
0000
0000
0000
0000
0000
0000
0000
0000
0000
0303
0000
0000
0000
0022
0000
0000
0000
0000
0000
0000
0033
0000
0000
0000
0000
2020
0000
0000
0000
0000
0000
0000
3030
0000
0000
0000
0000
0220
0000
0000
0000
0000
0000
0000
0000
0000
,
0330
0000
2002
0000
0000
0000
0000
0000
3003
0000
0000
0000
0001
0000
0000
0000
0000
0000
0010
0000
0000
0000
0000
0000
0100
0000
0000
0000
0000
0000
0000
0000
0000
1000
0000
0000
0000
0000
0000
0000
0000
0000
0100
0000
0000
0000
0000
0000
,
0001
0000
0000
0001
0100
0000
1000
0000
0001
0010
0100
1000
0010
0100
0001
0010
,
1100
0000
0000
0101
0000
0000
0011
0000
0000
1010
0000
0000
1001
0000
0000
0110
,
0000
0000
0000
0000
0000
0000
1000
0010
1000
0010
0000
0000
0100
0001
0100
0001
0000
0000
1000
0010
0100
0001
0000
0000
,
0101
0000
0000
2100
0000
0000
0000
0000
3100
0001
0100
0010
0001
0100
1000
0100
,
0110
1010
0000
0011
0101
0000
1100
1001
;
