#TITLE:がんばれ! 蜘蛛子さんのテーマ;
#SUBTITLE:;
#ARTIST:私 (悠木碧);
#TITLETRANSLIT:Ganbare! Kumoko-san's Theme;
#SUBTITLETRANSLIT:;
#ARTISTTRANSLIT:Yuki Aoi;
#GENRE:ANIME;
#CREDIT:;
#MUSIC:Ganbare! Kumoko-san's Theme.ogg;
#BANNER:Ganbare! Kumoko-san's Theme.png;
#BACKGROUND:Ganbare! Kumoko-san's Theme-bg.png;
#CDTITLE:;
#SAMPLESTART:17.877;
#SAMPLELENGTH:10.105;
#SELECTABLE:YES;
#OFFSET:1.052;
#BPMS:0.000=190.000
,124.000=125.000
,156.000=140.000
,160.000=155.000
,164.000=172.000
,168.000=175.000
,172.000=185.000
,185.000=190.000
;
#STOPS:;
#LASTBEATHINT:0.235667;
#BGCHANGES:3.000=Ganbare! Kumoko-san's Theme.avi=1.000=0=0=0=StretchNoLoop====,
99999.000=-nosongbg-=1.000=0=0=0=StretchNoLoop====
;
#FGCHANGES:;

//--------------- dance-single - ----------------
#NOTES:
     dance-single:
     :
     Hard:
     15:
     0,0,0,0,0:
0000
0000
0000
0000
,
0001
1000
0001
1000
0010
1000
0010
1000
,
0001
0010
0001
0010
0100
0010
0100
1000
,
0001
0100
0001
0100
0010
1000
0010
1000
,
0001
0010
0001
0010
0001
1000
0001
1000
,
0001
0100
0001
0000
0100
0010
0100
0000
0010
1000
0010
0000
1000
0001
1000
0001
,
0020
0000
0000
0000
0000
0130
1001
0000
,
0001
1000
0001
1000
0000
0001
0100
0010
,
0200
0000
0301
2000
0000
3001
0010
0100
,
0000
1000
0002
0000
1003
0001
1000
0010
,
0200
0000
0301
1000
1001
0000
1001
0000
,
2000
3200
0320
0230
,
2300
0000
3001
0100
0000
0100
0001
1000
,
0100
0010
0100
0010
0001
1000
0001
1000
,
0001
0100
0001
0100
0001
0100
1001
0000
,
0001
0001
1000
1000
0100
0001
0100
1000
,
0001
0100
0001
0100
0010
1000
1001
0000
,
1000
1000
0001
0001
0100
1000
0100
0002
,
0000
1003
0100
0010
0100
1000
1001
0000
,
0001
0100
0001
1000
1000
0100
1000
0002
,
0000
0000
0103
0010
0100
0001
0011
0000
,
0010
0100
1000
0100
1000
0001
0100
0010
,
0110
1001
0110
1001
,
1000
0100
0001
0100
1000
0000
1001
0000
,
0001
0100
1000
0100
0001
1001
1001
0000
,
1000
0010
0100
0010
1000
0010
0100
0001
,
2000
0000
0000
0000
3002
0000
0000
0000
2003
0000
0000
0000
0001
0000
0000
3000
,
0001
0010
0000
0010
0100
1000
0001
1000
,
1100
0011
1100
1001
,
0001
0010
1100
0000
0011
0000
1010
0000
,
1001
0000
1001
0000
2002
0000
0000
3003
,
2000
0000
0000
0000
0000
0000
0000
0000
0000
3002
0203
0302
,
0023
0000
0000
0000
0000
0000
0000
0000
0000
0230
0000
0310
,
0002
0000
0000
2003
3020
0000
0230
0000
,
0302
0000
0000
0000
0000
0000
0000
0000
0000
0000
0000
0000
0000
0000
0000
0000
0000
0000
0000
0000
0000
0000
0000
0000
0000
0000
0000
0000
0000
0000
0000
0000
0000
2003
0000
0000
0000
0000
3020
0000
0000
0000
0000
2030
0000
0000
0000
0000
,
3002
0000
0000
0000
0000
0000
0000
0000
0000
0000
0000
0000
0000
0000
0000
0000
0000
0000
0000
0000
0000
0000
0000
0000
0000
0000
0000
0000
0000
0000
0000
0000
0000
0000
0000
0000
0000
0000
0000
0000
0000
0000
0000
0000
0000
0000
0000
0000
0000
0000
0000
0000
0000
0000
0000
0000
0000
0000
0000
0000
0000
0000
0000
0000
0000
0000
0000
0000
0000
0000
0000
0000
0000
0000
0000
0000
0000
0000
0000
0000
0000
0000
0000
0000
0000
0000
0000
0000
0000
0000
0000
0000
0000
0000
0000
0000
0000
0000
0000
0000
0000
0000
0000
0000
0000
0000
0000
0000
0000
0000
0000
0000
2003
0000
0000
0000
0000
0000
0000
0000
0000
0000
0000
0000
0000
0000
0000
0000
0000
0000
0000
0000
0000
0000
0000
0000
0000
0000
0000
0000
0000
0000
0000
0000
3200
0000
0000
0000
0000
0000
0000
0000
0000
0000
0000
0000
0000
0000
0000
0320
0000
0000
0000
0000
0000
0000
0000
0000
0000
0000
0000
0000
0000
0000
0000
0000
0000
0230
0000
0000
0000
0000
0000
0000
0000
0000
0000
0000
0000
0000
0000
0000
,
0300
2000
0000
0000
0000
0000
0000
0000
0000
0000
0000
0000
0000
0000
0000
0000
0000
0000
0000
0000
0000
0000
0000
0000
0000
0000
0000
0000
0000
0000
0000
0000
0000
0000
0000
0000
0000
0000
0000
0000
0000
3020
0000
0000
0000
0000
0000
0230
0000
0000
0000
0000
0000
0000
0000
0000
0000
0000
0000
0000
0302
0000
0000
0000
,
0000
2003
0000
0000
0000
0000
0000
0000
0000
0000
0000
0000
0000
0000
0000
0000
3002
0000
0000
0000
0000
0000
0000
0000
0000
0000
0000
0000
0000
0000
0000
0000
0203
0000
0000
0000
0000
0000
0000
0000
0000
0000
0000
0320
0000
0000
0000
0000
0000
0000
0000
0000
0000
0000
0000
0230
0000
0000
0000
0000
0000
0000
0000
0000
,
0302
0000
0000
0000
,
0103
0000
0000
0100
0000
0000
0001
0000
2000
0000
0000
0000
3001
0000
0000
0000
,
0001
0000
0000
0001
0000
0000
1000
0000
0002
0000
0000
0000
1003
0000
0000
0000
,
1000
0000
0000
1000
0000
0000
0001
0000
0200
0000
0000
0000
0310
0000
0000
0000
,
0001
0000
0000
0001
0000
0000
1000
0000
0200
0000
0000
0000
0310
0000
0000
0000
,
0001
1000
0001
1000
0010
0100
0010
0100
,
0001
0010
0001
0010
0100
1000
0100
1000
,
0001
0000
1000
0100
1000
0000
0001
0100
0001
0000
1000
0100
1000
0000
0001
0000
,
0010
0100
0010
0000
0100
0010
0100
0000
1000
0010
1000
0010
1000
0010
1000
0010
,
0100
0000
0001
1000
0001
0000
1000
0000
1001
0000
0000
0000
1001
0000
0000
0000
,
1001
0000
1000
0100
0000
1000
0100
0000
0010
0000
0001
0100
0000
0001
0100
0000
,
0010
0000
1000
0100
0000
1000
0100
0000
0010
0000
0100
0000
1000
0001
1000
0000
,
0010
0000
0100
0001
0000
0100
0001
0000
0010
0000
0100
1000
0000
0100
1000
0000
,
0010
0100
0001
2000
0001
0001
0001
3001
,
1000
0000
0001
0100
0000
0001
1000
0000
0010
0000
1000
0100
0000
1000
0001
0000
,
0010
0000
0100
1000
0000
1000
0002
0000
1000
0000
1000
0000
1000
0000
1003
0000
,
0001
0000
0001
0100
0000
0100
0010
0000
1000
0000
0100
0010
0000
0010
0001
0000
,
0100
0001
0100
0000
0010
0100
0010
0000
1000
0100
0010
0100
2000
0000
0000
0000
,
3010
0000
0100
0001
0100
0001
1000
0000
0100
0000
0010
0001
0010
0001
1000
0000
,
0010
0000
0100
0010
0100
0010
1000
0000
0100
0010
0100
0010
0002
0000
0000
0000
,
0013
0000
0001
0100
0010
0100
0001
0000
0010
0000
0001
1000
0100
1000
0001
0000
,
1000
0000
0001
0010
0100
0010
0001
0010
0200
0000
0000
0000
2300
0000
0000
0000
,
3001
0000
1000
0001
1000
0001
1000
0001
1000
0001
1000
0001
1000
0001
1000
0001
,
1000
0001
1000
0001
1000
0001
1000
0001
1000
0000
0001
0000
2000
0000
0000
0000
,
3001
0000
1000
0001
1000
0001
1000
0001
1000
0001
1000
0001
1000
0001
1000
0001
,
1000
0000
0001
0100
0001
0000
1000
0100
1000
0000
0001
0100
0001
0000
1000
0100
,
1000
2002
0000
0000
,
0000
0000
0000
0000
0000
0000
0000
3003
,
0001
1000
0001
0000
0000
0000
0000
0000
0000
0000
0000
0000
0000
0000
0000
0000
;

//--------------- dance-single - ----------------
#NOTES:
     dance-single:
     :
     Challenge:
     17:
     0.93579,1.211363,0.51072,0.643951,0.849349,590,544,46,58,0,0,0.93579,1.211363,0.51072,0.643951,0.849349,590,544,46,58,0,0:
0000
0000
0000
0000
,
0001
0100
0001
0100
0001
1000
0001
1000
,
0100
0000
0010
0000
0100
0000
0010
0000
0100
1000
0001
0000
0100
0000
0010
0000
,
1000
0000
0100
0000
1000
0000
0001
0000
0100
0001
0010
0000
0100
0000
0010
0001
,
0100
0000
0010
0000
0100
0000
0010
1000
0001
0000
0010
0000
0100
1000
0001
0000
,
1000
0100
0010
0100
1000
0100
0010
0001
0010
0100
1000
0010
0100
0010
1000
0010
,
0200
0000
0000
0000
0000
0000
0000
0000
0000
0000
0310
1000
0100
0000
0000
0000
,
0110
0100
1000
0001
0000
0001
0100
1000
,
0200
0000
0310
2000
0000
3001
0010
0110
,
0000
0100
2000
0000
3010
1000
0001
0010
,
0200
0000
0000
0000
1000
0000
1300
0000
1010
0000
0000
0000
1000
0001
1000
0001
,
0020
0100
0230
1000
2300
0001
3002
0100
,
0203
0000
1300
0100
0000
0100
0001
1000
,
0001
0010
0001
0010
0100
1000
0100
1000
,
0002
1000
1000
1000
1000
1003
1001
0000
,
1001
0000
0001
0100
0001
0000
1000
0100
1000
0000
0100
0000
1000
0000
0100
0000
,
0010
0100
1000
0001
0101
1010
0101
0000
,
1001
0000
1000
0010
1000
0000
0001
0010
0001
0000
0100
0000
1000
0000
0200
0000
,
0000
0301
0010
0100
1000
0100
0110
0000
,
0010
0001
0100
0000
0010
0000
0100
0001
1000
0000
0100
0000
0010
0000
0120
0000
,
0000
0000
0130
1000
1001
0110
1001
0000
,
0001
1000
0001
0100
0010
1000
0010
0000
0100
0000
0001
0000
1000
0000
0100
0000
,
0011
0000
0000
0100
1000
0000
0000
0000
1010
0000
0000
0000
1001
0000
0000
0000
,
0001
0100
1000
0100
0001
0000
1001
0000
,
1000
0100
0001
0100
1000
1100
0011
0000
,
0001
0010
0100
0010
0001
0010
0100
1000
,
1001
0001
1001
1000
1002
0000
1000
1003
,
1000
0100
1000
0001
0100
0001
1000
0100
1000
0001
0100
0001
1000
0000
0001
0000
,
1001
0001
0011
0010
0110
0000
1001
0000
,
2000
0100
3002
0100
2003
0010
3002
0013
,
1010
1000
0101
0001
2001
0000
0000
0000
,
3002
0000
0000
0000
0000
0000
0000
0000
0000
2003
3200
2300
,
3020
0000
0000
0000
0000
0000
0000
0000
0000
0230
0000
0310
,
2010
0000
0000
3002
0023
0000
0230
0000
,
2300
0000
0000
0000
0000
0000
0000
0000
0000
0000
0000
0000
0000
0000
0000
0000
0000
0000
0000
0000
0000
0000
0000
0000
0000
0000
0000
0000
0000
0000
0000
0000
0000
3002
0000
0000
0000
0000
0023
0000
0000
0000
0000
0032
0000
0000
0000
0000
,
2003
0000
0000
0000
0000
0000
0000
0000
0000
0000
0000
0000
0000
0000
0000
0000
0000
0000
0000
0000
0000
0000
0000
0000
0000
0000
0000
0000
0000
0000
0000
0000
0000
0000
0000
0000
0000
0000
0000
0000
0000
0000
0000
0000
0000
0000
0000
0000
0000
0000
0000
0000
0000
0000
0000
0000
0000
0000
0000
0000
0000
0000
0000
0000
0000
0000
0000
0000
0000
0000
0000
0000
0000
0000
0000
0000
0000
0000
0000
0000
0000
0000
0000
0000
0000
0000
0000
0000
0000
0000
0000
0000
0000
0000
0000
0000
0000
0000
0000
0000
0000
0000
0000
0000
0000
0000
0000
0000
0000
0000
0000
0000
3002
0000
0000
0000
0000
0000
0000
0000
0000
0000
0000
0000
0000
0000
0000
0000
0000
0000
0000
0000
0000
0000
0000
0000
0000
0000
0000
0000
0000
0000
0000
0000
0203
0000
0000
0000
0000
0000
0000
0000
0000
0000
0000
0000
0000
0000
0000
2300
0000
0000
0000
0000
0000
0000
0000
0000
0000
0000
0000
0000
0000
0000
0000
0000
0000
3200
0000
0000
0000
0000
0000
0000
0000
0000
0000
0000
0000
0000
0000
0000
,
0300
0002
0000
0000
0000
0000
0000
0000
0000
0000
0000
0000
0000
0000
0000
0000
0000
0000
0000
0000
0000
0000
0000
0000
0000
0000
0000
0000
0000
0000
0000
0000
0000
0000
0000
0000
0000
0000
0000
0000
0000
0023
0000
0000
0000
0000
0000
0230
0000
0000
0000
0000
0000
0000
0000
0000
0000
0000
0000
0000
2300
0000
0000
0000
,
0000
3002
0000
0000
0000
0000
0000
0000
0000
0000
0000
0000
0000
0000
0000
0000
2003
0000
0000
0000
0000
0000
0000
0000
0000
0000
0000
0000
0000
0000
0000
0000
3200
0000
0000
0000
0000
0000
0000
0000
0000
0000
0000
0320
0000
0000
0000
0000
0000
0000
0000
0000
0000
0000
0000
0230
0000
0000
0000
0000
0000
0000
0000
0000
,
2300
0000
0000
0000
,
3100
0000
0000
0100
0000
0000
1000
0000
1001
0000
0000
0000
1001
0000
0000
0000
,
0100
0000
0000
0100
0000
0000
0001
0000
1001
0000
0000
0000
1001
0000
0000
0000
,
0001
0000
0000
0001
0000
0000
1000
0000
1100
0000
0000
0000
1100
0000
0000
0000
,
1000
0000
0000
1000
0000
0000
0001
0000
0101
0000
0000
0000
0101
0000
0000
0000
,
0001
1000
0001
1000
0010
0100
0010
0100
,
0001
0010
0001
0010
0100
1000
0100
1000
,
0001
0100
0010
1000
0001
0100
0010
1000
0001
0010
0100
1000
0001
0010
0100
1000
,
0100
0010
0001
1000
0100
0010
0001
1000
0010
0100
0010
0100
0010
0100
0010
0100
,
0010
0000
0100
0001
1000
0000
0001
0000
1001
0000
0000
0000
1001
0000
0000
0000
,
0011
0000
1000
0100
0000
1000
0100
0010
0001
0000
0001
0100
0000
0001
0100
0010
,
1000
0000
1000
0100
0000
1000
0100
0010
0001
0000
1001
0000
0001
0100
0001
0100
,
0010
0000
0010
1000
0000
0010
1000
0010
0100
0000
0100
0001
0000
0100
0001
0100
,
0010
0100
1000
0200
0010
0010
0010
0310
,
0110
0000
0010
1000
0000
1000
0100
0010
0001
0000
0100
0001
0000
0001
0010
0100
,
1000
0000
0100
0010
0000
0010
0002
0000
1000
0000
1000
0000
1000
0000
1003
0000
,
1001
0000
0001
1000
0000
0001
0100
0001
0100
0000
0001
1000
0000
0001
1000
0100
,
1000
0001
1000
0100
1000
0001
0100
0001
1000
0001
0100
0001
2000
0000
0000
0000
,
3001
0010
0001
0010
0100
1000
0100
1000
0001
0100
0001
0100
0010
1000
0010
1000
,
0001
0010
0001
0010
0001
0010
0001
0010
0100
1000
0001
0010
0200
0000
0000
0000
,
0310
0000
0001
0100
0001
0100
0010
1000
0010
1000
0001
0100
0010
1000
0001
0100
,
0010
0000
0010
1000
0001
1000
0001
1000
0002
0000
0000
0000
2003
0000
0000
0000
,
3100
0000
0010
0100
1000
0001
1000
0001
0100
0010
0100
0010
1000
0010
0100
0001
,
0100
0010
1000
0001
1000
0001
0100
0010
2000
0000
0001
0000
3002
0000
0000
0000
,
0013
0000
0100
1000
0100
0010
0001
0010
0001
1000
0001
0100
0010
0100
0001
0100
,
1000
0000
1000
0100
0001
0000
0001
0100
1000
0000
1000
0100
0001
0000
0001
0010
,
0100
0220
0000
0000
,
0000
0000
0000
0000
0000
0000
0000
0330
,
0100
1000
0001
0000
0000
0000
0000
0000
0000
0000
0000
0000
0000
0000
0000
0000
;
