#TITLE:ギャンブル;
#SUBTITLE:;
#ARTIST:syudou;
#TITLETRANSLIT:Gambling;
#SUBTITLETRANSLIT:;
#ARTISTTRANSLIT:syudou;
#GENRE:POP;
#CREDIT:;
#MUSIC:Gambling.ogg;
#BANNER:Gambling.png;
#BACKGROUND:Gambling-bg.png;
#CDTITLE:;
#SAMPLESTART:54.595;
#SAMPLELENGTH:10.102;
#SELECTABLE:YES;
#OFFSET:0.201;
#BPMS:0.000=196.000;
#STOPS:;
#BGCHANGES:1.750=Gambling.avi=1.000=0=0=0=StretchNoLoop====,
99999.000=-nosongbg-=1.000=0=0=0=StretchNoLoop====
;
#FGCHANGES:;

//--------------- dance-single - ----------------
#NOTES:
     dance-single:
     :
     Medium:
     13:
     0,0,0,0,0:
0000
0000
0000
0000
,
0100
0001
0100
0001
1000
0100
1000
0100
,
0010
0001
0100
0001
0010
0001
0100
0000
,
0010
1000
0010
1000
0001
0010
0001
0010
,
0100
1000
0010
1000
0100
1000
0010
0000
,
1000
0100
0010
0001
1000
0100
0010
0001
,
1000
0100
0001
0100
1000
0100
0010
0000
,
0001
0100
0010
1000
0001
0100
0010
1000
,
0001
0000
0000
0000
0000
0100
1001
0000
,
0001
0100
0010
1000
0001
0010
0100
1000
,
0001
0100
0010
1000
0001
0010
0100
1000
,
0001
0100
0010
1000
0001
0010
0100
1000
,
1001
0110
1001
0110
,
1000
0100
0010
0001
1000
0010
0100
0001
,
1000
0100
0010
0001
1000
0010
0100
0001
,
1000
0100
0010
0001
1000
0010
0100
0001
,
1001
0110
1001
0110
,
1000
0010
1000
0010
1000
0100
1000
0100
,
0011
0000
1100
0000
1000
0100
0011
0000
,
0001
0010
0001
0010
0001
0100
0001
0100
,
1010
0000
0101
0000
0001
0100
1010
0000
,
0010
0100
0001
0010
0100
1000
0010
0100
,
0110
0000
1001
0000
0010
0100
1001
0000
,
0010
0100
1000
0010
0100
0001
0010
0001
,
0011
1000
1010
0001
1001
1000
0001
1000
,
0010
0100
0010
0100
0001
0010
0001
0010
,
0100
1000
0010
0001
1000
0100
0001
0010
,
0100
0000
0011
0000
1100
0000
0101
0200
,
0001
0000
0010
0000
1000
0000
0310
1000
,
0010
0100
0010
0100
0001
1000
0001
1000
,
0100
0001
1000
0010
0001
0010
1000
0001
,
0100
0000
1100
1000
0011
0000
0101
0001
,
1010
0000
1000
0010
0100
1001
0000
0011
,
0000
1000
0001
0100
1000
0000
0100
0001
,
0010
0000
1000
0010
0001
0100
0010
0001
,
0000
1000
0100
0001
1000
0000
0001
0010
,
0100
0000
0001
0100
1000
0010
0001
0010
,
1000
0010
0100
0001
1001
0000
0011
0100
,
1000
0100
0001
0100
0110
0000
1001
0001
,
0100
0010
1000
0001
0011
0000
1100
1000
,
0001
0100
1000
0100
0110
0000
0010
1000
,
0101
0000
0001
0010
1100
0000
1000
0100
,
0002
0203
2300
3020
,
0130
1000
0100
0001
0100
1000
0100
0010
,
1001
0000
0000
0000
0000
0010
1001
0000
,
1000
0100
0010
0100
1000
0010
0100
0001
,
0100
0010
1000
0001
1000
0100
0110
0000
,
0011
0000
1100
1000
0010
0100
0001
1000
,
0011
1100
1010
0101
,
1001
0000
1000
0001
0100
1000
0001
0010
,
1000
0100
0001
0100
1000
0001
0100
0000
,
0010
1000
0100
0011
0000
0001
0010
1100
,
0000
1000
0100
0010
0001
1000
0001
0100
,
0001
0100
1000
0100
0001
0010
0100
1000
,
0001
0010
0001
0010
1000
0010
0001
0000
,
1000
0100
0010
0001
1000
0001
0100
0010
,
1000
0001
1000
0100
0020
0000
0032
0000
,
2003
0000
3010
0100
0010
0100
0001
0100
,
1000
0100
0010
0100
0010
0001
0010
1000
,
0010
0110
0000
1010
0000
1000
0010
0101
,
0000
0011
0001
0010
0100
1000
0001
0100
,
0110
0000
1010
0000
1100
0000
1000
0101
,
0000
0001
0010
0100
0011
0000
1100
0000
,
1001
0000
1001
0000
0011
0000
0010
1100
,
0000
0001
0100
0010
1001
0000
0110
1000
,
0001
0000
0110
0001
1000
0000
0110
1000
,
0001
0100
0010
1000
0001
0010
0100
1000
,
2100
3000
0201
0300
0012
0003
1020
0030
,
2100
3000
0201
0300
0012
0003
1001
0010
,
0100
0000
1001
0100
0010
0000
0010
1000
,
0100
0001
0100
1000
1010
0000
1001
0000
,
0001
0110
0000
1100
0000
0100
0010
0101
,
0000
0001
1000
1100
0101
0000
0000
0000
;

//--------------- dance-single - ----------------
#NOTES:
     dance-single:
     :
     Hard:
     16:
     0,0,0,0,0:
0000
0000
0000
0000
,
0001
0100
0001
1000
0100
0010
0100
0010
,
0001
0010
0001
1000
0010
0100
0010
0100
,
0001
1000
0001
0010
0100
1000
0100
0010
,
0100
1000
0001
1000
0001
0100
0110
0000
,
1000
0100
1000
0010
0100
0010
0100
0001
,
0010
0001
1000
0010
0100
0010
0100
0001
,
1000
0000
0001
0100
0001
0000
1000
0100
1000
0000
0010
0100
0010
0100
0010
0100
,
0010
0000
0000
0000
0000
0000
0000
0000
0000
0000
0100
0001
1000
0000
0000
0000
,
0001
0000
1000
0100
1000
0000
0100
1000
0001
0000
0100
0001
0100
0000
0010
0000
,
1000
0000
0001
0100
0001
0000
0100
0001
1000
0000
0100
1000
0100
0000
0010
0000
,
0001
0000
1000
0100
1000
0000
0010
1000
0001
0000
0100
0001
0100
0000
0010
0000
,
1001
0110
1001
0110
,
0001
0000
1000
0010
1000
0000
0010
1000
0001
0000
0010
0001
0010
0000
0100
0000
,
1000
0000
0001
0010
0001
0000
0010
0001
1000
0000
0010
1000
0010
0000
0100
0000
,
0001
0000
1000
0010
1000
0000
0100
1000
0001
0000
0010
0001
0010
0000
0100
0000
,
1001
0110
1001
0110
,
1000
0000
0010
0000
0100
0000
0001
1000
0001
0000
0010
0000
0100
0000
1000
0000
,
0001
0000
0100
0000
0001
0000
0100
0000
0010
0000
1000
0100
1000
0000
0001
0000
,
0010
0000
0001
0000
0010
0000
0100
0000
1000
0000
0010
1000
0010
0000
0100
0000
,
0001
1000
0010
0100
0001
0010
1100
0000
,
0001
0000
0100
0000
0010
0000
0100
0000
0001
0000
0100
0000
0010
0000
1000
0001
,
0010
0000
0100
0000
1000
0000
0100
0010
0100
0000
1000
0000
0001
0000
0100
0010
,
0100
0000
0001
0000
0010
0000
0100
0000
1000
0000
0001
0000
0100
0000
0010
1000
,
0001
0001
1000
1000
0001
0100
0010
0100
,
1000
0000
0100
0001
0100
0000
1000
0000
0100
0000
0001
0100
0001
0000
0010
0000
,
1000
0000
0010
0000
0001
0000
0100
0000
0010
0000
0100
0000
0001
0000
0010
0100
,
0010
0000
1100
0000
0110
0000
0011
1000
,
0001
0100
0001
0000
0100
0010
0100
0000
0010
1000
0010
0000
0100
0001
0100
0000
,
0001
0000
0010
0000
1000
0000
0010
0001
0010
0000
1000
0000
0010
0000
0001
0010
,
0001
0000
0100
0000
1000
0000
0100
0000
0001
0000
0010
0000
0100
1000
0100
0000
,
1100
0011
1010
0101
,
1001
0010
0100
0001
1000
1001
0000
1001
,
0000
1000
0010
0100
1000
0001
0010
0100
,
0001
0010
1000
0001
0100
0001
1000
0010
,
0000
0010
0001
0100
1000
0001
0010
0001
,
1000
0100
0001
0010
0100
0001
0100
0110
,
0000
0010
0001
0100
0110
0000
0110
0010
,
1000
0100
0001
0100
0110
0000
0010
0011
,
0001
0100
0010
0100
1010
0000
1010
1000
,
0001
0010
0100
1000
1001
0000
1000
0100
,
0011
0000
0001
0100
1010
0000
1000
0001
,
0020
0100
2030
0001
3200
0010
2300
0010
,
3001
1000
0100
0001
0010
0100
1000
0100
,
0110
0000
0000
0000
0000
0000
0000
0000
0000
0000
0010
0001
1000
0000
0010
0000
,
0100
0001
0100
0010
1000
0010
0100
0001
,
0011
0010
0110
0100
1100
1000
1001
0000
,
0010
0000
1000
0000
0100
0000
0010
0001
0010
0000
0100
0000
1000
0000
0001
0000
,
0101
0100
0010
0100
0101
0001
1001
0000
,
0010
0001
1000
0001
0100
1000
0101
0000
,
0010
1000
0001
1000
0100
0001
1100
0000
,
1100
0100
0010
0011
0000
1000
0001
0110
,
0000
0000
0010
0000
1000
0000
0100
0000
0011
0000
0010
0001
1000
0000
0010
0100
,
0001
1000
0100
0010
0100
1000
0001
0100
,
0110
1000
1010
0100
0101
0010
0110
0000
,
1010
1000
0101
0001
0010
0100
1100
1000
,
0010
0100
0101
0001
0110
0010
1001
0000
,
1100
0100
0001
0100
1000
0001
0101
0000
,
0101
0100
1000
0100
0001
1000
1100
0001
,
0010
1100
0000
0011
0000
1100
0010
1001
,
0000
1010
0200
0001
0302
0023
0230
1300
,
0110
0000
0100
0001
0100
0000
0001
0000
1001
0000
1000
0100
1000
0000
0100
0000
,
0110
0000
0010
0001
0010
0000
0001
0000
0101
0000
0100
0010
0100
0000
0010
0000
,
1000
0000
0100
0010
0100
0000
0110
0000
0010
0000
0001
0100
0001
0000
0101
0000
,
0100
0000
0010
1000
0010
0000
1010
0000
1001
0000
0000
0000
0100
0000
0001
1000
,
0001
0000
0010
0000
0100
0000
1000
0001
1000
0000
0010
0000
0100
0000
0001
1000
,
0001
1000
0100
0001
0100
1000
0001
1000
,
1010
0010
0110
0100
0101
0001
1001
1000
,
1100
0000
0100
0000
0110
0000
0010
0000
0011
0000
0001
0000
1001
0000
0010
1000
,
0010
0000
0100
0000
0001
0000
0010
0001
0010
0000
0100
0000
1000
0000
0010
0100
,
0010
1000
0001
0010
0110
0000
1001
0000
,
0001
1100
0000
1010
0000
1000
0010
0101
,
0000
0010
0100
0010
0110
0000
0000
0000
;

//--------------- dance-single - ----------------
#NOTES:
     dance-single:
     :
     Challenge:
     18:
     1.237771,1.327117,0.399383,0.044376,1.21479,781,745,36,4,0,0,1.237771,1.327117,0.399383,0.044376,1.21479,781,745,36,4,0,0:
0000
0000
0000
0000
,
0001
0000
0100
0000
0001
0000
1000
0000
0100
0000
1000
0010
0100
0000
0001
0000
,
0010
0000
0100
0000
0010
0000
1000
0000
0010
0000
0001
0100
0010
0000
0100
0000
,
0001
0000
1000
0000
0001
0000
0010
0000
0100
0000
1000
0001
0100
0000
0010
0000
,
0100
0000
0001
1000
0100
0000
0010
0000
0001
0000
1000
0010
0001
0000
0010
0000
,
1000
0000
0100
0000
0010
0000
0001
0000
1000
0000
0001
0100
0010
0000
0100
0000
,
1000
0000
0100
0000
0001
0000
0010
0000
0100
0000
1000
0010
0100
0000
0001
0000
,
1000
0100
1000
0100
0010
0001
0100
0001
0010
0001
0010
0100
1000
0001
0100
0001
,
1000
0000
0000
0000
0000
0000
0000
0000
0000
0000
0000
0000
0000
0000
0000
0001
0100
0001
0100
0000
0000
0000
0000
0000
,
0010
0000
1000
0100
0010
0000
0010
0100
1000
0000
1000
0100
0010
0100
1000
0100
,
0010
0000
0001
0100
0010
0000
0010
0100
0001
0000
0001
0100
0010
0100
0001
0100
,
0010
0000
0100
0001
0010
0000
0010
0001
0100
0000
0100
1000
0100
0010
0100
0001
,
1000
0000
0000
0000
0110
0000
0000
0000
1001
0000
0000
0000
0001
1000
0100
0010
,
0001
0000
1000
0010
0100
0000
0100
0010
1000
0000
1000
0010
0100
0010
1000
0010
,
0100
0000
0001
0010
0100
0000
0100
0010
0001
0000
0001
0010
0100
0010
0001
0010
,
0100
0000
0010
0001
0100
0000
0100
0001
0010
0000
0010
1000
0010
0100
0010
0001
,
1000
0000
0000
0000
0110
0000
0000
0000
1001
0000
0000
0000
1000
0001
0010
0100
,
1000
0000
0010
0000
0100
0000
0001
0100
0010
0000
0100
0000
0001
0000
0010
0100
,
1000
0000
0010
0000
0001
0000
1000
0100
0010
0000
1000
0000
0100
0000
0010
0001
,
0100
0000
0010
0000
1000
0000
0100
0010
0001
0000
1000
0000
0100
0000
0001
0100
,
0010
0000
0001
0000
1000
0000
0010
0000
0100
0000
0110
0000
1001
0000
0001
0100
,
0020
0000
0100
0000
1000
0000
1000
0000
0100
0000
0100
0000
1000
0000
1030
0001
,
0200
0000
0001
0000
0010
0000
0310
1000
0002
0000
1000
0000
1000
0000
0013
0100
,
2000
0000
0100
0000
0001
0000
0001
0000
0010
0000
0010
0000
0100
0000
3100
0010
,
0001
0000
1001
0000
1000
0001
0010
0100
1000
0000
0010
0000
0010
0000
0010
0000
,
1000
0010
0100
0010
1000
0000
1001
0000
0001
0010
0100
0010
0001
0000
1001
0000
,
1000
0010
0100
0010
1000
0100
0010
0100
1000
0001
0100
0010
0100
0001
0010
0100
,
0010
0000
0011
0000
0110
0000
1100
1000
,
0001
0100
0010
0100
0010
0100
0001
0000
1000
0100
0010
0100
0010
0100
1000
0010
,
0001
0000
0010
0000
1000
0100
0010
0001
1000
0000
0010
0000
0001
0010
0100
0010
,
1000
0000
0100
0000
1000
0100
0010
0100
1000
0001
0010
0001
1000
0100
0010
0001
,
1000
0000
0010
0100
0001
0000
1000
0000
0100
0000
1000
0010
0100
0000
1000
0000
,
0100
0001
0010
0000
0100
0000
1000
0000
0001
0000
1001
0000
0000
0000
1001
0000
,
0000
0000
0000
1000
0000
0000
0001
0000
0100
0000
0010
0000
1000
0000
0000
0010
0000
0000
0100
0000
0001
0000
0010
0000
,
1000
0000
0001
0000
0100
0000
1000
0000
0010
0000
0100
0000
0010
0000
1000
0000
0100
0000
0010
0001
0010
0100
0010
0000
,
0001
0000
1000
0000
0100
0000
1000
0000
0001
0000
0100
0000
0010
0000
0000
1000
0000
0000
0001
0000
1000
0000
0100
0000
,
0001
0000
1000
0000
0010
0000
0001
0000
0100
0000
0010
0000
0100
0000
0010
0000
1000
0000
0001
0000
0000
0100
0000
0000
,
0010
0000
1000
0000
0100
0000
0010
0000
0001
0100
0010
0100
0001
0000
0010
0000
,
0100
0000
1000
0000
0001
0000
1000
0100
0010
0001
1000
0100
0010
0100
1000
0010
,
0100
0000
0100
0001
1000
0000
1000
0100
0010
0000
0010
0001
0100
0000
0100
0010
,
1000
0000
0010
0000
0100
0001
1000
0000
1001
0000
0000
0000
0001
0000
0010
0000
,
1100
0000
1000
0010
0101
0000
0100
0001
,
0010
0100
1000
0001
1000
0001
0100
0010
,
0100
1000
0100
0001
0010
0100
0001
0100
,
1001
0000
0000
0000
0000
0000
0000
0000
0000
0000
0000
0000
0000
0000
0000
0010
0100
0010
0100
0000
0000
0001
0000
0000
,
1000
0000
0010
0000
0100
0001
1000
0000
0001
0000
0010
0000
0100
1000
0001
0000
,
0100
0000
1000
0000
0100
0001
0010
0000
0100
1000
0010
0000
0110
0000
0000
0000
,
0010
0000
1000
0010
0100
0000
0010
0000
0100
0000
1000
0100
0010
0000
0100
0001
,
0010
0000
1000
0010
0100
0000
0010
0001
0100
0000
1000
0000
0100
0001
1000
0100
,
0010
0000
0001
0000
1000
0000
0001
0000
0100
0010
0100
0001
1000
0000
0100
0000
,
0010
0000
0100
0000
1000
0000
0001
0000
0100
0010
0100
0001
1000
0000
0001
0000
,
0010
0100
1000
1100
0000
1000
0110
1001
,
0000
0000
1010
0000
1100
0000
0011
0000
0001
0010
0100
0010
0001
0010
0100
1000
,
0001
0000
0100
0000
0010
1000
0001
0000
1000
0000
0100
0000
0010
0001
1000
0000
,
0010
0000
0100
0000
0010
1000
0100
0000
0010
0001
0100
0000
0010
1000
0100
0000
,
0110
0000
0000
0000
0001
0100
0010
0000
1000
0010
0100
0000
0001
0010
0100
0000
,
1000
0000
0100
0000
0010
0000
0001
0000
1000
0100
0010
0001
1000
0100
1000
0001
,
0010
0100
1000
0010
0100
0001
1000
0100
,
1000
0001
0100
1000
0100
0010
0100
0001
,
1000
1100
0000
1001
0000
0001
0100
0110
,
0000
1010
1000
0001
0100
0010
1000
0001
,
0100
0001
0100
0010
0100
0001
0100
0100
1000
0100
0010
0100
1000
0100
0100
0001
,
0100
0010
0100
0001
0100
0010
0100
0100
1000
0100
0010
0100
1000
0100
0100
0001
,
0100
0010
0100
0001
1000
0100
0010
0001
0100
0010
0100
0001
0010
0100
1000
0001
,
0100
0001
1000
0010
0100
0001
1000
0100
1000
0001
0010
0100
1000
0000
0010
0100
,
0010
0000
1000
0000
0001
0000
0010
0100
0010
0000
0001
0000
1000
0000
0010
0100
,
0010
0000
1000
0000
0100
0000
0001
0000
0100
1000
0100
0010
0001
0010
0100
1000
,
0001
0100
0001
0100
0010
0100
0010
0100
1000
0100
1000
0100
0001
0100
0001
0010
,
0100
0010
0100
0010
1000
0010
1000
0010
0100
0010
0100
0010
0001
0100
0010
1000
,
0001
0000
0010
0000
0100
0000
1000
0001
1000
0000
0100
0000
0010
0000
0001
1000
,
0001
0000
0000
0100
0000
0000
1000
0000
0000
0100
0000
0000
0001
0000
0000
1000
0100
0010
0001
0000
0000
0000
0000
0000
,
0010
0011
0000
1001
0000
0100
0001
0110
,
0000
0110
1001
0101
1100
0000
0000
0000
;
