#TITLE:GO CRY GO;
#SUBTITLE:;
#ARTIST:OxT;
#TITLETRANSLIT:GO CRY GO;
#SUBTITLETRANSLIT:;
#ARTISTTRANSLIT:OxT;
#GENRE:ANIME;
#CREDIT:;
#MUSIC:GO CRY GO.ogg;
#BANNER:GO CRY GO.png;
#BACKGROUND:GO CRY GO-bg.png;
#CDTITLE:;
#SAMPLESTART:50.402;
#SAMPLELENGTH:10.687;
#SELECTABLE:YES;
#OFFSET:0.641;
#BPMS:0.000=202.000;
#STOPS:;
#DISPLAYBPM:202.000;
#BGCHANGES:2.000=GO CRY GO.avi=1.000=0=0=0=StretchNoLoop====,
99999.000=-nosongbg-=1.000=0=0=0=StretchNoLoop====
;
#FGCHANGES:;

//--------------- dance-single - ----------------
#NOTES:
     dance-single:
     :
     Hard:
     14:
     0,0,0,0,0:
0000
0000
0000
0000
,
0000
0000
0000
0000
,
0000
0000
0000
0000
,
0000
0000
0000
0000
,
0000
0000
0000
0000
,
0000
1001
0110
1001
,
0001
0100
0001
0001
1000
0100
1000
1000
,
0010
0100
0001
0001
0010
0100
1000
1000
,
0001
0100
0010
0010
1000
0001
0100
0100
,
0010
1000
0001
0001
1000
0100
0010
0001
,
1000
1100
0000
0011
0001
0010
0100
0000
,
0100
1100
0000
0101
0001
0100
0001
1000
,
1100
1001
0101
1001
,
0110
0000
1010
0000
1100
1000
1001
0000
,
0000
0010
1002
2003
,
3001
0100
0001
0100
0010
0000
1000
0001
,
0000
0001
1000
0001
0010
0100
0010
0100
,
1000
0001
1000
0001
0100
1000
0100
0001
,
0000
1000
1001
0000
2000
0000
3200
0000
,
0310
0001
1000
0100
1000
0001
0100
0110
,
0000
0010
1000
0100
1000
0000
0011
0000
,
0001
0000
0000
0000
1010
0000
0000
0000
1000
0100
1000
0000
0001
0100
0001
0000
,
1000
0010
1000
0000
1001
0000
0000
0000
0002
0000
0000
0000
2003
0000
0000
0000
,
3001
0010
0001
1000
1100
0000
0001
0101
,
0000
1000
0100
1000
1010
0000
0011
0000
,
0010
0001
0100
1000
0100
0001
0010
1000
,
0000
0001
0100
0000
0100
1000
0001
0100
,
0000
0000
0010
1000
0100
0010
0001
1000
,
0000
0001
0001
0001
1000
1000
0001
0001
,
0100
0100
0010
0010
1000
0100
0010
0100
,
1000
0001
0100
1000
0200
0000
0010
0000
,
0302
1000
0023
0100
,
2030
0000
0010
0000
3002
0000
0000
0203
,
0302
0000
0000
2003
0000
0000
3002
0000
0203
0000
0000
0000
2300
0000
0000
0000
,
3002
0010
2003
0001
,
3200
1000
0320
1000
,
0031
1000
1001
0100
,
0110
0001
1001
0002
,
2003
0000
0000
0000
3002
0000
0000
0000
2003
0000
0000
0000
3002
0000
1003
0100
,
1000
0001
0100
0010
1010
0000
1010
0000
,
0011
0011
2002
0000
,
0000
0000
0000
3003
1001
0000
1000
0100
,
0000
0001
0100
0000
0001
1000
0001
1000
,
0110
0000
0000
0100
0000
0000
0001
0000
1010
0000
0000
0000
0101
0000
0000
0000
,
1010
0000
0000
0000
0101
0000
0000
0000
0001
0000
0000
1000
0000
0000
1100
0000
,
0100
0010
0001
0010
0011
0000
1100
0000
,
0011
0000
1100
0000
0110
0000
0001
1000
,
0000
1000
0100
0010
0000
0010
0001
0100
,
0000
0100
1000
0001
0000
0001
0010
1000
,
0000
0000
1000
0000
0100
0000
0010
0000
0001
0000
1000
0100
1000
0000
0100
0000
,
0010
0000
0001
0100
0001
0000
1000
0000
0010
0000
0100
0010
0100
0000
0001
0000
,
1000
1000
0001
0001
0101
0000
1100
0000
,
0101
0000
0000
0000
1100
0000
0000
0000
1000
0000
0000
0100
0000
0000
0010
0000
,
0011
0001
1000
0000
1100
0000
0101
0000
,
1100
0000
0101
0000
1010
0000
0100
0002
,
0000
0023
0000
0130
1100
1000
1001
0000
,
0101
0001
1001
0000
1010
1000
1001
0000
,
0011
0001
1001
0000
1000
0010
0100
0001
,
1000
0000
0010
0000
0001
0000
1000
0000
0100
0000
0001
0010
0100
0000
1000
0000
,
0010
0010
0100
0100
0101
0000
1100
0000
,
0100
0010
0000
0011
0000
1001
0000
0001
,
1000
1100
0011
1010
,
1000
0000
0010
0000
0000
0000
1001
0000
0000
0000
1000
0010
0100
0000
0001
0000
,
1000
0100
1000
0100
0110
0000
1001
0000
,
0001
1000
0000
0110
0000
0110
0000
1000
,
0001
0000
1001
0000
0001
0010
1000
0001
,
0100
0000
1000
0000
0010
0000
0100
0001
1000
0000
0000
0000
1001
0000
0000
0000
,
0110
0000
1001
0000
0010
1000
0010
0100
,
1000
0100
0010
1000
0010
0100
1000
0100
,
0010
1000
0100
0010
0001
0010
0100
0001
,
0100
0010
0001
0010
0100
0001
0100
0010
,
0001
0010
0100
0000
1000
0010
0100
0000
0001
0000
0100
0000
1000
0000
0100
0000
,
0001
0100
0010
0000
0010
0100
0001
0000
1000
0000
0100
0000
0001
0000
0100
0000
,
1000
0100
0010
0000
0010
0100
1000
0000
0001
0000
0010
0000
0001
0000
0010
0000
,
0100
0000
1000
0000
0100
0000
1000
0000
0001
0010
0001
0000
0010
0100
0010
0000
,
0100
1000
0100
0010
0001
0000
0000
0000
0000
0000
0000
0000
0000
0000
0000
0000
;

//--------------- dance-single - ----------------
#NOTES:
     dance-single:
     :
     Challenge:
     18:
     0.430928,0.362549,0,0,0,278,278,0,0,0,0,0.430928,0.362549,0,0,0,278,278,0,0,0,0:
0000
0000
0000
0000
,
0000
0000
0000
0000
,
0000
0000
0000
0000
,
0000
0000
0000
0000
,
0000
0000
0000
0000
,
0000
1001
0110
1001
,
0001
0100
0001
0100
0001
0000
0010
0000
0100
1000
0100
1000
0100
0000
1000
0000
,
0010
0100
0010
0100
0010
0000
1000
0000
0001
1000
0001
1000
0001
0000
0010
0000
,
0001
0010
0001
0010
0100
0000
1000
0000
0010
1000
0010
1000
0001
0000
0100
0000
,
0001
0100
0001
0100
0010
0000
1000
0000
0100
0010
0100
0010
0001
0000
1000
0000
,
0001
0000
0011
0000
0000
0000
1001
0000
1000
0100
0010
0100
1000
0000
0010
0000
,
0100
0000
0110
0000
0000
0000
1001
0000
0001
0100
0010
0100
0001
0000
0010
0000
,
0011
0001
1001
1000
1100
0100
1001
0010
,
0110
0000
0011
0000
1100
0100
0101
0000
,
0000
0010
1002
2003
,
3001
0010
0100
0010
0001
0000
1000
0000
0010
0100
0010
0000
0000
0000
1001
0000
,
0000
0000
0001
0000
1000
0000
0001
0000
0010
0100
0000
0000
0100
1000
0000
0000
,
1000
0001
0000
0000
0001
0100
0000
0000
0100
0000
1000
0000
0100
0000
0001
0000
,
0000
0010
1001
0000
0002
0000
0203
0000
,
0310
1000
0001
1000
0100
0000
0010
0000
0001
1000
0001
0000
0010
0000
0100
0000
,
0000
0000
0100
0000
1000
0000
0001
0000
0001
0010
0000
0000
0010
1000
0000
0000
,
1000
0010
0000
0000
0010
0001
0000
0000
0001
0100
0010
0100
0001
1000
0010
0100
,
0010
1000
0001
0100
0010
1000
0010
0100
0001
0000
1000
0000
0100
0000
0010
0000
,
0100
0000
1000
0000
0001
0000
0010
0000
0100
1000
0100
0000
0010
0100
0010
0000
,
0001
1000
0001
0000
0100
0010
1000
0000
0001
0100
0000
0000
0010
1000
0000
0000
,
0001
0010
0000
0000
0100
1000
0000
0000
0100
0000
0010
0000
0001
0000
1000
0000
,
0001
0010
1000
0001
0100
1000
0001
0110
,
0000
0100
0001
1000
0001
0100
0001
0110
,
0000
0010
0010
0010
1000
1000
0001
0001
,
0100
1000
0100
0001
1000
0100
0001
0100
,
1000
0100
0010
0001
1000
0100
0010
0001
2000
0000
0000
0000
3200
0000
0000
0000
,
0320
0000
0230
0000
2300
0000
0000
3002
,
0000
0000
2003
0000
3020
0000
0000
0230
,
0302
0000
0000
0023
0000
0000
2030
0000
3020
0000
0000
0000
0032
0000
0000
0000
,
2003
3020
0230
0302
2003
0000
3002
0000
,
0203
0000
0000
0000
2300
0000
0000
0000
3200
0000
0302
0000
0023
0000
2030
3000
,
0020
1030
0110
0001
,
0110
1000
1001
0002
,
2003
0000
0000
0000
3002
0000
0000
0000
2003
0000
0000
0000
3002
0000
0013
0100
,
1000
0001
0100
0100
1001
0000
1100
0000
,
0110
0101
2002
0000
,
0000
0000
0000
3003
0011
0001
0010
1100
,
1000
0100
1001
0010
0110
0110
0110
0110
,
0010
0000
0000
1000
0000
0000
0001
0000
1000
0100
0000
0000
0001
0100
0000
0000
,
1000
0100
0000
0000
0001
0100
0000
0000
0010
0000
0000
0010
0000
0000
1001
0000
,
1000
0100
0010
0100
1000
0100
0010
0100
1000
0010
0000
0000
0001
0010
0000
0000
,
1000
0010
0000
0000
0001
0010
0000
0000
0100
0000
0000
0000
0001
0000
1000
0000
,
0000
0000
0010
0100
0001
0000
0011
0000
0010
0000
0100
1000
0010
0000
0100
0000
,
0001
0000
1000
0001
1000
0000
0100
0000
0100
0000
0010
0001
1000
0000
0100
0000
,
0001
0000
0100
1000
0001
0000
0010
0000
0001
0010
0100
0010
0001
0010
0100
1000
,
0010
0100
0010
1000
0010
0100
0010
1000
0001
0010
0001
0010
0100
1000
0100
1000
,
0001
0100
0001
0100
0010
1000
0010
1000
0001
0100
0000
0000
1000
0100
0000
0000
,
0001
0010
0000
0000
1000
0010
0000
0000
0011
0000
0000
0011
0000
0000
0110
0000
,
1100
0000
1000
0000
1001
0000
0000
0000
0001
0010
0000
0000
0100
0001
0000
0000
,
1000
0010
0000
0000
0100
1000
0000
0000
1010
0000
0000
0000
0100
0000
0100
0000
,
0000
0101
0000
1001
0000
1000
0100
0010
,
0011
0001
0100
0010
1010
1000
0010
0100
,
0101
0000
0001
0000
0010
0000
0100
0000
1000
0100
0010
0000
0001
0010
0100
0000
,
1000
0100
0010
0000
0001
0010
0100
0000
1000
0100
1000
0100
0010
0001
0010
0001
,
1000
0100
0010
0001
1000
0100
0010
0001
1000
0000
0000
0000
1100
0000
0000
0000
,
0100
0110
0000
0011
0000
1001
0000
0001
,
0101
0101
1010
1001
,
0010
0000
0110
0000
0000
0000
1001
0000
0000
0000
0001
0010
0100
0000
1000
0000
,
0001
0100
1000
0100
1001
0000
0101
0000
,
0010
1010
0000
0110
0000
0110
0000
1000
,
1001
0000
0000
0000
1000
0000
0000
0000
0001
0100
0010
0100
0010
1000
0100
0010
,
0100
0010
0001
1000
0010
0100
0010
0100
0110
0000
0000
0000
1001
0000
0000
0000
,
0110
0000
0000
0000
1001
0000
0000
0000
0001
0100
0010
0100
0001
0000
0100
0000
,
0010
1000
0100
1000
0010
0000
1000
0000
0001
0010
0100
0010
0001
0000
0100
0000
,
0010
1000
0100
1000
0010
0000
1001
0000
1000
0100
0010
0100
1000
0000
0010
0000
,
0100
0001
0010
0001
0100
0000
0010
0000
1000
0010
0100
0010
1000
0000
0010
0000
,
0100
0001
0010
0001
0100
0000
1001
0000
0001
0100
0001
0100
0001
0100
0001
0100
,
0010
1000
0010
1000
0010
1000
0010
1000
0001
0010
0001
0010
0001
0010
0001
0010
,
0100
1000
0100
1000
0100
1000
0100
1000
0001
0100
0010
1000
0001
0100
0010
1000
,
0001
0010
0100
1000
0001
0010
0100
1000
0001
0100
0010
1000
0100
0010
0001
0010
,
0100
1000
0001
0100
1000
0000
0000
0000
0000
0000
0000
0000
0000
0000
0000
0000
;
