#TITLE:不規則性エントロピー;
#SUBTITLE:;
#ARTIST:彩音;
#TITLETRANSLIT:Fukisokusei Entropy;
#SUBTITLETRANSLIT:;
#ARTISTTRANSLIT:Ayane;
#GENRE:ANIME;
#CREDIT:;
#MUSIC:Fukisokusei Entropy.ogg;
#BANNER:Fukisokusei Entropy.png;
#BACKGROUND:Fukisokusei Entropy-bg.png;
#CDTITLE:;
#SAMPLESTART:63.930;
#SAMPLELENGTH:6.234;
#SELECTABLE:YES;
#OFFSET:-0.034;
#BPMS:0.000=154.000;
#STOPS:224.000=1.364;
#BGCHANGES:1.000=Fukisokusei Entropy.avi=1.000=0=0=0=StretchNoLoop====,
99999.000=-nosongbg-=1.000=0=0=0=StretchNoLoop====
;
#FGCHANGES:;

//--------------- dance-single - ----------------
#NOTES:
     dance-single:
     :
     Medium:
     12:
     0,0,0,0,0:
0000
0000
0000
0000
,
0001
1000
0100
1000
0001
0100
0010
0100
,
0001
1000
0010
1000
0001
0010
0100
0010
,
0001
1000
0010
1000
0001
0010
0100
0010
,
0001
1000
0100
1000
0001
0100
0010
1000
,
0001
0100
0001
0100
1000
0100
1000
0100
,
0001
0010
0001
0010
1000
0010
1000
0010
,
0001
0010
0001
0010
0100
1000
0100
1000
,
0001
0100
0001
0100
0010
1000
0010
1000
,
0001
0000
1000
0100
0010
0001
0000
0011
,
0000
1100
0000
1010
0000
0101
0000
1001
,
0000
0000
0001
0100
0010
1000
0000
1010
,
0000
0100
0001
0010
0200
0000
0010
0000
,
0320
0000
0031
1000
0001
0010
0000
1100
,
0000
0101
0000
0011
0000
1010
0000
1001
,
0100
0000
0100
0001
1000
0010
0000
0100
,
0000
0001
1000
0001
0020
0000
0100
0000
,
0031
0000
1000
0100
0010
0200
0000
0001
,
0000
1000
0000
0301
0000
0001
0100
1000
,
0010
0000
0000
0110
0000
0000
0100
0000
0001
0000
0000
1001
0000
0000
1000
0000
,
0020
0000
0000
0000
0130
0000
0001
0000
1000
0000
0001
0010
0000
0000
0000
0000
,
0110
0000
0100
0000
1000
0000
0001
0100
0000
0001
1000
0000
0010
0000
0100
0000
,
0000
0000
0100
0000
0001
0000
1000
0100
0000
1000
0020
0000
0000
0000
0130
0000
,
0001
0101
1000
1100
,
0011
0000
0000
1010
0000
0000
1100
0000
0000
0101
0000
0000
0110
0000
0001
0000
,
1001
1000
0100
0010
0100
0000
1000
0010
,
0100
0010
1000
0001
0100
0001
1000
0000
,
0001
0010
0100
1000
0001
0000
1000
0010
,
0100
0010
1000
0001
0100
0001
1000
0010
,
1000
0000
0001
0100
0001
0000
1000
0100
,
1000
0010
0100
0001
0000
0011
0000
0010
,
0100
1000
0000
0010
0100
0001
0010
0100
,
1000
0000
1010
0000
0101
0000
0100
0001
,
1000
0100
0001
0100
1000
0000
0001
0100
,
0020
0000
0100
0000
,
0130
0001
0010
0001
2000
0000
0000
3010
,
0001
0000
0010
0000
0100
0000
0010
0000
1000
0000
0001
0010
0000
0000
0000
0000
,
0100
1000
0001
0000
0100
0001
1000
0000
,
0001
0000
0000
0110
0000
0000
1000
0000
0100
0000
0010
0000
1001
0000
0000
0000
,
0001
0100
1000
0001
1000
0100
0001
0010
,
1000
0000
0000
0001
0000
0000
0100
0000
2001
0000
0000
0000
0000
0000
0000
0000
,
3001
0000
0000
0100
0000
0000
0010
0000
1000
0000
0000
0100
0000
0000
0010
0000
,
0002
0000
0000
0000
1003
0000
0010
0100
0020
0000
0000
0000
1000
0000
0000
0000
,
0130
0000
0000
0001
0000
0000
0010
0000
0100
0000
0000
1000
0000
0000
0001
0000
,
0011
0000
0000
0101
0000
0000
1000
0000
2010
0000
0000
0000
0100
0000
0000
0000
,
3001
0000
0010
0100
0000
1000
0001
0000
0100
0000
0010
1000
0000
0010
0100
0000
,
0001
0000
0000
0010
0000
0000
0100
0000
1000
0000
0000
0000
0001
0000
0010
0000
,
0100
0000
1000
0001
0000
0100
0010
0000
1000
0000
0100
0010
0000
0001
1000
0000
,
1010
0000
0000
1100
0000
0000
0100
0000
1002
0000
0000
0000
1003
0000
0000
0000
,
1000
0100
0010
0100
1000
0010
0001
0010
,
1000
1000
0100
0100
0010
0010
0001
0001
,
1000
0000
0001
0100
0010
0100
0001
0010
,
1000
0001
0100
1000
0010
0001
1000
0100
,
0010
0000
0000
0110
0000
0000
0100
0000
0000
0000
0001
0000
0100
0000
0010
0000
,
1000
0000
0000
0100
0000
0000
0010
0000
0000
0000
0001
0000
0100
0000
1000
0000
,
0001
0000
0010
0000
0100
0000
0001
0000
1000
0000
0000
0100
0000
0000
0010
0000
,
1001
0000
1001
0000
0000
0010
0000
0000
1000
0000
0001
0000
0101
0000
1000
0000
,
1100
0000
0000
0000
;

//--------------- dance-single - ----------------
#NOTES:
     dance-single:
     :
     Hard:
     16:
     0.957627,0.959877,0.825701,0.206425,0.782243,617,541,76,19,0,0,0.957627,0.959877,0.825701,0.206425,0.782243,617,541,76,19,0,0:
0000
0000
0000
0000
,
1001
0100
0001
1000
0002
0010
0103
1000
,
0001
0010
0001
1000
0002
0100
0013
1000
,
1001
0100
1000
0001
2000
0010
3100
0001
,
1000
0010
1000
0001
2000
0100
3010
0001
,
1001
0010
0100
0010
0002
0100
1003
0100
,
1001
0010
0100
0010
2000
0100
3001
0100
,
1001
0100
1000
0100
0002
0100
1003
0100
,
1001
0100
0001
0100
2000
0100
3001
0100
,
1001
0000
0000
0000
0000
0000
0000
0000
0000
0000
0000
0000
0001
0000
0000
0000
0000
0000
1000
0000
0000
0000
0000
0000
0001
0000
0000
0000
0010
0000
0000
0000
0001
0000
0000
0000
0010
0000
0000
0100
0000
0000
1000
0000
0100
0000
1000
0000
,
0002
0000
0000
0000
1003
0000
1000
0000
0001
0100
0001
1000
0001
0100
0001
1000
,
0020
0000
0000
0000
0000
0000
0000
0000
0000
0000
0000
0000
0130
0000
0000
0000
0000
0000
0001
0000
0000
0000
0000
0000
1000
0000
0000
0000
0010
0000
0000
0000
1000
0000
0000
0000
0010
0000
0000
0100
0000
0000
0001
0000
0100
0000
0001
0000
,
1000
0000
0100
0000
0010
0000
0001
0000
1000
0100
1000
0001
1000
0100
1000
0001
,
0020
0000
0000
0000
0000
0000
0000
0000
0000
0000
0000
0000
0130
0000
0000
0000
0000
0000
1000
0000
0000
0000
0000
0000
0001
0000
0000
0000
0010
0000
0000
0000
0100
0000
0000
0000
1000
0000
0000
0001
0000
0000
0010
0000
0100
0000
1000
0000
,
0002
0000
0000
0000
0013
0000
0001
0000
1000
0010
0100
0010
1000
0100
0010
0100
,
2000
0000
0000
0000
0000
0000
0000
0000
0000
0000
0000
0000
3010
0000
0000
0000
0000
0000
1000
0000
0000
0000
0000
0000
0001
0000
0000
0000
0100
0000
0000
0000
0010
0000
0000
0000
1000
0000
0000
0001
0000
0000
0100
0000
0010
0000
1000
0000
,
0001
0000
1000
0000
0001
0000
0100
0000
0001
0010
0100
0010
0001
0100
0010
0100
,
0001
1000
0010
0100
0001
0010
0100
1000
,
0001
0100
0001
0000
1000
0100
1000
0000
0001
1000
0001
0100
0010
0000
1000
0010
,
0100
0000
0100
0001
0000
0001
1000
0000
1100
0000
0100
0010
0000
0010
0001
0000
,
0011
0000
0010
0100
1000
0000
0001
0000
1000
0000
0001
0100
0000
0000
0010
0000
,
0110
0000
0100
0000
0001
0000
1000
0100
0000
0000
0010
0000
0001
0000
0101
0000
,
1010
0000
0010
0000
0110
0000
0100
0001
0000
0000
0001
1000
0100
0010
0001
0010
,
0100
1000
1100
1000
1001
0001
0101
0001
,
1001
0000
1000
0010
0000
0001
0010
0000
1000
0100
0000
0001
0100
0000
1000
0000
,
1001
0000
0001
0000
0100
0000
0010
0000
1000
0100
0010
0001
1000
0001
0010
0100
,
1100
0000
0000
0011
0000
0000
1100
0000
0100
0000
1000
0000
0001
1000
0010
1000
,
0001
0000
0010
0000
0100
0000
0010
0000
0001
0100
0010
1000
0001
1000
0010
0100
,
0101
0000
0000
1010
0000
0000
0101
0000
0100
0000
0001
0000
1000
0010
0100
0010
,
1000
0000
0001
0000
0010
0000
0001
0000
1000
0000
0001
0000
0010
0100
1000
0010
,
0100
0000
0001
0010
0000
0001
1000
0000
0010
0100
0001
0100
0010
0100
0010
1000
,
0100
0000
0010
0100
0010
0000
0001
0000
1000
0000
0010
0100
0010
0000
1000
0000
,
0001
0000
0010
0100
0010
0000
0001
0000
2001
0000
0000
0000
3001
0100
0001
0100
,
1000
0000
0100
0000
0001
0000
0010
0000
0001
0010
0001
0010
0100
1000
0100
1000
,
0020
0000
0100
0000
,
0130
0001
0100
0001
1000
0010
1000
0010
0200
0000
0000
0000
0000
0000
0310
1000
,
0001
0000
0010
0000
0100
0000
0010
0000
0001
0000
1000
0010
1001
0000
0000
0000
,
0101
0001
1001
1000
1100
0100
0110
0010
,
1001
0000
0000
1100
0000
0000
0101
0000
0010
0000
0010
0000
1001
0000
0000
0000
,
1100
1000
1010
0010
0011
0001
0101
0100
,
0110
0000
0000
0000
0000
0000
0000
0000
0000
0110
0000
0000
0000
0000
0000
0000
0000
0000
1001
0000
0000
0000
0000
0000
1000
0000
0100
0000
0010
0000
0002
0000
2000
0000
0000
0000
0000
0000
0000
0000
0000
0000
3003
0000
0000
0000
0000
0000
,
1001
0000
1000
0100
0000
0010
0100
0000
1100
0000
0001
0100
0000
0010
0100
0000
,
0102
0000
0013
0000
1100
0000
0100
0010
0100
0000
1000
0000
0010
0100
0001
1000
,
0100
0000
0010
0100
0000
1000
0001
0000
1001
0000
1000
0010
0100
0000
0001
0000
,
0110
0000
0000
1100
0000
0000
0011
0000
1001
0000
1000
0000
0001
0010
0100
1000
,
0001
0000
0100
0010
0100
0000
1000
0000
0001
0000
0010
0100
0010
0000
1000
0000
,
1010
0000
0000
0101
0000
0000
0100
0001
0010
0000
0100
0000
1000
0001
1000
0001
,
0100
0000
0010
1000
0010
0001
1000
0000
1001
0000
0001
1000
0100
0001
0010
0000
,
0110
0000
0000
1100
0000
0000
0011
0000
1002
0000
0000
0000
1003
0100
1000
0100
,
0010
0001
0011
0100
1000
0010
0101
0010
,
1001
0000
1000
0010
0100
0000
0001
0010
0100
0000
0010
0001
1000
0001
1000
0010
,
0100
0001
1010
0100
0001
0010
1100
0010
,
1001
0000
0001
0100
0010
0000
1000
0100
0010
0000
0001
1000
0010
0100
0010
0100
,
0001
0000
0000
0010
1000
0000
0001
0000
0100
0000
1000
0000
0110
0000
0001
0000
,
1001
0000
1000
0100
0000
0010
0001
0000
0100
0000
0010
0000
1010
0000
0100
0000
,
0001
0000
0010
0000
0110
0000
0001
0000
1000
0000
0001
0100
0000
1000
0100
0000
,
1001
0000
0210
0000
0000
0001
0000
0000
1300
0000
0011
0000
1010
0000
1100
0000
,
0101
0000
0000
0000
;

//--------------- dance-single - ----------------
#NOTES:
     dance-single:
     :
     Challenge:
     19:
     0,0,0,0,0:
0000
0000
0000
0000
,
0001
0000
1000
0100
0010
0000
0001
0010
0001
0000
0010
0100
1000
0000
0100
1000
,
0100
0000
1000
0010
0100
0000
0001
0100
0001
0000
0100
0010
1000
0010
0100
0001
,
1000
0000
0001
0100
0010
0000
1000
0010
1000
0000
0010
0100
0001
0000
0100
0001
,
0100
0000
0001
0010
0100
0000
1000
0100
1000
0000
0100
0010
0001
0010
0100
1000
,
0001
0000
0010
0100
1000
0000
0001
0100
0010
0000
1000
0010
0100
0000
0001
1000
,
0100
0000
0010
0001
1000
0000
0001
0100
0010
0000
1000
0100
0010
0100
1000
0001
,
1000
0000
0001
0100
0010
0000
0100
0001
0010
0000
0001
1000
0100
0000
0010
0100
,
1000
0000
0100
0010
0001
0000
0010
0100
1000
0000
0001
0010
0001
0010
0100
1000
,
0001
0000
0000
0000
0000
0000
0100
0000
0000
0010
0000
0000
1000
0000
0000
0000
0000
0000
0001
0000
0000
0010
0000
0000
0001
0000
1000
0000
0100
0000
0010
0000
0100
0000
1000
0000
0100
0000
0010
0000
0001
0000
0010
0000
0100
0000
0010
0000
,
0001
0000
0100
0001
1000
0000
1000
0010
0100
0010
0100
0001
0010
0100
0010
0100
,
1000
0000
0000
0000
0000
0000
0100
0000
0000
0010
0000
0000
0001
0000
0000
0000
0000
0000
1000
0000
0000
0010
0000
0000
1000
0000
0001
0000
0100
0000
0010
0000
0100
0000
0001
0000
0100
0000
0010
0000
1000
0000
0010
0000
0100
0000
0010
0000
,
1000
0000
0100
1000
0001
0000
0001
0010
0100
0010
0100
1000
0010
0100
0010
0100
,
0001
0000
0000
0000
0000
0000
0010
0000
0000
0100
0000
0000
1000
0000
0000
0000
0000
0000
0001
0000
0000
0100
0000
0000
0001
0000
1000
0000
0010
0000
0100
0000
0010
0000
1000
0000
0010
0000
0100
0000
0001
0000
0100
0000
0010
0000
0100
0000
,
0001
0000
0010
0001
1000
0000
1000
0100
0010
0100
0010
0001
0100
0010
0100
0010
,
1000
0000
0000
0000
0000
0000
0010
0000
0000
0100
0000
0000
0001
0000
0000
0000
0000
0000
1000
0000
0000
0100
0000
0000
1000
0000
0001
0000
0010
0000
0100
0000
0010
0000
0001
0000
0010
0000
0100
0000
1000
0000
0100
0000
0010
0000
0100
0000
,
1000
0000
0010
1000
0001
0000
0001
0100
0010
0100
0010
1000
0100
0010
0100
0010
,
0001
0000
0000
0000
0000
0000
1000
0000
0000
0100
0000
0000
0010
0000
0000
0000
0000
0000
0001
0000
0000
0010
0000
0000
0100
0000
1000
0000
0100
0000
1000
0000
0001
0000
1000
0000
0100
0000
1000
0000
0100
0000
1000
0000
0001
0000
0100
0000
,
0010
0000
0000
0000
0000
0000
0100
0000
0000
0001
0000
0000
1000
0000
0000
0000
0000
0000
0001
0000
0000
0010
0000
0000
0100
0000
0000
1000
0000
0000
0001
0000
0000
0100
0000
0000
0001
0000
0000
0000
0000
0000
1000
0000
0100
0000
0010
0000
,
0001
0000
0000
0000
0000
0000
1000
0000
0000
0001
0000
0000
0000
0000
0000
1000
0000
0000
0001
0000
0100
0000
0010
0000
1000
0000
0000
0000
0000
0000
0001
0000
0000
1000
0000
0000
0000
0000
0000
0001
0000
0000
0010
0000
0100
0000
1000
0000
,
0001
0000
0010
0100
1000
0000
0001
0010
0100
1000
0001
0100
0000
0000
0010
0000
,
0100
0000
0000
0001
0000
0000
0100
0000
0000
0001
0000
0000
0010
0000
0000
0100
0000
0000
1000
0000
0000
0100
0000
0000
1000
0000
0001
0000
1000
0000
0001
0000
0100
0000
0010
0000
1000
0000
0001
0000
1000
0000
0001
0000
0100
0000
0001
0000
,
0010
0000
0000
0001
0000
0000
0010
0000
0000
0001
0000
0000
0100
0000
0000
0010
0000
0000
1000
0000
0000
0010
0000
0000
1000
0000
0001
0000
1000
0000
0001
0000
0010
0000
0100
0000
1000
0000
0001
0000
1000
0000
0001
0000
0100
0000
0010
0000
,
1000
0000
0000
0010
0000
0000
1000
0000
0000
0001
0000
0000
0100
0000
0000
0001
0000
0000
1000
0000
0000
0010
0000
0000
1000
0000
0100
0000
0010
0000
0001
0000
0100
0000
0001
0000
0010
0000
0100
0000
1000
0000
0010
0000
0100
0000
0010
0000
,
1000
0000
0001
0010
0000
0010
0100
0000
0100
1000
0000
0001
0100
0010
1000
0010
,
1000
0000
0000
0001
0000
0000
1000
0000
0000
0010
0000
0000
0100
0000
0000
0001
0000
0000
0010
0000
0000
0100
0000
0000
1000
0000
0100
0000
1000
0000
0100
0000
0010
0000
0100
0000
0010
0000
0000
0001
0000
0000
0010
0000
0000
0100
0000
0000
,
1000
0000
0000
0100
0000
0000
0010
0000
0000
0001
0000
0000
1000
0000
0000
0100
0000
0000
0010
0000
0000
0001
0000
0000
0010
0000
0001
0000
0010
0000
0001
0000
0010
0000
0100
0000
1000
0000
0000
0000
0000
0000
0010
0000
0000
0000
0000
0000
,
0100
0000
0000
0001
0000
0000
1000
0000
0000
0001
0000
0000
0100
0000
0000
0001
0000
0000
1000
0000
0000
0001
0000
0000
0100
0000
0001
0000
0100
0000
0010
0000
0100
0000
0001
0000
0100
0000
0000
0001
0000
0000
1000
0000
0000
0001
0000
0000
,
0100
0000
0000
0010
0000
0000
1000
0000
0000
0100
0000
0000
0010
0000
0000
0100
0000
0000
1000
0000
0000
0010
0000
0000
0100
0000
0001
0000
1000
0000
0001
0000
0100
0000
0010
0000
0000
0000
0000
0000
0000
0000
1000
0000
0000
0000
0000
0000
,
0100
0000
0000
0010
0000
0000
0100
0000
0000
1000
0000
0000
0001
0000
0000
0100
0000
0000
0010
0000
0000
0100
0000
0000
0001
0000
0010
0000
0001
0000
0010
0000
0100
0000
1000
0000
0100
0000
0000
1000
0000
0000
0001
0000
0000
0100
0000
0000
,
0010
0000
0000
0100
0000
0000
0001
0000
0000
0100
0000
0000
0010
0000
0000
1000
0000
0000
0001
0000
0000
1000
0000
0000
0100
0000
0010
0000
0100
0000
0010
0000
0001
0000
1000
0000
0001
0000
0000
0000
0000
0000
1000
0000
0000
0000
0000
0000
,
0010
0100
0001
0100
0010
1000
0001
0100
0010
1000
0010
0100
0001
0100
0001
0100
,
0010
1000
0010
1000
0100
0010
0100
0010
0001
1000
0001
1000
0001
0100
0001
0100
,
0010
0000
0000
0000
0000
0000
1000
0000
0000
0100
0000
0000
0010
0000
0000
0000
0000
0000
0100
0000
0000
1000
0000
0000
0001
0000
0010
0000
0001
0000
0010
0000
0100
0000
1000
0000
0100
0000
1000
0000
0001
0000
0100
0000
0001
0000
0100
0000
,
0020
0000
0100
0000
,
1030
0000
0000
0100
0000
0000
1000
0000
0000
0100
0000
0000
0010
0000
0000
0001
0000
0000
0010
0000
0000
0001
0000
0000
2000
0000
0000
0000
0000
0000
0000
0000
0000
0000
0000
0000
0000
0000
0000
0000
0000
0000
3100
0000
1000
0000
0100
0000
,
1000
0000
0001
0000
1000
0000
0001
0000
1000
0000
0010
0000
0100
0000
0000
0001
0000
0000
1000
0000
0000
0001
0000
0000
0010
0000
0000
0100
0000
0000
1000
0000
0000
0001
0000
0000
0000
0000
0000
0000
0000
0000
0000
0000
0000
0000
0000
0000
,
0100
0000
0010
1000
0010
0100
0010
1000
0010
0100
0010
1000
0001
0010
0100
0010
,
0001
0010
0100
0010
0001
0010
0100
1000
0010
0100
0010
0100
0001
1000
0001
1000
,
0010
0100
0001
0010
0100
1000
0010
0100
0001
0010
0100
1000
0001
0100
0010
1000
,
0001
0000
0000
0000
0000
0000
0001
0000
0000
0010
0000
0000
0000
0000
0000
0010
0000
0000
0100
0000
0000
0000
0000
0000
0100
0000
1000
0000
0100
0000
0010
0000
0100
0000
1000
0000
0100
0000
0010
0000
0001
0000
0010
0000
0100
0000
0010
0000
,
0001
0000
0000
0000
0000
0000
1000
0000
0000
0001
0000
0000
0000
0000
0000
0100
0000
0000
0001
0000
0010
0000
0100
0000
1000
0000
0000
0000
0000
0000
0001
0000
0000
0100
0000
0000
0000
0000
0000
0010
0000
0000
1000
0000
0010
0000
0100
0000
,
0001
0000
0000
0000
0000
0000
0010
0000
0000
0100
0000
0000
1000
0000
0000
0000
0000
0000
0100
0000
0000
0010
0000
0000
0001
0000
0000
1000
0000
0000
0100
0000
0000
1000
0000
0000
0001
0000
0000
0100
0000
0000
0001
0000
0100
0000
0010
0000
,
1000
0000
0000
0000
0000
0000
0001
0000
0000
1000
0000
0000
0000
0000
0000
0100
0000
0000
1000
0000
0010
0000
0100
0000
0001
0000
0000
0000
0000
0000
1000
0000
0000
0100
0000
0000
0000
0000
0000
0010
0000
0000
0001
0000
0010
0000
0100
0000
,
1000
0000
0000
0000
0000
0000
0010
0000
0000
0100
0000
0000
0001
0000
0000
0000
0000
0000
0100
0000
0000
0010
0000
0000
1000
0000
0000
0001
0000
0000
0100
0000
0000
0001
0000
0000
1000
0000
0000
0100
0000
0000
1000
0000
0100
0000
0010
0000
,
0001
0000
0000
1000
0000
0000
0100
0000
0000
0010
0000
0000
0100
0000
0000
1000
0000
0000
0001
0000
0010
0000
0100
0000
1000
0000
0000
0001
0000
0000
0100
0000
0000
0010
0000
0000
0100
0000
0000
0001
0000
0000
1000
0000
0010
0000
0100
0000
,
0001
0000
0000
1000
0000
0000
0010
0000
0000
0100
0000
0000
0010
0000
0000
1000
0000
0000
0001
0000
0100
0000
0010
0000
1000
0000
0000
0000
0000
0000
0100
0000
0000
0000
0000
0000
1000
0000
0000
0010
0000
0000
1000
0000
0010
0000
0100
0000
,
0001
0000
0000
1000
0000
0000
0010
0000
0000
0100
0000
0000
0010
0000
0000
1000
0000
0000
0001
0000
0100
0000
0010
0000
1000
0000
0000
0001
0000
0000
0010
0000
0000
0100
0000
0000
0010
0000
0000
0001
0000
0000
1000
0000
0100
0000
0010
0000
,
0001
0000
0000
1000
0000
0000
0100
0000
0000
0010
0000
0000
0100
0000
0000
1000
0000
0000
0001
0000
0010
0000
0100
0000
1000
0000
0000
0000
0000
0000
0001
0000
0000
0000
0000
0000
1000
0000
0000
0001
0000
0000
0100
0000
0000
0010
0000
0000
,
1000
0100
0010
0100
0001
0100
0010
0100
1000
0010
0100
0010
0001
0010
0100
0010
,
1000
0001
1000
0100
0001
0100
1000
0010
0100
0010
0001
0010
1000
0100
0010
0001
,
0001
0100
0010
0100
1000
0100
0010
0100
0001
0010
0100
0010
1000
0010
0100
0010
,
0001
1000
0001
0100
1000
0100
0001
0010
0100
0010
1000
0010
0001
0100
0010
0100
,
1000
0000
0000
0000
0000
0000
0001
0000
0000
1000
0000
0000
0010
0000
0000
0100
0000
0000
1000
0000
0100
0000
0001
0000
0010
0000
0000
0000
0000
0000
0100
0000
0000
1000
0000
0000
0010
0000
0000
0000
0000
0000
0100
0000
0001
0000
0010
0000
,
1000
0000
0000
0000
0000
0000
1000
0000
0000
0010
0000
0000
0000
0000
0000
0010
0000
0000
0001
0000
0100
0000
1000
0000
0001
0000
0000
0000
0000
0000
0010
0000
0000
1000
0000
0000
0100
0000
0000
0010
0000
0000
0100
0000
0000
0010
0000
0000
,
0001
0000
0000
0100
0000
0000
0010
0000
0000
0100
0000
0000
0010
0000
0000
1000
0000
0000
0001
0000
0000
0010
0000
0000
0100
0000
0000
0000
0000
0000
0100
0000
0000
1000
0000
0000
0000
0000
0000
1000
0000
0000
0010
0000
0100
0000
0001
0000
,
0010
0000
0100
0000
1000
0010
0000
0010
0100
0000
0100
0001
0010
1000
0001
0100
,
1000
0000
0000
0000
;
