#TITLE:Fighter;
#SUBTITLE:;
#ARTIST:KANA-BOON;
#TITLETRANSLIT:Fighter;
#SUBTITLETRANSLIT:;
#ARTISTTRANSLIT:KANA-BOON;
#GENRE:ANIME;
#CREDIT:;
#MUSIC:Fighter.ogg;
#BANNER:Fighter.png;
#BACKGROUND:Fighter-bg.png;
#CDTITLE:;
#SAMPLESTART:46.578;
#SAMPLELENGTH:10.749;
#SELECTABLE:YES;
#OFFSET:0.539;
#BPMS:0.000=182.000;
#STOPS:;
#BGCHANGES:;
#FGCHANGES:;

//--------------- dance-single - ----------------
#NOTES:
     dance-single:
     :
     Hard:
     13:
     0,0,0,0,0:
0000
0000
0000
0000
,
0000
0000
0000
0000
0000
0000
1000
0100
,
1000
0001
0100
0001
1000
0010
1000
0001
,
0010
0001
0100
0010
0000
0110
0000
0100
,
0001
0100
0010
0000
0010
1000
0000
1100
,
0000
0011
0000
0001
0010
0100
1000
0001
,
0100
0000
1010
0000
0010
0100
0000
0100
,
0001
0100
0010
1000
0100
0001
0100
1000
,
0001
0000
1001
0000
0001
0010
0000
1100
,
0000
0101
0000
1000
0010
0100
0001
0100
,
0010
0000
1010
0000
0010
0100
0000
0110
,
0000
0100
0001
0100
1000
0100
0001
0100
,
0000
1000
0100
0000
0001
0100
0000
1000
,
0100
0010
0000
0001
0010
0100
1000
0010
,
0000
0001
0010
0000
1000
0010
0000
0001
,
0010
0100
0000
0001
0010
0100
1000
0100
,
0000
0001
0100
0000
1000
0010
0000
0001
,
0010
0100
0000
0001
0001
0001
0100
0010
,
0000
0000
0010
0000
0100
0000
0000
0000
0001
0000
1000
0100
1000
0000
0001
0000
,
1000
0000
0001
0100
0001
0000
1000
0010
1000
0000
0001
0100
0001
0000
0100
0000
,
0001
1000
0100
1000
0001
0010
0001
1000
,
0001
0100
0100
0100
0001
1000
0001
0010
,
0001
1000
0010
1000
0001
0100
0001
1000
,
0100
1000
0001
0100
0010
1000
0001
0100
,
1000
0001
0010
1000
0001
0010
1000
0001
,
0100
1000
0001
0010
0100
1000
0001
0010
,
1000
0001
0100
1000
0100
0001
0100
1000
,
0010
0000
0100
0000
0010
0100
0010
0100
0010
0100
0010
0000
0110
0000
0000
0000
,
0110
1001
1001
1100
,
1100
0101
0101
1010
,
1100
0011
0101
1100
,
0101
0000
0000
0000
1001
0000
0000
0000
0001
1000
0001
1000
0001
0000
0100
0000
,
0010
0000
0010
1000
0000
1100
0000
0100
,
1000
0100
0010
0001
0010
0100
1000
1100
,
0000
0001
0101
0000
1000
1100
0000
0010
,
1001
0000
1100
0000
0101
0000
0001
0100
,
1000
0100
0001
0010
1000
0010
0100
1000
,
0010
0100
0001
0010
0001
0010
0100
0000
,
2100
0000
0001
0000
0100
0000
3001
0010
,
0100
1000
0000
0011
0000
0010
0100
0000
,
0100
1000
0001
0000
0101
0000
1010
0000
,
0010
1000
0001
0000
0011
0000
0001
0001
,
0010
0010
0100
0100
1000
1000
0001
0100
,
0001
0000
0100
0000
0010
0000
1000
0000
0001
0100
0001
0100
0001
0000
1000
0000
,
0010
0100
1000
0001
0010
0100
1000
0100
,
0001
1000
0100
0001
1000
0010
0100
1000
,
0020
0000
1000
0000
0001
0000
1030
0001
,
0010
0100
0000
1100
0000
1000
0001
0000
,
0011
0000
0010
0100
1000
0000
1100
0000
,
1010
0000
0010
0100
0001
0000
0002
0000
,
0023
0230
2300
3002
,
0103
0001
0100
0000
0001
0100
0001
0000
0100
0001
0100
0001
1000
0000
0000
0000
,
0110
0000
0000
0000
0001
0000
0010
0000
0000
0000
0100
0000
1000
0000
0000
0001
,
0000
0000
0100
0000
0020
0000
0000
0000
1000
0000
0000
0000
0130
0000
0000
0001
,
0000
0000
1000
0000
0100
0000
0010
0000
0001
0000
0010
0000
0100
0000
0000
1000
,
0000
0001
0010
0000
0200
0000
2000
0000
,
0000
0000
3300
0000
1100
0000
1000
0001
,
0000
0000
0000
0000
1001
0000
0000
0000
0001
0010
0001
0010
0100
0000
0000
0000
,
0011
0001
0010
0100
0000
1100
0000
1001
,
0000
1000
0010
0100
0001
0100
1010
0000
,
1001
1000
0010
0100
0000
1010
0000
0011
,
0000
0001
0010
0100
1000
0100
0011
0000
,
1001
0001
0010
0100
0000
1001
0000
0110
,
0000
1010
1000
0010
0100
0001
0011
0000
,
0110
0001
1000
1001
0000
0002
0000
0000
,
0023
0230
2300
3002
,
0000
0000
0000
0000
0000
0000
0000
0000
0000
1000
0000
0000
1003
0000
0000
0000
;

//--------------- dance-single - ----------------
#NOTES:
     dance-single:
     :
     Challenge:
     16:
     0,0,0,0,0:
0000
0000
0000
0000
,
0000
0000
0000
0000
0000
0000
1000
1000
,
1000
0100
0100
0100
0010
0010
0010
0001
,
0001
0001
0100
0100
0000
1010
0000
0100
,
0001
1000
0010
0000
0100
0001
0000
1100
,
0000
0101
0000
0001
1000
0100
1000
0001
,
0100
0000
0011
0000
0010
0100
0000
1000
,
0001
0100
0001
1000
0100
0010
0100
1000
,
0001
0000
0101
0000
0100
0010
0000
0101
,
0000
1100
0000
0001
0010
0100
0010
0100
,
1000
0000
1010
0000
1000
0001
0000
0110
,
0000
0000
0100
0001
0100
0000
0010
1000
0010
0000
0100
0010
0100
0000
0001
0000
,
1000
0100
0100
0001
0010
0010
1000
0010
,
0010
0001
0000
0001
0010
0100
1000
1000
,
0100
0001
0001
0100
1000
1000
0010
0001
,
0001
0010
0000
0010
1000
0100
0010
0010
,
1000
0001
0001
0100
1000
1000
0010
0100
,
0100
0001
0000
0001
0001
0001
0100
0100
,
1000
0000
0100
0000
0100
0000
0001
0000
0010
0000
0100
1000
0100
0000
1000
0000
,
0001
0000
0100
0001
0100
0000
0010
1000
0010
0000
0100
0010
0100
0000
0100
0000
,
1000
0010
0010
0001
0100
0100
1000
0010
,
0010
0100
0100
0100
1000
0010
1000
1000
,
0100
0010
0010
0100
0001
0001
0100
1000
,
1000
0000
0010
0000
0100
0000
0001
0000
0010
0000
0100
1000
0100
0000
0010
0000
,
0001
0010
0010
1000
0010
0010
0001
0010
,
0010
0000
1000
0000
0010
0000
0100
0000
0010
0000
1000
0100
0010
0000
0001
0000
,
1000
0100
0100
0001
0100
0100
1000
0100
,
0100
0000
0001
0000
1000
0010
0100
0001
1000
0010
0100
0001
0101
0000
0000
0000
,
0101
0011
0011
1100
,
1100
1010
1010
0101
,
0011
1100
1010
0110
,
1001
0000
0000
0000
0110
0000
0000
0000
0010
0100
0010
0100
0010
0000
1000
0000
,
0001
0000
0001
1000
0000
1001
0000
0001
,
0010
0100
1000
0100
0010
0001
0011
0011
,
0000
1010
1010
0000
0110
0110
0000
1001
,
1001
0000
0000
0000
1001
0000
0000
0000
0001
0010
0100
1000
0100
0000
1000
0100
,
1000
0000
0001
0100
0001
0000
0100
0001
0100
0000
0010
1000
0010
0000
1000
0010
,
1000
0000
0001
0010
0001
0010
0100
1000
0100
1000
0001
0010
0100
0000
0000
0000
,
2001
0000
0100
0000
0001
0000
3100
0010
,
0001
1000
0000
1010
0000
0010
0100
0000
,
0100
0001
1000
0000
1100
0000
0011
0000
,
0001
0000
1000
0000
0100
0000
0000
0000
0101
0000
0000
0000
1010
0000
1000
0001
,
0100
0000
1000
0000
0100
0001
1000
0000
0100
1000
0010
1000
0100
0000
0010
0001
,
0100
0001
0010
0001
0100
0000
0110
0000
0110
0000
0110
0000
1001
0000
0001
0010
,
0100
1000
0100
0000
0010
0001
0100
0000
0110
0000
1000
0010
0100
0001
1000
0010
,
0100
0001
1000
0000
0100
0010
0100
0000
1001
0000
0001
0010
0100
0010
0001
1000
,
0020
0000
1000
0000
0100
0000
1030
0001
,
0100
0010
0000
0110
0000
1000
0001
0000
,
1001
0000
0010
0100
0010
0000
1001
0000
,
1001
0000
0100
0010
0100
0000
0120
0000
,
2030
3200
0320
0032
,
1003
0100
0010
0001
0100
0001
0010
0100
1000
0010
1000
0100
0001
0000
0000
0000
,
0110
0000
0000
0000
0010
0000
0001
0000
0000
0000
0001
0000
1000
0000
0000
0010
,
0000
0000
0100
0000
0002
0000
0000
0000
1000
0000
0000
0000
0013
0000
0000
0001
,
0000
0000
0100
0000
0010
0000
1000
0000
0001
0000
0010
0000
0100
0000
0000
1000
,
0000
0001
0100
0000
0020
0000
0100
0000
,
0001
0000
0100
0000
1000
0000
0130
0110
,
0000
0000
0000
0000
1001
0000
0000
0000
0001
0010
0100
1000
1100
0000
0000
0000
,
0011
0001
0010
0100
0000
0011
0000
1001
,
0000
1000
0010
0100
0001
0100
1010
0000
,
0101
0001
0100
0010
0000
1100
0000
0101
,
0000
0000
0100
0000
0010
0000
1000
0000
0001
0100
0001
0100
0001
0000
0000
0000
,
0011
0010
0100
1100
0000
1001
0000
0110
,
0000
1001
1000
0010
0100
0001
0110
0000
,
0110
1000
0001
2001
0000
3002
0000
0000
,
0203
0302
0023
0230
,
0000
0000
0000
0000
0000
0000
0300
0000
0000
1001
0000
0000
1001
0000
0000
0000
;
