#TITLE:Fever Time;
#SUBTITLE:;
#ARTIST:ポプテピピック;
#TITLETRANSLIT:Fever Time;
#SUBTITLETRANSLIT:;
#ARTISTTRANSLIT:pop team epic;
#GENRE:ANIME;
#CREDIT:;
#MUSIC:Fever Time.ogg;
#BANNER:Fever Time.png;
#BACKGROUND:Fever Time-bg.png;
#CDTITLE:;
#SAMPLESTART:0.623;
#SAMPLELENGTH:12.387;
#SELECTABLE:YES;
#OFFSET:0.925;
#BPMS:0.000=155.000;
#STOPS:;
#BGCHANGES:;
#FGCHANGES:;

//--------------- dance-single - ----------------
#NOTES:
     dance-single:
     :
     Beginner:
     12:
     0,0,0,0,0:
0000
0000
0000
0000
,
0001
0100
0010
1000
0100
0010
0001
0100
,
0001
0010
0100
0010
0001
0010
0001
0100
,
0001
0010
0100
1000
0001
0100
0001
0100
,
0010
0100
0001
1000
0001
1000
0010
1000
,
0010
0100
0010
0100
0001
1000
0010
1000
,
0010
0100
0001
0100
0001
0010
0001
0100
,
0010
0100
0001
0100
0010
1000
0001
1000
,
0010
1000
0100
0010
0001
1000
0100
0010
,
0001
0000
0000
0000
;

//--------------- dance-single - ----------------
#NOTES:
     dance-single:
     :
     Easy:
     15:
     0,0,0,0,0:
0000
0000
0000
0000
,
0001
1000
0001
1000
0001
1000
0001
1000
0001
1000
0001
1000
0001
1000
0001
1000
,
0001
1000
0001
1000
0001
1000
0001
1000
0001
1000
0001
1000
0001
1000
0001
1000
,
0001
1000
0001
1000
0001
1000
0001
1000
0001
1000
0001
1000
0001
1000
0001
1000
,
0001
1000
0001
1000
0001
1000
0001
1000
0001
1000
0001
1000
0001
1000
0001
1000
,
0001
1000
0001
1000
0001
1000
0001
1000
0001
1000
0001
1000
0001
1000
0001
1000
,
0001
1000
0001
1000
0001
1000
0001
1000
0001
1000
0001
1000
0001
1000
0001
1000
,
0001
1000
0001
1000
0001
1000
0001
1000
0001
1000
0001
1000
0001
1000
0001
1000
,
0001
1000
0001
1000
0001
1000
0001
1000
0001
1000
0001
1000
0001
1000
0001
1000
,
0001
0000
0000
0000
;

//--------------- dance-single - ----------------
#NOTES:
     dance-single:
     :
     Medium:
     15:
     0,0,0,0,0:
0000
0000
0000
0000
,
0001
0100
0001
0100
0001
0100
0001
0100
0010
0100
0010
0100
0010
0100
0010
0100
,
0010
1000
0010
1000
0010
1000
0010
1000
0100
1000
0100
1000
0100
1000
0100
1000
,
0100
0010
0100
0010
0100
0010
0100
0010
0001
0010
0001
0010
0001
0010
0001
0010
,
0001
0100
0001
0100
0001
0100
0001
0100
0010
0100
0010
0100
0010
0100
0010
0100
,
0010
1000
0010
1000
0010
1000
0010
1000
0100
1000
0100
1000
0100
1000
0100
1000
,
0100
0010
0100
0010
0100
0010
0100
0010
0001
0010
0001
0010
0001
0010
0001
0010
,
0001
0100
0001
0100
0001
0100
0001
0100
0010
0100
0010
0100
0010
0100
0010
0100
,
0010
1000
0010
1000
0010
1000
0010
1000
0001
1000
0001
1000
0001
1000
0001
1000
,
0001
0000
0000
0000
;

//--------------- dance-single - ----------------
#NOTES:
     dance-single:
     :
     Hard:
     16:
     0,0,0,0,0:
0000
0000
0000
0000
,
0001
0010
0100
0010
0001
0100
0001
0100
0010
1000
0100
1000
0010
0100
0010
1000
,
0010
0100
0001
0100
0001
0100
0010
1000
0010
1000
0010
0100
0001
0010
0100
0010
,
0100
1000
0010
1000
0001
1000
0100
0010
0100
1000
0100
1000
0010
1000
0100
0010
,
0001
0100
0010
1000
0001
1000
0100
0010
0001
1000
0100
1000
0100
1000
0001
0100
,
0010
1000
0010
0100
0010
0100
0001
1000
0001
0100
0010
0100
0010
0100
0001
1000
,
0001
1000
0010
0100
0010
0100
0010
1000
0100
1000
0100
1000
0001
0010
0100
0010
,
0001
1000
0100
1000
0010
0100
0001
0010
0001
0100
0010
0100
0010
1000
0100
1000
,
0010
0100
0001
0100
0010
1000
0001
0100
0001
1000
0100
1000
0100
0010
0001
0010
,
0100
0000
0000
0000
;

//--------------- dance-single - ----------------
#NOTES:
     dance-single:
     :
     Challenge:
     17:
     0,0,0,0,0:
0000
0000
0000
0000
,
0001
0100
0001
0010
1000
0010
0001
1000
0100
0010
0001
0100
1000
0100
0010
0001
,
0010
0100
1000
0001
1000
0100
0001
0010
0001
0100
0001
0010
1000
0010
0100
0010
,
0001
1000
0001
0010
0100
0010
1000
0010
0001
1000
0100
0010
0100
0001
0100
1000
,
0100
0010
0100
1000
0001
0100
1000
0100
0001
1000
0010
0001
0010
1000
0001
0010
,
1000
0010
0100
1000
0001
0100
0001
0010
0100
1000
0010
0100
1000
0100
0010
0001
,
0010
0100
0001
0100
0010
0100
1000
0001
1000
0001
0010
0100
1000
0100
0001
0010
,
0100
0010
1000
0001
1000
0010
1000
0010
0001
0100
0001
0010
1000
0001
0100
1000
,
0001
0100
1000
0001
0010
1000
0001
0100
0010
0100
0001
0100
1000
0100
0001
0010
,
1000
0000
0000
0000
;
