#TITLE:ファタール;
#SUBTITLE:;
#ARTIST:GEMN;
#TITLETRANSLIT:Fatal;
#SUBTITLETRANSLIT:;
#ARTISTTRANSLIT:GEMN;
#GENRE:ANIME;
#CREDIT:;
#BANNER:Fatal.png;
#BACKGROUND:Fatal-bg.png;
#LYRICSPATH:;
#CDTITLE:;
#MUSIC:Fatal.ogg;
#OFFSET:0.064000;
#SAMPLESTART:56.473999;
#SAMPLELENGTH:12.115000;
#SELECTABLE:YES;
#BPMS:0.000000=156.000000
;
#STOPS:
;
#BGCHANGES:0.000=Fatal.avi=1.000=0=0=0=====,
99999=-nosongbg-=1.000=0=0=0 // don't automatically add -songbackground-
;
#KEYSOUNDS:;
#ATTACKS:;

//---------------dance-single - ----------------
#NOTES:
     dance-single:
     :
     Medium:
     13:
     0.619077,0.599721,0.253617,0.220536,0.121295,393.000000,370.000000,23.000000,20.000000,0.000000,0.000000,0.619077,0.599721,0.253617,0.220536,0.121295,393.000000,370.000000,23.000000,20.000000,0.000000,0.000000:
0000
0000
0000
0000
,
0001
0100
0010
0100
0002
0010
0000
0013
,
0100
1000
0001
1000
0010
0200
0000
0301
,
0010
1000
0010
0001
1000
0100
0001
0100
,
1000
0001
0100
1000
0100
0001
1000
0100
,
0000
0000
1000
0000
0000
1000
0000
0000
0010
0000
0100
0000
0000
0000
0100
0000
,
0001
0000
0000
0001
0000
0000
0010
0000
0100
0000
1000
0000
0000
0000
1000
0000
,
0100
0000
0000
0010
0000
0000
0100
0000
1000
0000
0000
0001
0000
0000
0100
0000
,
0010
0000
0000
0100
0000
0000
0002
0000
0000
0000
1003
0000
0001
0000
0100
0000
,
0010
1000
0100
1000
0010
1000
0100
1000
,
0001
0010
0100
2000
0000
3001
1000
0001
,
0010
0001
0100
0001
0010
0001
0100
0001
,
1000
0010
0100
0002
0000
1003
0100
0010
,
0001
0000
0110
0000
1000
0010
0100
0001
,
1000
0001
0010
0100
0000
1000
0100
0001
,
0100
2000
0000
3001
0100
1000
0100
0002
,
0000
1003
0010
0100
0001
0010
0100
1000
,
0002
0000
0000
1003
0000
0010
0100
0000
0100
0002
0000
0000
,
1003
0000
0100
0010
0000
0010
0002
0000
0000
1003
0000
0000
,
1001
0000
0001
0200
0000
0000
0310
0000
1000
0001
0000
0001
,
0020
0000
0000
0000
0130
1000
0001
0000
,
1001
0000
0001
0010
0100
1000
0010
0110
,
0000
0100
0001
0010
0100
1000
0000
1000
,
0001
0001
0100
0100
0010
1000
0100
0001
,
0000
0001
0100
1000
0010
0100
0010
1000
,
1010
0010
0100
0001
0101
0000
0011
0001
,
0010
0100
2000
0000
0010
0000
3010
0000
,
1100
1000
0100
0010
0011
0000
0101
0001
,
0100
0010
1010
0000
1000
0001
1000
0000
,
0011
0000
0001
1000
0001
0100
1000
0200
,
0000
0301
1000
0100
0001
0200
0000
1300
,
0100
0001
1000
0010
1000
0001
0100
1000
,
0000
1100
0000
0000
1000
0001
1000
0010
,
0100
0001
0100
0001
1000
0100
1000
0100
,
0010
0001
0010
0001
1000
0001
1000
0001
,
1000
0010
0100
0001
1000
0100
0010
0001
,
1000
0000
0000
0001
0000
0000
1000
0000
0001
0000
0000
0000
0110
0000
0000
0000
,
1001
0000
0001
0010
0100
0000
1000
0010
,
0100
0001
0010
0001
0100
0000
0001
1000
,
0001
0100
1000
0100
0010
1000
0010
0001
,
1000
0100
0001
0010
1000
0000
0110
0000
,
1001
0000
1000
0010
0100
0000
0001
0010
,
0100
1000
0010
1000
0100
0000
1000
0001
,
1000
0100
0001
0100
0010
0001
0010
1000
,
0001
0000
0100
0000
1000
0000
0010
0000
0001
0000
1000
0000
0100
0000
0000
0100
,
0000
0000
0001
0000
0010
0000
0000
0010
0000
0000
0100
0000
1000
0000
0000
1000
,
0000
0000
0010
0000
0100
0000
0010
0000
0000
0000
1000
0000
0001
0000
0000
0101
,
0000
0000
0001
0000
1000
0000
0000
1100
0000
0000
1000
0000
0001
0000
0000
0110
,
0000
0000
0100
0000
0001
0000
1000
0000
0000
0000
1000
0000
0001
0000
0010
0100
,
0000
0000
0100
0000
1000
0000
0010
0100
0000
0000
0100
0000
0001
0000
0010
0100
,
0000
0100
1000
0001
0000
1000
0001
0100
,
0000
0100
0001
0010
0100
1000
0000
1100
,
0000
0001
0100
0010
2000
0000
0002
3003
,
1100
0000
0011
0000
0001
1000
0010
0000
,
0010
1000
0002
0000
0010
0000
0013
0100
,
1000
0100
0010
0001
0100
0000
0100
0010
,
0000
0010
1000
0001
0020
0000
0200
0000
,
0000
0330
0000
0000
;

//---------------dance-single - ----------------
#NOTES:
     dance-single:
     :
     Hard:
     15:
     0.782904,0.915364,0.319778,0.419019,0.611988,497.000000,468.000000,29.000000,38.000000,0.000000,0.000000,0.782904,0.915364,0.319778,0.419019,0.611988,497.000000,468.000000,29.000000,38.000000,0.000000,0.000000:
0000
0000
0000
0000
,
0001
0000
1000
0100
0000
1000
0100
0000
2000
0000
0020
0000
0030
0000
3010
0000
,
1000
0000
0001
0100
0000
0001
0100
0000
0002
0000
0020
0000
0030
0000
0013
0000
,
0100
0000
1000
0001
0000
1000
0001
0000
0100
0010
0100
0001
0010
0000
0100
0000
,
1000
0000
0001
0100
0000
1000
0100
0000
0001
0000
1000
0100
0000
0001
0200
0000
,
0000
0000
1300
0001
0000
1000
0001
0000
0010
0000
0200
0000
0000
0000
1300
0010
,
0100
0000
0001
1000
0000
0001
1000
0000
0010
0000
0200
0000
0000
0000
0301
0000
,
0100
0000
1000
0100
0000
0001
1000
0000
0100
0010
0000
0100
1000
0000
0001
0100
,
0000
0010
1000
0100
0010
0001
2000
0000
0000
0000
3010
0000
0100
0000
0001
0000
,
1001
1000
0100
0010
1000
0001
0100
1000
,
0010
0000
1000
0001
0010
0000
0200
0000
0000
0000
1300
0001
0010
0000
0100
0000
,
1000
0010
0001
1000
0100
0001
0010
0100
,
1000
0000
0001
0100
0010
0000
0200
0000
0000
0000
0301
0010
0100
0000
1000
0010
,
0100
0001
0100
1000
0100
0001
0010
1000
,
0010
0001
1000
0020
0000
0130
0001
1000
,
0002
0200
0003
0310
1000
0001
2000
0200
,
3000
0310
0001
1000
0001
0010
0100
1000
,
0002
0000
0000
1003
0100
1000
0010
1000
0100
0020
0000
0000
,
0031
0100
0001
0010
0001
0100
0020
0000
0000
1030
0001
0000
,
1001
0000
1000
0020
0000
0000
0130
0001
0010
0100
0010
0001
,
2000
0000
0001
0000
3010
0100
0010
0000
,
1001
0000
0000
0000
0001
0000
0010
0000
0100
0000
1000
0001
0010
0000
0011
0000
,
0000
0000
0010
0000
0001
0000
1000
0010
0100
0000
0110
0000
0000
0000
0010
1000
,
0001
0000
0100
1000
0100
0000
0001
1000
0100
0000
0001
0100
0020
0000
0100
0000
,
0000
0031
0010
0100
1000
0001
0100
0010
,
1000
0100
0001
0100
1100
0000
0001
0100
,
1000
0100
0201
0000
0001
0000
0320
0000
,
1030
0100
0001
0100
1100
0000
0001
0100
,
1000
0100
0201
0000
0301
1000
0010
0000
,
0110
0000
0100
0001
1000
0100
0010
0021
,
0000
0000
0130
0000
1000
0000
0010
0000
0100
0000
0002
0000
0000
0000
1003
0100
,
0010
0000
0100
1000
0010
0000
0100
0010
1000
0000
0001
0000
0010
0000
1000
0000
,
0000
0000
1000
0000
0010
0000
0000
0000
0010
0000
0001
0000
1000
0000
0001
0100
,
0001
0000
0100
0010
0100
0000
1000
0100
1000
0000
0100
0010
0100
0000
0001
1000
,
0001
0000
0010
0001
0010
0000
0100
0010
0100
0000
0010
1000
0010
0000
0100
0010
,
0100
1000
0001
0010
0100
1000
0001
1000
0100
0010
0001
1000
0001
0010
0100
1000
,
0010
0000
0000
0010
0000
0000
0010
0000
0100
0000
0000
0000
0110
0000
0000
0000
,
0102
0000
0003
1000
0100
0000
0010
0000
2100
0000
3000
0001
0100
0000
0010
0000
,
0101
0000
0001
0010
0100
0000
1000
0010
0100
0000
0000
0000
0001
0000
0100
0000
,
1000
0000
0100
0010
1000
0000
0100
0000
0001
0000
0100
0010
0001
0000
0100
0000
,
1000
0000
0100
0001
0010
0000
0100
1000
0010
0000
0100
0000
0001
1000
0001
0000
,
0012
0000
0003
1000
0010
0000
0100
0000
2010
0000
3000
0001
0010
0000
0100
0000
,
0011
0000
0001
0100
0010
0000
1000
0100
0010
0000
0000
0000
0001
0000
0010
0000
,
1000
0000
0010
0100
1000
0000
0010
0000
0001
0000
0010
0100
0001
0000
0010
0000
,
1000
0000
0001
0000
0100
0000
1000
0000
0000
0000
0001
0000
0100
0000
1000
0100
,
0000
0010
0100
0000
0001
0000
1000
0100
0000
0010
0100
0000
0001
0000
0100
0010
,
0000
0100
1000
0000
0020
0000
0100
0000
0130
0000
0001
0000
0101
0000
0000
1010
,
0000
0100
0001
0000
1100
0000
0000
0011
0000
0100
1000
0000
0101
0000
0000
1010
,
0000
0100
0001
0000
2000
0000
0001
0000
3001
0000
0010
0000
1000
0010
0000
0001
,
0000
0100
1000
0000
0100
0001
0000
0010
0000
1000
0010
0000
0001
0100
0000
1000
,
0000
0100
0001
0010
2000
0000
0010
0000
3010
0000
0001
0000
1000
0000
0010
0100
,
0010
0000
1000
0001
1000
0000
0100
0010
0100
0000
1000
0000
0000
0000
1002
0000
,
0000
0103
0010
1000
0200
0000
2000
3300
,
1100
0000
0011
0000
0010
0001
0100
0000
,
0010
1000
0100
0000
0010
0000
1001
0010
,
0100
1000
0100
0010
1001
0000
0001
0100
,
0000
0010
0100
0001
2000
0000
0002
0000
,
0000
3003
0000
0000
;

//---------------dance-single - ----------------
#NOTES:
     dance-single:
     :
     Challenge:
     17:
     1.003440,1.167878,0.396965,0.264644,1.146789,637.000000,601.000000,36.000000,24.000000,0.000000,0.000000,1.003440,1.167878,0.396965,0.264644,1.146789,637.000000,601.000000,36.000000,24.000000,0.000000,0.000000:
// measure 0
0000
0000
0000
0000
,  // measure 1
0001
0000
1000
0100
0000
0100
1000
0001
0200
0000
0010
0000
0000
0000
0310
0000
,  // measure 2
1000
0000
0001
0100
0000
0100
0001
1000
0200
0000
0010
0000
0000
0000
0310
0000
,  // measure 3
0001
0000
1000
0100
0000
0100
0010
0000
0100
1000
0001
0100
0010
0000
0100
0000
,  // measure 4
0001
1000
0100
0010
0000
0001
0010
0100
1000
0000
0001
0010
0000
0010
0200
0000
,  // measure 5
0000
0000
1300
0001
0000
1000
0001
0200
0010
0000
0002
0000
0003
0000
0301
1000
,  // measure 6
0001
0000
1000
0001
1000
0001
0010
0200
0010
0000
2000
0000
3000
0000
1300
0000
,  // measure 7
0001
0000
0100
0010
0000
0100
1000
0001
0010
0100
0000
0001
1000
0000
0100
0010
,  // measure 8
1000
0001
0100
0010
0001
1000
0020
0000
0000
0000
0130
0000
0010
0000
0100
0000
,  // measure 9
0110
0000
1000
0000
0001
0000
0010
0100
1000
0000
0001
0000
0100
0000
0001
1000
,  // measure 10
0010
0000
0100
0001
1000
0000
0100
0100
0100
0000
0010
0001
1000
0000
0001
0000
,  // measure 11
0110
0000
1000
0000
0001
0000
1000
0000
0110
0000
1000
0000
0001
0000
1000
0100
,  // measure 12
0010
0000
0100
1000
0001
0000
0100
0100
0100
0000
0001
0010
0100
0000
0001
0100
,  // measure 13
0010
0000
0001
0000
0100
0000
1000
0100
0010
0000
1000
0100
0010
0000
0100
0000
,  // measure 14
1000
0000
0000
0000
0000
0000
0001
0000
1000
0000
0001
0000
1000
0000
0000
0000
0000
0000
0100
0000
0000
0100
0000
0000
0100
0000
0000
0000
0000
0000
0010
0000
0000
0000
0000
0000
0100
0000
0000
0000
0000
0000
1000
0000
0000
0000
0000
0000
,  // measure 15
0102
0020
0003
0031
0100
0010
2100
0020
,  // measure 16
3000
0000
0000
1030
0000
0000
0010
0000
0000
0100
0000
0000
0001
0000
0000
1000
0000
0000
0001
0100
0001
1000
0100
1000
,  // measure 17
0002
0000
0000
0013
0100
1000
0100
0010
0001
2001
0000
0000
,  // measure 18
3001
0100
0010
1000
0010
0100
0210
0000
0000
0301
1000
0000
,  // measure 19
1001
0000
0001
0020
0000
0000
0130
1000
0001
0100
0010
1000
,  // measure 20
0001
0010
0100
1000
0001
0010
0100
1000
0001
0000
0100
0000
0010
0000
0000
0000
,  // measure 21
1001
0000
0000
0000
0000
0000
0001
0000
0000
1000
0000
0000
0010
0000
0000
0100
0001
0100
0001
0000
0000
1100
0000
0000
,  // measure 22
0000
0000
0000
0000
0000
0000
0001
0000
0000
0000
0000
0000
0010
0000
0000
0000
0000
0000
0100
0000
1000
0000
0100
0000
1000
0000
0000
0000
0000
0000
0001
0000
0100
0000
0001
0000
0100
0000
0000
0000
0000
0000
0010
0000
0000
1000
0000
0000
,  // measure 23
0001
0000
0000
0010
0100
0010
0100
0000
0000
1100
0000
0000
0011
0000
0000
0010
0001
1000
0200
0000
0000
0010
0000
0000
,  // measure 24
0000
0000
0000
0310
0000
0000
0001
0000
0000
1000
0100
0010
0001
0000
0000
0010
0000
0000
0100
0000
0000
1000
0000
0000
,  // measure 25
0011
0000
0000
1000
0000
0000
0100
0000
0000
0010
0000
0000
0101
0000
0000
1000
0001
1000
0001
0000
0000
1100
0000
0000
,  // measure 26
0001
0000
0000
0010
0000
0000
0100
0000
0000
1000
0100
1000
0100
0000
0000
0010
0100
0010
0100
0000
0000
1000
0001
1000
,  // measure 27
0001
0000
0000
0100
0001
0100
0001
0000
0000
1000
0000
0000
1001
0000
0000
0001
0100
0001
0100
0000
0000
0110
0000
0000
,  // measure 28
0010
0000
0000
1000
0100
1000
0100
0000
0000
0010
0000
0000
0001
0000
0000
1000
0000
0000
0010
0000
0000
0100
0000
0000
,  // measure 29
0110
0000
0000
1000
0100
0000
1000
0000
0001
0000
0000
0010
0100
0000
1000
0000
,  // measure 30
0001
0000
0000
0100
0001
0000
0100
0000
0020
0000
0000
0000
0130
0000
0001
0010
,  // measure 31
0100
0010
0001
0010
1000
0000
0010
0100
1000
0000
0001
0000
0100
0000
1000
0100
,  // measure 32
0001
0000
0000
1000
0000
0000
0100
0000
0000
1000
0001
1000
0001
0000
0000
1000
0000
0000
0100
0000
0000
0010
0000
0000
,  // measure 33
0001
0010
0100
0010
0001
0010
0100
1000
0010
0100
0010
1000
0010
0100
0001
1000
,  // measure 34
0001
0010
0100
0010
0001
1000
0100
0010
0100
1000
0001
0100
0010
1000
0100
1000
,  // measure 35
0001
0100
0001
0000
1000
0000
0001
0000
1000
0100
1000
0000
0001
0000
1000
0000
0001
0100
0001
0000
1000
0000
0001
0000
1000
0100
1000
0000
0001
0000
0010
0000
,  // measure 36
0100
0000
0000
0100
0000
0000
0100
0000
0010
0000
0000
0000
1001
0000
0000
0000
,  // measure 37
1001
0000
0000
0000
0000
0000
0001
0000
0010
0000
0100
0000
1000
0000
0000
0000
0000
0000
0010
0000
0000
0000
0000
0000
0100
0000
0000
0000
0000
0000
0001
0000
0000
1000
0000
0000
0100
0000
0000
0000
0000
0000
0001
0000
0000
0100
0000
0000
,  // measure 38
0010
0000
0001
0100
0010
0000
0001
0010
1000
0000
0001
0010
0100
0000
1000
0000
,  // measure 39
0001
0000
0100
0000
1000
0000
0100
0001
1000
0000
0100
0000
0001
0000
0100
1000
,  // measure 40
0001
0000
0000
0000
0000
0000
1000
0000
0010
0000
0100
0000
0001
0000
0000
0000
0000
0000
0010
0000
0000
0000
0000
0000
0100
0000
0000
0000
0000
0000
0110
0000
0000
0000
0000
0000
0001
0000
0000
1000
0000
0000
0001
0000
0000
1000
0000
0000
,  // measure 41
0001
0000
1100
0000
0001
0000
1000
0100
0001
0000
0101
0000
0100
0000
1000
0010
,  // measure 42
0100
0000
0000
0000
0000
0000
1000
0000
0000
0100
0000
0000
0010
0000
0000
0000
0000
0000
1000
0000
0000
0100
0000
0000
0010
0000
0000
0000
0000
0000
0001
0000
0010
0000
0100
0000
1000
0000
0001
0000
0010
0000
0100
0000
0000
0000
0000
0000
,  // measure 43
1000
0000
0000
0001
0100
0010
1000
0000
0000
0010
0000
0000
0100
0000
0000
0001
0010
0100
1000
0000
0000
0100
0000
0000
,  // measure 44
0010
0001
1000
0020
0100
0030
0110
0000
,  // measure 45
0010
0100
0001
1000
0010
1000
0001
0010
1000
0010
0001
1000
0100
1000
0001
0100
,  // measure 46
1000
0000
0000
0100
0000
0000
0001
0000
0000
1000
0000
0000
0010
0000
0000
1000
0000
0000
0001
0000
0000
0010
0000
0000
0100
0000
0000
0000
0000
0000
1100
0000
0000
0000
0000
0000
0011
0000
0000
0000
0000
0000
0001
0000
0010
0000
0100
0000
,  // measure 47
1000
0000
0000
0010
0000
0000
0100
0000
0000
0010
0000
0000
1000
0000
0000
0001
0000
0000
1000
0000
0010
0000
0100
0000
0001
0000
0000
0010
0000
0000
0100
0000
0000
0010
0000
0000
0001
0000
0000
1000
0000
0000
0001
0000
0010
0000
0100
0000
,  // measure 48
1000
0010
0100
0010
1000
0100
0010
0001
1000
0000
1100
0000
0011
0000
0001
1000
,  // measure 49
1000
0100
0010
0001
0100
1000
0100
0001
0001
0100
0010
1000
0100
0001
0100
1000
,  // measure 50
1000
0100
0010
0001
0100
1000
0100
0001
1001
0000
1100
0000
0101
0000
0001
1000
,  // measure 51
0001
0010
0100
1000
0001
1000
0100
0010
0001
1000
0010
0000
0000
0000
1002
0000
,  // measure 52
0000
0103
0010
1000
0020
0000
0200
0330
,  // measure 53
0110
0000
1001
0000
0001
1000
0100
0000
,  // measure 54
0100
1000
0010
0000
0100
0000
0101
0010
,  // measure 55
1000
0100
0010
0001
0110
0000
1000
0001
,  // measure 56
0000
0000
1000
0010
0100
0000
0010
0000
2000
0000
0000
0000
0002
0000
0000
0000
,  // measure 57
0000
3003
0000
0000
;
