#VERSION:0.83;
#TITLE:FAKE LAND;
#SUBTITLE:;
#ARTIST:FAKE TYPE;
#TITLETRANSLIT:FAKE LAND;
#SUBTITLETRANSLIT:;
#ARTISTTRANSLIT:FAKE TYPE;
#GENRE:POP;
#CREDIT:;
#MUSIC:FAKE LAND.ogg;
#BANNER:FAKE LAND.png;
#BACKGROUND:FAKE LAND-bg.png;
#CDTITLE:;
#SAMPLESTART:62.491;
#SAMPLELENGTH:13.151;
#SELECTABLE:YES;
#OFFSET:-0.025;
#BPMS:0.000=146.000
,44.000=292.000
,48.000=146.000
,68.500=292.000
,70.500=146.000
,72.250=292.000
,74.250=146.000
,75.250=292.000
,77.250=146.000
,78.250=292.000
,80.250=146.000
,120.500=73.000
,121.000=146.000
,121.500=73.000
,122.000=146.000
,122.500=73.000
,123.000=146.000
,123.500=73.000
,124.000=146.000
,125.500=73.000
,126.000=146.000
,126.500=73.000
,127.000=146.000
,127.500=73.000
,128.000=146.000
,128.500=73.000
,129.000=146.000
,130.500=73.000
,131.000=146.000
,131.500=73.000
,132.000=146.000
,132.500=73.000
,133.000=146.000
,133.500=73.000
,134.000=146.000
,135.500=73.000
,136.000=146.000
,136.500=73.000
,137.000=146.000
,137.500=73.000
,138.000=146.000
,138.500=73.000
,139.000=146.000
,140.500=73.000
,142.500=146.000
,222.500=73.000
,224.500=146.000
;
#STOPS:48.000=0.205
,70.500=0.103
,80.250=0.205
,90.750=0.205
,96.250=0.205
,104.750=0.308
,112.000=0.205
,124.500=0.205
,125.000=0.205
,129.500=0.205
,130.000=0.205
,134.500=0.205
,135.000=0.205
,139.500=0.205
,140.000=0.205
,307.500=1.027
;
#WARPS:88.750=2.000,
304.500=3.000,
307.521=2.000
;
#SPEEDS:0.000=1.000=0.000=0;
#SCROLLS:0.000=1.000;
#TICKCOUNTS:0.000=4;
#TIMESIGNATURES:0.000=4=4;
#LABELS:0.000=Song Start;
#COMBOS:0.000=1;
#DISPLAYBPM:146.000;
#ORIGIN:;
#PREVIEWVID:;
#JACKET:FAKE LAND-jacket.png;
#CDIMAGE:;
#DISCIMAGE:;
#BGCHANGES:2.000=FAKE LAND.avi=1.000=0=0=1,
99999.000=-nosongbg-=1.000=0=0=0=StretchNoLoop====
;
#FGCHANGES:;

//--------------- dance-single - ----------------
#NOTEDATA:;
#STEPSTYPE:dance-single;
#DESCRIPTION:;
#DIFFICULTY:Hard;
#METER:14;
#RADARVALUES:0,0,0,0,0;
#NOTES:
0000
0000
0000
0000
,
1001
0000
1100
0000
1000
0100
0010
0001
,
0011
0000
0000
0000
1000
0000
0010
0000
0100
0001
0000
1000
0000
0000
0001
0000
,
1001
0000
0000
0000
1001
0000
0000
0000
1000
0100
0010
0001
1000
0100
0010
0002
,
1000
0000
1000
0000
1003
0010
0100
0001
,
2001
0000
3010
0000
0100
0001
0010
0100
,
2000
0000
0000
0010
0000
0000
3100
0000
0000
0000
1000
0000
0010
0000
0100
0000
,
0000
0000
0001
0000
2000
0000
0000
0000
3001
0100
0010
1000
0001
0100
0010
2000
,
0001
0000
0001
0000
3001
0010
0100
1000
,
0010
0100
0001
1000
0001
0010
0001
0010
,
0100
1000
0010
0100
1000
0100
0001
0010
,
0220
0000
0000
0000
,
0330
0110
0000
0010
0001
1000
1000
0001
,
0001
0000
1100
0000
0000
0000
1000
0000
0001
0100
0001
0000
1000
0000
0010
0000
,
0100
0000
0010
0000
0100
0000
0001
0000
1000
0100
1000
0000
0001
0000
0010
0000
,
0100
0000
0010
0000
0100
0000
1000
0000
0001
0010
0001
0000
0100
0000
0001
0000
,
1000
0001
1000
1001
0000
1001
0000
1001
,
0000
0000
0210
0000
0000
0000
0000
0000
0000
0000
0310
0000
0000
1000
0000
1000
,
0000
0002
0000
0000
0000
0000
0000
0000
0000
0013
0000
0010
0000
0200
0000
0000
,
0000
0000
0000
0000
0000
1300
0000
1000
0000
0002
0000
0000
0000
0000
0000
0000
,
0000
1003
0000
0010
0000
0100
0010
0100
0000
0010
0000
1000
0000
0001
0000
0010
,
0000
0100
0000
1100
0000
0000
0000
1100
0000
0000
0000
1100
0000
0001
0000
1000
,
0000
0000
0000
0000
0000
0000
0000
0000
0000
0000
0000
0000
0000
0000
0000
0000
0000
0000
0000
0000
0000
0000
0000
0000
0000
0000
0000
0000
0000
0000
0000
0000
0000
0000
0000
2002
0000
0000
0000
0000
0000
0000
0000
0000
0000
0000
0000
0000
0000
0000
0000
0000
0000
0000
0000
0000
0000
0000
0000
0000
0000
0000
0000
0000
0000
0000
0000
0000
0000
0000
0000
0000
0000
0000
0000
0000
0000
0000
0000
0000
0000
0000
0000
0000
0000
0000
0000
0000
0000
0000
0000
0000
0000
0000
0000
0000
0000
0000
0000
0000
0000
0000
0000
0000
0000
0000
0000
0000
0000
0000
0000
0000
0000
0000
0000
0000
0000
0000
0000
0000
3003
0000
0000
0000
0000
0000
0000
0000
0000
0000
0000
0000
0000
0000
0000
0000
0000
0000
0000
0000
0000
0000
0000
0000
0000
0000
0000
0000
0000
0000
0000
0000
0000
0000
0000
0000
1001
0000
0000
0000
0000
0000
0000
0000
0000
0000
0000
0000
0000
0000
0000
0000
0000
0000
0000
0000
0000
0000
0000
0000
0000
0000
0000
0000
0000
0000
0000
0000
0000
0000
0000
0000
,
0000
0110
0000
0000
0000
1000
0000
0100
0000
0110
0000
0000
0000
1001
0000
0000
,
0000
2000
0000
3001
0000
0000
0000
1000
0000
0001
0100
0001
0000
1000
0000
0010
,
0000
0100
0000
0001
0000
0010
0000
0011
0000
0000
0000
0011
0000
0000
0000
0001
,
0010
0100
0010
0002
0003
0000
1000
0001
1000
0000
0010
0000
0100
0000
0001
0000
,
1000
0000
0001
0000
0010
0000
0100
1000
0100
0000
1000
0001
1000
0000
0010
0000
,
0220
0330
1000
0000
0010
0100
0010
0000
1000
0000
0001
0000
0010
0000
0001
0000
,
1000
0000
1010
0000
0000
0000
0101
0000
0000
0000
1000
0010
0100
0001
1000
0000
,
0001
2000
0000
3020
0000
0230
0000
0302
,
0000
0010
0013
0200
0000
2300
0000
3020
,
0000
0230
0000
0001
0301
0020
0000
0230
,
0000
2300
0000
3002
0000
1000
1003
0020
,
0000
2030
0000
3002
0000
0023
0000
0100
,
0130
0000
0000
0000
0110
0010
0100
0010
,
0100
0010
0100
0010
0100
0010
0001
0100
,
0010
1000
0001
0100
0110
0000
0100
1000
,
0100
0001
0100
0001
0100
1000
0100
0001
,
1000
1001
0000
1001
0000
0001
1000
0001
,
1000
0001
1000
0001
1000
0001
0010
0100
,
1000
0100
0010
0001
0101
0000
0100
1000
,
0100
0000
0002
0000
0000
1000
0000
0000
1003
0000
0100
0000
0010
0000
0100
0000
,
1000
0001
0100
0010
2000
0002
0000
0000
,
3003
0000
1000
0001
1000
0200
0000
0310
,
0100
0000
1000
0001
0000
0011
0000
0000
0001
0000
0200
0000
0000
0000
0000
0000
,
0000
0000
0301
0100
0010
1000
0001
0100
0010
1000
0001
0000
0000
0000
0101
0000
,
0000
0000
0110
0000
0100
0010
0000
0000
1010
0000
0102
0000
0000
0000
0000
0000
,
0000
0000
1003
0100
0001
0200
0000
1300
,
0001
0000
0010
0100
0000
1100
0000
0000
0001
0000
2000
0000
0000
0000
0000
0000
,
0000
0000
3001
0010
0100
1000
0001
0010
0100
1000
0001
0000
0000
0000
1001
0000
,
0000
1001
0010
0100
0010
2002
0000
0000
,
3003
0000
0000
0000
0001
0000
1000
0000
0002
0000
0100
0000
0000
0103
0000
0000
,
0020
0000
1030
0001
0020
0000
0130
2000
,
0000
0000
3001
0100
0010
1000
0001
0100
0010
1000
0001
0000
0000
0000
0011
0000
,
0000
1100
0001
1000
0001
0110
0000
0000
,
1001
0001
1000
0100
1000
0001
1000
0100
,
1000
0001
0010
0100
1000
0001
0100
0010
,
0110
0000
0010
1000
0010
0001
0010
0001
,
0010
1000
0010
0001
0010
0110
0000
0110
,
0000
1000
0001
0010
0001
1000
0001
0010
,
0001
1000
0010
0100
0001
1000
0100
0010
,
0110
0000
0000
0000
0010
0000
0001
0000
0010
0000
2000
0000
0000
0010
0000
0000
,
3010
0001
0100
1000
0100
0010
0001
0010
,
1000
0200
0000
0310
0001
0000
1000
1010
,
0000
0001
0100
1000
0100
0000
0010
1010
,
0000
1000
0100
0010
0001
0000
0010
0110
,
0000
1000
0100
0001
0100
1000
0001
1001
,
0000
0001
0100
0001
0100
0000
0100
1001
,
0000
1000
0010
1000
0010
0000
0010
1001
,
0000
0010
0010
0010
0010
0010
0010
1001
,
0000
0100
0100
0100
0100
0100
0100
1001
,
0000
1010
0010
0110
0100
0001
1000
1001
,
0000
0011
0001
1001
1000
0100
0010
0110
,
0000
0110
0010
0011
0001
0100
1000
0101
,
0000
0110
0010
1010
1000
0100
0001
1000
,
0010
0000
0000
0000
0000
0000
0000
0000
0000
0000
0000
0000
0000
0000
0000
0000
0000
0000
0000
0000
0000
0000
0000
0220
0000
0000
0000
0000
0000
0000
0000
0000
0000
0000
0000
0000
0000
0000
0000
0000
0000
0000
0000
0000
0000
0000
0000
0000
0000
0000
0000
0000
0000
0000
0000
0000
0000
0000
0000
0000
0000
0000
0000
0000
0000
0000
0000
0000
0000
0000
0000
0000
0000
0000
0000
0000
0000
0000
0000
0000
0000
0000
0000
0000
0000
0000
0000
0000
0000
0000
0000
0000
0000
0000
0000
0000
0000
0000
0000
0000
0000
0000
0000
0000
0000
0000
0000
0000
0000
0000
0000
0000
0000
0000
0000
0000
0000
0000
0000
0000
0000
0000
0000
0000
0000
0000
0000
0000
0000
0000
0000
0000
0000
0000
0000
0000
0000
0000
0000
0000
0000
0000
0000
0000
0000
0000
0000
0000
0000
0000
0000
0000
0000
0000
0000
0000
0000
0000
0000
0000
0000
0000
0000
0000
0000
0000
0000
0000
0330
0000
0000
0000
0000
0000
0000
0000
0000
0000
0000
0000
0000
0000
0000
0000
0000
0000
0000
0000
0000
0000
0000
0000
;

//--------------- dance-single - ----------------
#NOTEDATA:;
#STEPSTYPE:dance-single;
#DESCRIPTION:;
#DIFFICULTY:Challenge;
#METER:17;
#RADARVALUES:0.898513,0.956667,1.035756,0.390285,0.844366,838,700,138,52,48,0,0,0,0,0.898513,0.956667,1.035756,0.390285,0.844366,838,700,138,52,48,0,0,0,0;
#CHARTNAME:;
#CHARTSTYLE:;
#CREDIT:;
#NOTES:
0000
0000
0000
0000
,
2002
0000
0000
0000
3003
0011
1000
0010
,
0101
0000
0000
0000
1010
0000
0100
0000
0010
1000
0000
0011
0000
0000
0002
0000
,
2000
0000
0000
0000
0000
0000
3000
0000
0000
0000
0000
0000
1003
0000
0010
0100
0000
0001
1000
0000
0001
0010
0000
0200
,
1000
0000
1000
0000
1300
0010
0100
0001
,
2002
0000
0000
0003
0000
3001
0010
0100
,
1100
0000
0000
0011
0000
0000
1100
0000
0000
0000
1000
0000
0010
0000
0120
0000
,
0000
0000
0000
0130
0000
0000
0002
0000
0000
0000
0000
0000
1003
0000
0100
0010
0000
0001
1000
0000
0010
0100
0000
0001
,
1000
0000
0000
0100
0000
0000
0010
0000
0000
0100
0000
0000
1000
0000
0010
0000
0100
0000
0010
0000
0100
0000
0010
0000
1000
0000
0000
0001
0000
0000
0010
0000
0000
0100
0000
0000
1000
0000
0000
0000
0000
0000
0001
0000
0000
0000
0000
0000
,
1001
0000
0000
0000
0000
0000
1000
0000
0000
0100
0000
0000
1000
0000
0000
0000
0000
0000
0001
0000
0100
0000
0001
0000
0100
0000
0000
0000
0010
0000
1000
0000
0000
0000
1000
0000
0001
0000
0000
0000
0000
0000
0010
0000
0000
0100
0000
0000
,
0010
0000
0000
0000
0001
0000
1000
0000
0000
0000
0001
0000
0100
0000
0000
0000
0001
0000
1000
0000
0000
0000
0001
0000
0010
0000
0000
0100
0000
0000
1000
0000
0000
0000
0000
0000
0010
0000
0000
0000
0000
0000
0100
0000
0000
0000
0000
0000
,
2002
0000
0000
0000
,
3003
0000
0000
1001
0000
0000
1000
0100
1000
0100
0000
0000
1000
0010
1000
0010
0000
0100
0001
0000
0001
1000
0000
0000
,
0001
0000
0011
0000
1100
0000
1000
0100
0010
0001
1000
0010
1000
0100
0010
0000
,
0011
0000
0000
0000
0000
0000
1001
0000
0000
0000
0000
0000
1100
0000
0000
0000
0001
0000
0100
0000
0001
0000
1000
0000
0100
0000
0000
1000
0000
0000
0000
0010
0000
0100
0000
0000
0001
0000
0000
0000
0000
0000
0010
0000
0000
0100
0000
0000
,
0010
0100
0020
0000
0000
0000
0130
0000
1000
0001
1000
0000
0010
0100
0000
0000
,
1001
0000
0000
0000
0000
0000
0001
0000
0000
0100
0000
0000
0000
0000
0000
0100
0000
0000
0001
0000
0000
0000
0000
0000
0010
0000
0000
0000
0100
0000
1000
0000
0000
0000
0000
0000
1001
0000
0000
0000
0000
0000
1000
0000
0000
0100
0000
0000
,
0010
0001
2000
0000
0000
0000
0000
0000
0000
0000
3000
0001
0100
0001
0100
0001
,
0100
0002
0000
0000
0000
0000
0000
0000
0000
0013
0100
0010
0000
0200
0000
0000
,
0000
0000
0000
0000
0000
0000
0000
0000
0000
0000
0000
0000
0000
0000
0000
1300
0000
0000
0000
0001
0000
0100
0000
0000
0000
0100
0000
0020
0000
0000
0000
0000
0000
0000
0000
0000
0000
0000
0000
0000
0000
0000
0000
0000
0000
0000
0000
0000
,
0000
1030
0000
0001
0100
0001
1000
0100
0000
0010
0001
0010
0100
0010
1000
0010
,
0000
0000
0000
1010
0000
0000
0000
0000
0000
0101
0000
0000
0000
0000
0000
0001
0000
0000
0100
0000
0000
1000
0000
0000
0000
0000
0000
1000
0000
0000
0010
0000
0000
0100
0000
0000
0000
0010
0000
0100
0000
0000
0000
0100
0000
0010
0000
0000
,
0000
0000
0000
0000
0000
0000
0000
0000
0000
0000
0000
0000
1010
0000
0000
0000
0000
0000
0000
0000
0000
0000
0000
0000
0000
0000
0000
0000
0000
0000
0000
0000
0000
0000
0000
2002
0000
0000
0000
0000
0000
0000
0000
0000
0000
0000
0000
0000
0000
0000
0000
0000
0000
0000
0000
0000
0000
0000
0000
0000
0000
0000
0000
0000
0000
0000
0000
0000
0000
0000
0000
0000
0000
0000
0000
0000
0000
0000
0000
0000
0000
0000
0000
0000
0000
0000
0000
0000
0000
0000
0000
0000
0000
0000
0000
0000
0000
0000
0000
0000
0000
0000
0000
0000
0000
0000
0000
0000
0000
0000
0000
0000
0000
0000
0000
0000
0000
0000
0000
0000
3003
0000
0000
0000
0000
0000
0000
0000
0000
0000
0000
0000
0000
0000
0000
0000
0000
0000
0000
0000
0000
0000
0000
0000
0000
0000
0000
0000
0000
0000
0000
0000
0000
0000
0000
0000
0110
0000
0000
0000
0000
0000
0000
0000
0000
0000
0000
0000
0000
0000
0000
0000
0000
0000
0000
0000
0000
0000
0000
0000
0000
0000
0000
0000
0000
0000
0000
0000
0000
0000
0000
0000
,
0000
0110
0000
0000
0000
0110
0000
0100
0001
0010
0001
0100
0001
0010
0000
0000
,
0100
0000
0000
2000
0000
0000
0000
0000
0000
3001
0000
0000
0100
0000
0000
0010
0000
0000
1000
0000
0000
0100
0000
0000
0010
0000
0000
0001
0000
0000
0000
0000
0000
1000
0000
0000
0000
0010
0000
0001
0000
0000
0000
0001
0000
0010
0000
0000
,
1000
0000
0000
0100
0000
0000
0010
0000
0000
0001
0000
0000
0000
1000
0000
0010
0000
0000
0000
0010
0000
0100
0000
0000
0000
0000
0000
0100
0000
0000
0001
0000
0000
0010
0000
0000
0000
0100
0000
1000
0000
0000
0000
1000
0000
0001
0000
0000
,
0100
0110
0000
0220
0330
0000
0001
1000
0001
0000
0100
0000
0020
0000
0000
0000
,
1030
0000
0000
0010
0000
0000
0001
0000
0000
1000
0000
0000
0100
0000
0000
0000
0001
0000
0010
0000
0000
0000
0100
0000
1000
0000
0000
0000
0000
0000
0001
0000
0000
0100
0000
0000
0001
0000
0000
0000
1000
0000
0100
0000
0000
0010
0000
0000
,
0220
0000
0000
0330
0000
0000
1001
0000
0000
0000
1000
0000
0010
0000
0000
0000
0010
0000
0001
0000
0000
0000
1000
0000
0100
0000
0000
0000
0100
0000
0001
0000
0000
0000
0011
0000
0000
0000
0000
0000
0010
0000
0100
0000
0000
0000
0000
0000
,
0100
0000
0000
1000
0000
0000
0001
0000
0100
0000
0001
0000
0000
0000
0000
0000
1000
0000
0010
0000
0000
0000
0000
0000
0100
0000
0001
0000
0100
0000
0001
0000
0000
1000
0000
0000
0000
0000
0000
1000
0000
0000
0100
0000
0000
0000
0000
0000
,
0010
0000
0000
0000
0002
0000
0000
0000
0103
0000
0000
0000
0020
0000
0000
0000
1030
0000
0000
0000
0200
0000
0000
0000
1300
0000
0001
0000
1000
0000
0001
0100
,
0001
0010
0010
0200
1300
0002
0103
0020
,
1030
0000
0001
0000
1000
0000
0001
0100
0001
0000
0000
0000
1000
0000
0000
0000
1000
0000
0000
0000
0020
0000
0000
0000
0130
0000
0000
0000
0002
0000
0000
0000
,
1003
0000
0000
0000
0200
0000
0000
0310
0001
0000
1000
0000
0001
0000
0100
0010
0100
0000
0000
0000
0110
0000
0000
0000
0110
0000
0000
0000
2000
0000
0000
0000
,
3100
0000
0000
0000
0020
0000
0000
0000
0031
0000
0000
0000
2000
0000
0000
3001
0100
0000
0001
0000
1000
0000
0001
0010
0001
0000
0000
0000
1001
0000
0000
0000
,
1001
0100
0100
0100
0110
0110
0010
0110
,
0100
0110
0010
0110
0100
0110
1000
0001
,
1000
0110
0001
0010
0100
1000
0101
0001
,
1100
0000
1000
0000
0101
0000
1000
0000
1100
0000
0001
0000
1000
0010
0001
0000
,
1000
0000
0001
0010
1000
0100
0001
0000
0100
0000
0110
0000
0010
0000
0110
0000
,
0100
0110
0010
0110
0100
0110
0001
1000
,
0001
0110
1000
0010
0100
0001
1100
1000
,
0101
0000
0001
0000
1000
0010
0000
0010
0100
0000
0001
0010
1000
0010
0100
1000
,
0010
0000
0100
0000
0010
0000
0100
0000
0000
0001
0000
0000
0100
0000
0000
1000
0000
0000
0100
0000
0000
0001
0000
0000
0020
0000
0000
0000
0000
0000
0200
0000
0000
0000
0000
0000
0000
0000
0000
0000
0000
0000
0000
0000
0000
0000
0000
0000
,
0000
0030
0310
0001
1000
0020
0100
0100
,
0100
0000
0000
0100
0000
0000
0100
0000
0000
0100
0000
0000
0130
0000
0000
0100
0010
0100
0010
0100
0010
0100
0010
0100
,
0010
0100
0020
0200
0000
0000
0000
0000
0000
0000
0000
0000
0030
0000
0000
0001
0000
0000
0000
0000
0000
0010
0000
0000
,
0000
0000
1300
0000
0000
0000
0110
0000
1001
0000
0001
0010
0001
0100
0010
0001
,
0010
1000
0100
0010
1000
0010
0001
0000
1000
0010
0100
0001
1000
0010
0200
0000
,
0302
0000
2000
0000
3003
0000
1001
0000
0000
0000
1001
0000
1000
0010
0100
0000
,
0110
0000
0100
0001
0010
0000
0110
0000
0100
1000
0001
0001
1000
1000
0020
0000
,
2030
0000
0002
0000
3003
0000
1001
0000
0000
0000
1001
0000
0011
0010
0100
0000
,
0100
0010
0011
0000
1100
0000
1010
0000
0101
0000
0100
0010
0010
0100
0200
0000
,
0302
0000
2000
0000
3003
0000
1001
0000
0000
0000
1001
0000
0001
0100
0010
1000
,
0100
0010
0001
0000
0001
0010
1000
0000
1000
0010
0001
0100
1000
0100
0020
0000
,
2030
0002
3003
1001
0000
0100
0100
0100
,
0110
1001
1000
1100
1000
1001
1000
1100
,
1000
1001
0010
0100
0010
1001
0001
0010
,
0100
1000
0011
0100
1010
0100
0011
0100
,
1010
0000
1000
0000
0001
0010
1000
0000
0001
0000
1000
0010
0001
0100
1000
0000
,
0100
1001
0001
0011
0001
1001
0001
0011
,
0001
1001
0010
0100
0010
1001
1000
0010
,
0100
0000
0001
0000
1100
0000
0010
0000
0101
0000
0010
0000
0100
1000
0000
1000
,
0010
0000
0110
0000
0100
0001
0010
0000
0100
1000
0010
0000
0001
0000
0010
0000
,
1000
0000
0200
0000
0000
0310
0001
0000
1100
0000
0000
0000
1000
0000
1010
0000
,
0000
0001
0110
1000
0110
1100
0101
1001
,
0000
0001
0110
1000
0110
0011
1010
1001
,
0000
0000
0000
0000
0000
0000
1000
0000
0000
0010
0000
0000
0000
0000
0000
0100
0000
0000
0001
0000
0000
0010
0000
0000
0001
0000
0000
0100
0000
0000
0001
0000
0010
0000
0001
0000
0100
0000
0000
0010
0000
0000
0001
0000
0000
0010
0000
0000
,
1000
1001
0100
1001
0100
1100
0101
1001
,
0000
1001
0010
1001
0010
0011
1010
1001
,
0000
0101
0110
1100
0110
0101
1100
1001
,
0000
1010
0110
0011
0110
1010
0110
2002
,
3003
1010
1000
0101
1000
0100
0010
0100
,
1000
0011
0001
1100
0001
0010
0100
0010
,
0001
1100
1000
0011
1000
0010
0100
0010
,
1000
0101
0001
1010
1000
0011
0001
1100
,
1000
0000
0000
0000
0000
0000
0000
0000
0000
0000
0000
0000
0000
0000
0000
0000
0000
0000
0000
0000
0000
0000
0000
0220
0000
0000
0000
0000
0000
0000
0000
0000
0000
0000
0000
0000
0000
0000
0000
0000
0000
0000
0000
0000
0000
0000
0000
0000
0000
0000
0000
0000
0000
0000
0000
0000
0000
0000
0000
0000
0000
0000
0000
0000
0000
0000
0000
0000
0000
0000
0000
0000
0000
0000
0000
0000
0000
0000
0000
0000
0000
0000
0000
0000
0000
0000
0000
0000
0000
0000
0000
0000
0000
0000
0000
0000
0000
0000
0000
0000
0000
0000
0000
0000
0000
0000
0000
0000
0000
0000
0000
0000
0000
0000
0000
0000
0000
0000
0000
0000
0000
0000
0000
0000
0000
0000
0000
0000
0000
0000
0000
0000
0000
0000
0000
0000
0000
0000
0000
0000
0000
0000
0000
0000
0000
0000
0000
0000
0000
0000
0000
0000
0000
0000
0000
0000
0000
0000
0000
0000
0000
0000
0000
0000
0000
0000
0000
0000
0330
0000
0000
0000
0000
0000
MMMM
0000
0000
0000
0000
0000
MMMM
0000
0000
0000
0000
0000
MMMM
0000
0000
0000
0000
0000
,
MMMM
MMMM
MMMM
MMMM
MMMM
MMMM
MMMM
MMMM
MMMM
0000
0000
0000
0000
0000
0000
0000
0000
0000
0000
0000
0000
0000
0000
0000
0000
0000
0000
0000
0000
0000
0000
0000
;
