#VERSION:0.83;
#TITLE:Ex-Otogibanashi;
#SUBTITLE:;
#ARTIST:ryo (supercell) / 月見ヤチヨ(cv.早見沙織) from 超かぐや姫!;
#TITLETRANSLIT:Ex-Otogibanashi;
#SUBTITLETRANSLIT:;
#ARTISTTRANSLIT:ryo (supercell);
#GENRE:ANIME;
#CREDIT:;
#MUSIC:Ex-Otogibanashi.ogg;
#BANNER:Ex-Otogibanashi.png;
#BACKGROUND:Ex-Otogibanashi-bg.png;
#CDTITLE:;
#SAMPLESTART:48.625;
#SAMPLELENGTH:10.737;
#SELECTABLE:YES;
#OFFSET:1.270;
#BPMS:0.000=190.000
,296.000=89.000
,304.500=95.000
,306.000=75.000
,306.500=61.000
,308.500=63.000
;
#STOPS:;
#SPEEDS:0.000=1.000=0.000=0;
#SCROLLS:0.000=1.000;
#TICKCOUNTS:0.000=4;
#TIMESIGNATURES:0.000=4=4;
#LABELS:0.000=Song Start;
#COMBOS:0.000=1;
#DISPLAYBPM:190.000;
#ORIGIN:;
#PREVIEWVID:;
#JACKET:Ex-Otogibanashi-jacket.png;
#CDIMAGE:;
#DISCIMAGE:;
#BGCHANGES:4.000=Ex-Otogibanashi.avi=1.000=0=0=0=StretchNoLoop====,
99999.000=-nosongbg-=1.000=0=0=0=StretchNoLoop====
;
#FGCHANGES:;

//--------------- dance-single - ----------------
#NOTEDATA:;
#STEPSTYPE:dance-single;
#DESCRIPTION:;
#DIFFICULTY:Easy;
#METER:13;
#RADARVALUES:0.640358,0.644702,0.318878,0.255102,0.045554,492,457,35,28,0,0,0,0,0,0.640358,0.644702,0.318878,0.255102,0.045554,492,457,35,28,0,0,0,0,0;
#DISPLAYBPM:190.000;
#CHARTNAME:;
#CHARTSTYLE:;
#CREDIT:;
#NOTES:
0000
0000
0000
0000
,
0000
0000
0000
0000
,
0001
0000
1000
0000
0100
0000
1000
0001
,
1000
0000
0000
0010
0000
0000
0100
0000
0000
0001
0000
0000
0010
0000
0000
0000
,
0100
0000
0000
1000
0000
0000
0100
0000
0000
1000
0000
0000
0001
0000
0000
0100
0000
0000
0001
0000
1000
0000
0001
0000
,
1000
0000
0000
0010
0000
0000
0100
0000
0000
0001
0000
0000
0010
0000
0000
0000
,
0001
0000
0000
0001
0000
0000
1000
0000
0000
1000
0000
0000
0010
0000
0000
0100
,
0000
0000
0000
0000
0001
0010
0200
0000
,
1000
0000
1300
0010
0100
0000
0001
1000
,
0001
0000
1000
0100
0010
0000
0001
0010
,
0100
1000
0001
0100
0000
0100
0001
0000
,
0001
1000
0000
1000
0100
0010
0002
0000
,
0010
0000
0013
0100
1000
0000
0001
0100
,
0010
0000
1000
0010
0100
0000
0001
1000
,
0001
0000
0010
0000
0100
1000
0001
0000
,
0001
1000
0010
0000
0010
0100
0001
0000
,
1001
0000
1000
0001
0010
0000
0100
1000
,
0000
0001
0100
1000
0100
0001
1000
0100
,
0001
0100
2000
0000
0001
0000
3001
0010
,
0100
0000
0100
1000
0001
0100
0010
0000
,
0100
0001
1000
0010
1000
0001
1000
0100
,
0010
0100
1000
0001
0100
0010
0100
0001
,
1000
0010
0100
0010
0001
1000
0100
0010
,
0100
0001
0010
0100
1000
0001
0020
0000
,
0100
0000
0130
1000
0100
0010
0002
0000
,
1000
0000
0100
0000
1003
0010
0200
0000
,
0010
0000
0301
0010
0100
1000
0200
0000
,
0001
0000
1000
0000
1300
0010
0100
0000
,
0110
0000
1000
0001
0000
0001
0010
0000
,
0100
1000
0001
0100
0010
0200
1000
0000
,
0001
0000
0301
1000
0001
1000
0100
0000
,
0110
0000
1001
0000
0001
0010
0100
0000
,
1100
0000
0011
0001
1000
0010
0001
0010
,
0100
0001
0010
1000
0001
0100
1000
0000
,
0011
0000
1100
1000
0001
0100
2000
0000
,
3100
0001
0010
0100
1000
0001
1000
0000
,
0010
0100
0001
0000
0001
0010
0100
0000
,
0010
0100
1000
0000
1000
0010
0100
0000
,
0001
0010
1000
0010
0001
0100
1000
0100
,
0001
0010
0100
1000
0001
1000
0100
0010
,
0001
0000
1000
0010
0000
0101
0000
1010
,
0000
0010
1000
0100
0002
0000
0103
1000
,
0010
0000
0100
0001
0000
1100
0000
0011
,
0000
0010
0001
0100
2000
0000
3100
0001
,
1000
0000
0001
0010
0000
0011
0000
1100
,
0000
0100
1000
0010
0002
0000
0013
1000
,
0100
0000
0010
0001
0100
0000
0010
0100
,
0000
0110
0000
0101
1100
0000
1001
0000
,
0110
0000
1001
0010
0000
1010
0000
0101
,
0000
0001
0010
0100
2000
0000
3001
0010
,
2000
0000
3001
0100
0000
1100
0000
1000
,
0010
0100
0001
1000
0200
0000
0310
0001
,
1000
0000
1000
0100
0000
0011
0000
1100
,
0000
1000
0010
0100
0002
0000
1003
0010
,
0002
0000
1003
0100
0002
0000
1003
0200
,
0000
1300
0001
0100
0110
0000
0001
1000
,
0001
0000
0010
0100
0010
0000
0001
0010
,
0000
0100
1000
0100
0020
0000
0001
0000
,
0130
1000
0010
0100
0010
1000
0001
0100
,
2000
0000
3100
0001
0010
1000
0001
0100
,
0020
0000
0031
1000
0010
0100
0001
0010
,
2000
0000
3010
0001
0100
1000
0100
0010
,
2000
0000
3001
0010
0001
0100
0001
1000
,
0100
0000
0100
1000
0001
0010
0100
1000
,
0001
0000
0001
0100
0010
0000
0010
1000
,
0001
0000
0001
0010
0100
0000
0110
0000
,
1000
0100
0001
0100
1000
0010
0001
0010
,
1000
0000
0100
0000
0010
0000
0001
0000
0010
0000
0100
0000
1000
0000
0001
1000
,
0001
0100
1000
0100
0001
0010
1000
0010
,
0001
0100
0010
1000
0010
0100
0001
1000
,
1100
1001
0101
1001
,
0011
1001
1010
1001
,
0001
0100
0010
1000
0001
0010
0100
1000
,
0001
0100
1000
0001
0010
0100
1000
0100
,
0002
0000
0000
0000
1003
0100
0020
0000
,
0000
0000
0000
0000
0031
1000
0020
0000
,
0000
0000
0000
0000
0130
0001
2000
0000
,
0000
0000
0000
0000
,
0000
0000
0000
0000
0000
3000
0000
0000
;

//--------------- dance-single - ----------------
#NOTEDATA:;
#STEPSTYPE:dance-single;
#DESCRIPTION:;
#DIFFICULTY:Medium;
#METER:16;
#RADARVALUES:0.886349,0.956291,0.273324,0.209548,0.528426,681,651,30,23,0,1,0,0,0,0.886349,0.956291,0.273324,0.209548,0.528426,681,651,30,23,0,1,0,0,0;
#DISPLAYBPM:190.000;
#CHARTNAME:;
#CHARTSTYLE:;
#CREDIT:;
#NOTES:
0000
0000
0000
0000
,
0000
0000
0000
0000
,
0101
0000
0000
0000
1010
0000
0000
0001
0010
0000
0000
0000
1100
0000
0001
0000
,
0100
0000
0000
0010
0000
0000
0100
0000
0000
0001
0000
0000
1000
0000
0000
0000
,
0001
0000
0000
0010
0000
0000
0001
0000
0000
0010
0000
0000
0100
0000
0000
0000
0000
0000
1000
0000
0000
0001
0000
0000
1000
0000
0000
0000
0000
0000
0010
0000
0000
0100
0000
0000
0001
0000
0000
0000
1000
0000
0000
0000
0001
0000
0000
0000
,
1000
0000
0000
0010
0000
0000
0100
0000
0000
0001
0000
0000
0010
0000
0000
0001
,
1000
0000
0000
1010
0000
0000
0010
0000
0000
0101
0000
0000
1001
0000
0000
0010
,
0200
0000
0000
0000
0301
1000
0100
0000
,
0010
0001
1000
0010
0100
0010
0001
0010
,
0100
1000
0100
0010
1000
0100
0010
0001
,
0011
0000
1000
0010
0000
0100
0001
0000
,
1000
0100
0000
0010
0001
1000
0100
0000
,
0100
0010
1000
0010
0100
0001
0100
0010
,
0001
0100
0010
1000
0100
0010
0001
1000
,
0110
0001
1000
0001
0110
1000
0001
1000
,
0110
0001
1000
0100
0010
0001
2000
0000
,
3001
0000
0000
0100
0010
0000
1000
0000
0100
0000
0010
0001
1000
0000
0010
0000
,
0100
0000
0000
0001
1000
0000
0100
0000
0010
0000
0001
1000
0010
0000
0100
0000
,
0001
1000
0100
0000
0100
0010
0001
1000
,
0010
0001
0010
1000
0001
0010
2000
0000
,
3010
0000
0001
0000
0010
0000
0001
0000
1000
0000
0100
0000
1000
0000
0001
0100
,
0001
0000
0010
0001
0010
0000
0100
1000
0100
0000
1000
0010
1000
0000
0001
0000
,
1000
0010
1000
0010
0100
0000
0001
0010
0001
0010
0100
0000
1000
0100
1000
0100
,
0010
0000
0001
0010
0001
0010
0100
1000
0001
0000
0010
0000
0100
0000
0000
0000
,
0110
0000
0000
0000
1000
0000
0100
0000
0010
0000
0001
1000
0001
0000
0010
0000
,
0100
1000
0001
1000
0010
0100
0001
0000
,
1001
0000
0000
0000
0001
0000
0100
0000
0010
0000
1000
0001
1000
0000
0010
0000
,
0100
0001
0010
0100
1000
0001
0101
0000
,
1010
0000
1000
1100
0000
0001
0101
0000
,
0001
0011
0010
0100
2000
0000
3001
0100
,
0110
0000
0000
0100
0001
0000
1001
0000
0000
1000
0100
0000
0110
0000
0010
0000
,
0001
0000
1000
0000
0001
0000
1000
0000
0001
0000
0010
0000
0100
1000
0100
1000
,
0100
0010
0001
1000
0010
0100
0001
0010
,
0100
0010
0001
0010
0100
1000
1100
0000
,
0101
0001
0100
0010
1000
0001
0100
0010
,
1000
0010
0100
0001
1000
0010
0100
0000
,
0101
0001
1000
0100
1100
1000
0001
0010
,
0011
0001
1000
0010
1010
1000
0010
0100
,
0001
0010
0100
0000
0010
0100
1000
0000
0001
0100
0010
0000
0100
0010
1000
0000
,
0001
0010
0100
1000
0100
0010
0001
1000
,
0001
0100
0010
0000
1000
0000
0010
0000
0100
0000
0101
0000
0000
0000
1010
0000
,
0010
0000
1000
0100
0010
0000
0100
0010
0002
0000
0023
0000
0230
0000
2300
0000
,
3001
0000
0100
0010
0100
0000
0001
1000
0001
0000
0010
0100
0010
0000
0001
0000
,
1000
0100
0010
0001
1000
0000
0001
0100
0010
0000
1000
0000
0001
0010
0001
0010
,
0100
1000
0001
0011
0000
1100
1000
0001
,
0100
0000
0001
0010
0100
0000
0010
0100
2000
0000
3020
0000
0230
0000
0302
0000
,
1003
0000
0100
0010
0100
0000
1000
0000
0001
0000
0100
0010
0100
0000
0001
0000
,
1000
0100
0010
0000
0001
0010
0100
1000
0010
0000
0000
0000
0110
0000
0000
0000
,
0100
0010
1001
0100
0000
0001
0100
1000
,
0100
0010
0100
0000
0001
0010
0100
0000
2000
0000
3200
0000
0320
0000
0032
0000
,
1003
0000
0010
1000
0100
0000
0001
0000
0100
0000
1000
0010
0100
0000
1000
0000
,
0100
0000
0001
1000
0100
0000
0010
0001
1000
0000
0001
0000
0100
0010
0100
0010
,
0100
0001
1000
0002
0000
0013
1000
0001
,
0100
0000
1000
0010
0001
0000
1000
0100
0002
0000
0023
0000
0230
0000
2300
0000
,
3001
0100
0001
0100
0001
0000
0010
0000
0100
1000
0100
1000
0100
0000
0010
0000
,
0000
0001
1000
0010
0110
0000
1001
0100
,
0010
0000
0110
0001
1000
0000
0010
0100
,
0000
0000
0010
0000
1000
0000
0001
0010
0200
0000
0000
0000
0000
0000
0000
0000
,
0310
0000
0001
1000
0001
0000
1000
0100
1000
0000
0001
0010
0001
0000
1000
0001
,
1000
0100
0010
0001
1000
0001
0010
0100
,
1000
0000
0001
1000
0001
0000
1000
0010
1000
0000
0001
0100
0001
0000
1000
0001
,
1000
0010
0100
0001
1000
0001
0100
0010
,
1000
0000
0001
1000
0001
0000
0100
0001
0100
0000
0010
1000
0010
0000
1000
0001
,
1000
0100
0010
0001
1000
0001
0010
0100
,
1000
0000
0001
1000
0001
0000
0010
0001
0010
0000
0100
1000
0100
0000
1000
0001
,
1000
0000
0010
0000
0100
0000
0001
0000
1000
0000
0001
0000
1000
0100
1000
0100
,
1000
0000
0001
0010
0100
0000
0010
0001
1000
0000
0001
0100
1000
0000
0100
0010
,
1000
0000
0001
0010
0100
0000
0010
0001
1000
0000
0010
0100
0001
0000
1000
0100
,
0001
0000
0100
1000
0001
0000
1000
0010
0100
0000
1000
0100
0001
0000
0010
0001
,
1000
0000
0001
0010
0100
0000
0001
0100
1000
0000
0001
1000
0100
0000
0010
0000
,
0110
0100
1000
0001
0101
0100
0001
1000
,
1001
0001
0100
0010
1010
1000
0001
1000
,
0001
0100
0001
1000
0001
0100
0001
1000
0100
1000
0001
1000
0100
1000
0001
0010
,
0100
1000
0001
0010
0100
1000
0001
0010
,
0200
0000
0000
0000
1300
0100
0020
0032
,
2003
3020
0000
0000
0130
0001
2000
3020
,
0230
0302
0000
0000
0013
0100
2000
3200
,
0320
0032
0000
0000
0000
0000
0203
0000
,
0000
0000
0000
0000
0000
0300
0000
0000
;

//--------------- dance-single - ----------------
#NOTEDATA:;
#STEPSTYPE:dance-single;
#DESCRIPTION:;
#DIFFICULTY:Hard;
#METER:18;
#RADARVALUES:1.150562,1.161284,0.34621,0.245991,1.352952,884,846,38,27,0,1,0,0,0,1.150562,1.161284,0.34621,0.245991,1.352952,884,846,38,27,0,1,0,0,0;
#OFFSET:1.270;
#BPMS:0.000=190.000
,157.000=95.000
,158.000=190.000
,294.000=89.000
,302.500=95.000
,304.000=75.000
,304.500=61.000
,306.500=63.000
;
#STOPS:156.000=0.079
,156.250=0.079
,156.500=0.079
,156.750=0.079
;
#SPEEDS:0.000=1.000=0.000=0;
#SCROLLS:0.000=1.000;
#TICKCOUNTS:0.000=4;
#TIMESIGNATURES:0.000=4=4;
#LABELS:0.000=Song Start;
#COMBOS:0.000=1;
#DISPLAYBPM:190.000;
#CHARTNAME:;
#CHARTSTYLE:;
#CREDIT:;
#NOTES:
0000
0000
0000
0000
,
0000
0000
0000
0000
,
0001
1000
0000
0000
0001
0010
0000
0010
0100
0000
1000
0000
0001
0000
0100
0010
,
0200
0000
0000
0302
0000
0000
0023
0000
0000
0230
0000
0000
2300
0000
0000
3001
,
0100
0000
0000
0001
0000
0000
0100
0000
0000
0001
0000
0000
0010
0000
0000
0000
0000
0000
0100
0000
0000
1000
0000
0000
0010
0000
0000
0000
0000
0000
1000
0000
0000
0001
0000
0000
0100
0000
0000
0000
0100
0000
0000
0000
0100
0000
0000
0000
,
0020
0000
0000
2030
0000
0000
3002
0000
0000
0013
0100
0010
0100
0000
0000
1000
,
0001
0000
0000
0101
0000
0000
1100
0000
0000
1001
0000
0000
0110
0000
0000
0001
,
1000
0000
0100
0000
1000
0000
0000
0000
0001
0000
0000
0000
0010
0000
0000
0001
0000
0000
1000
0000
0000
0000
0000
0000
,
0001
0100
0001
0100
0010
0000
0100
0001
1000
0000
0001
0010
0100
1000
0100
1000
,
0001
0000
0100
0010
0100
0000
0010
1000
0001
0010
0100
0010
0001
0000
1000
0000
,
0102
1003
0001
2100
3001
1000
0012
1003
,
0001
0000
2010
0000
3001
0000
0010
0000
0100
0000
1000
0000
0001
1000
0100
1000
,
0100
0000
0010
0001
1000
0000
0010
0100
0010
0000
0100
0001
1000
0001
0010
0100
,
1000
0000
0001
0100
0001
0000
0010
0000
0100
1000
0010
1000
0100
0010
0001
0000
,
1000
0020
0001
0100
1030
0002
1003
0200
,
0001
0000
0010
0000
2300
0000
3001
0100
0010
0000
1000
0000
0001
0000
0000
0000
,
1001
0000
0000
1000
0010
0000
0100
0000
0001
0000
1000
0100
0001
0000
0100
0000
,
1000
0000
0001
0100
0000
0010
0100
0000
1000
0100
0010
1000
0001
0000
0010
0000
,
0100
0000
1000
0010
0100
0000
0001
0010
0100
1000
0001
1000
0001
0000
0010
0100
,
0010
0000
0001
0010
0100
0000
1000
0100
0010
0001
1000
0100
0010
0000
0100
0000
,
1100
0000
1000
0000
1001
0000
0010
0000
0101
0000
0001
0000
1001
0000
1000
0010
,
0100
0000
0100
0010
1000
0000
0001
0010
0100
0000
0100
0010
0001
0000
1000
0100
,
1000
0100
0010
0100
1000
0010
0100
0010
1000
0010
1000
0001
0100
0001
0100
0010
,
0100
0001
0010
0100
1000
0001
1000
0100
0010
0000
0001
0000
2000
0000
0000
0000
,
3010
0000
0000
0100
0001
0000
0010
0000
0001
0000
1000
0100
1000
0000
0010
0000
,
0100
0001
0100
0010
0100
0000
1000
0000
0100
0000
0001
1000
0100
0000
0010
0000
,
0100
0000
0000
1000
0001
0000
0100
0000
0001
0000
0010
0100
1000
0000
0001
0000
,
0010
0000
0100
1000
0000
0010
1000
0000
0010
0000
0100
0000
0110
0000
0000
0000
,
1010
0000
0100
0001
0000
0000
0011
0000
0100
1000
0000
0000
0110
0000
0001
1000
,
0000
0001
0110
1000
0020
0000
0130
0001
,
0110
0000
1000
0100
0010
0000
0110
0000
0001
0010
0100
0000
0110
0000
1000
0000
,
0010
0100
0001
0000
0010
0000
1000
0000
0001
0000
0100
0000
1000
0001
0100
0001
,
0100
0000
0000
0010
1000
0000
0001
0000
0010
0000
0100
1000
0001
0000
0010
0000
,
0011
0100
1100
0010
0011
0100
1100
0000
,
0011
0000
0000
0010
0001
0000
1000
0000
0010
0000
0100
0001
1000
0000
0010
0000
,
1010
0100
0101
0010
1010
0100
1001
0000
,
0101
0000
0100
0001
1000
0000
0001
0010
0100
0000
1000
0010
0100
0000
0010
1000
,
0001
0000
0001
0010
0100
0000
1000
0001
0100
0000
0001
0010
0100
0000
0010
0000
,
0001
0010
0100
1000
0001
0010
0100
1000
0001
1000
0100
0010
0001
1000
0100
0010
,
0002
0003
0000
0000
0000
0000
0000
0000
0000
0000
0000
0000
0020
0030
0000
0000
0000
0000
0000
0000
0000
0000
0000
0000
0200
0300
0000
0000
0000
0000
0000
0000
0000
0000
0000
0000
2000
3000
0000
0000
0000
0000
0000
0000
0000
0000
0000
0000
0002
0003
0000
0000
0000
0000
0000
0000
0000
0000
0000
0000
0000
0000
0000
0000
0000
0000
0000
0000
0000
0000
0000
0000
0010
0000
0000
0000
0000
0000
0000
0000
0000
0000
0000
0000
0000
0000
0000
0000
0000
0000
0000
0000
0000
0000
0000
0000
0200
0300
0000
0000
0000
0000
0000
0000
0000
0000
0000
0000
1000
0000
0000
0000
0000
0000
0000
0000
0000
0000
0000
0000
0100
0000
0000
0000
0000
0000
0000
0000
0000
0000
0000
0000
1000
0000
0000
0000
0000
0000
0000
0000
0000
0000
0000
0000
0001
0000
0000
0000
0000
0000
0000
0000
0000
0000
0000
0000
0000
0000
0000
0000
0000
0000
0000
0000
0000
0000
0000
0000
1000
0000
0000
0000
0000
0000
0000
0000
0000
0000
0000
0000
0001
0000
0000
0000
0000
0000
0000
0000
0000
0000
0000
0000
,
0010
1000
0010
0001
1000
0000
0001
0100
1000
0000
0001
0010
1000
0000
0001
0000
,
2000
0100
3020
0001
2030
0100
3020
0001
1030
0000
0001
0100
0010
0000
0100
0001
,
1000
0000
0001
0010
0100
1000
0001
1000
0010
0000
0100
0001
1000
0000
0001
0010
,
0100
0010
1000
0001
0100
1000
0100
1000
0010
0000
0100
0001
1000
0000
0001
1000
,
0100
0001
0100
1000
0001
0000
1000
0010
0001
0000
1000
0100
0001
0000
1000
0000
,
0001
0010
0200
1000
0302
0010
0203
1000
0301
0000
1000
0100
0010
0000
0001
0010
,
0100
1000
0010
0100
0001
0010
0100
1000
0100
1000
0010
0000
0100
0001
0010
0000
,
0100
1000
0010
0000
0100
0001
0100
0001
0010
0000
0000
0000
0110
0000
1000
0000
,
0001
0000
1000
0000
0001
0010
0100
0000
1000
0001
1000
0000
0010
0000
2000
0100
,
3020
0100
2030
0001
3200
0010
1300
0001
0010
0000
0100
1000
0001
0100
0010
0100
,
0010
1000
0100
1000
0001
0100
0001
1000
0100
0000
0010
0001
1000
0000
0001
0010
,
0100
0000
1000
0001
0100
0010
0100
0010
1000
0000
0001
1000
0100
0000
0001
0000
,
0100
1000
0001
0000
0100
1000
0100
0000
0010
0100
0010
1000
0001
0000
0001
1000
,
0200
1000
0320
0100
0032
0010
0203
1000
0301
0010
0100
0000
0001
0100
1000
0000
,
0010
0100
0001
0000
1000
0100
0001
1000
0010
0001
1000
0001
0100
1000
0001
0010
,
1000
0000
0001
0010
0100
1000
0001
0010
0100
0000
0000
0000
1001
0000
0100
0000
,
1010
0000
0001
0000
0010
0000
0110
0000
0000
0000
0010
0000
0001
0000
1000
0100
,
0020
0000
0000
0000
0000
0000
0000
0000
0031
0000
1000
0010
0100
0000
0001
0000
,
1000
0100
1000
0100
0010
0100
1000
0100
1000
0001
0010
0100
1000
0010
1000
0010
,
0100
0010
1000
0010
1000
0001
0100
0010
1000
0000
0001
1000
0001
0000
1000
0000
,
0001
0100
0001
0100
0010
0100
0001
0100
0001
1000
0010
0100
0001
0010
0001
0010
,
0100
0010
0001
0010
0001
1000
0100
0010
0001
0000
1000
0001
1000
0000
0001
0000
,
1000
0010
1000
0010
0100
0010
1000
0010
1000
0001
0100
0010
1000
0100
1000
0100
,
0010
0100
1000
0100
1000
0001
0010
0100
1000
0000
0001
1000
0001
0000
1000
0000
,
0001
0010
0001
0010
0100
0010
0001
0010
0001
1000
0100
0010
0001
0100
0001
0100
,
0010
0100
0001
1000
0100
0010
0100
0010
0100
0000
1000
0010
0100
0000
0001
0010
,
0100
0000
1000
0010
0100
0000
0001
0010
0001
0100
0010
0100
0001
0010
0001
1000
,
0100
1000
0010
0100
0010
1000
0100
1000
0001
0000
1000
0010
0100
0000
0001
0010
,
0100
0000
1000
0010
0100
0000
0001
0100
0001
0010
0100
0010
0001
0100
0001
1000
,
0100
1000
0010
0100
0010
1000
0100
1000
1001
0000
1000
0000
1100
0000
0010
0000
,
1001
0001
0101
0010
1010
1000
1001
0100
,
0011
0000
0010
0000
0110
0000
1000
0000
0001
0010
0100
1000
0001
0100
0001
1000
,
0100
0010
0001
1000
0010
1000
0001
0010
0100
1000
0010
0100
0010
1000
0100
0010
,
0002
1000
0203
0001
2300
0010
3002
1000
0023
0000
0000
0000
0000
0000
0000
0000
,
0130
0001
2000
3200
0320
0032
0000
0000
,
1003
0010
2000
3020
0230
0302
0000
0000
,
1003
0100
0020
0032
2003
3020
0000
0000
,
0000
0000
0000
0000
0000
0000
0000
1030
0200
0000
0000
0000
0000
0000
0000
0000
0000
0000
0000
0000
0000
0000
0000
0000
0000
0000
0000
0000
0000
0000
0000
0000
,
0000
0300
0000
0000
0000
0000
0000
0000
;

//--------------- dance-single - ----------------
#NOTEDATA:;
#STEPSTYPE:dance-single;
#DESCRIPTION:;
#DIFFICULTY:Challenge;
#METER:19;
#RADARVALUES:1.315858,1.717383,0.337099,0.510204,2.045372,1011,974,37,56,0,1,0,0,0,1.315858,1.717383,0.337099,0.510204,2.045372,1011,974,37,56,0,1,0,0,0;
#OFFSET:1.270;
#BPMS:0.000=190.000
,63.000=95.000
,63.500=190.000
,93.500=95.000
,110.500=190.000
,139.500=95.000
,140.500=190.000
,168.500=380.000
,170.250=190.000
,171.500=380.000
,172.500=95.000
,173.000=190.000
,210.000=95.000
,211.000=190.000
,242.000=380.000
,243.000=190.000
,275.000=89.000
,283.500=95.000
,285.000=75.000
,285.500=61.000
,287.500=63.000
;
#STOPS:138.500=0.079
,138.750=0.079
,139.000=0.079
,139.250=0.079
,168.500=0.039
,168.750=0.039
,169.000=0.039
,169.500=0.039
,169.750=0.039
,170.000=0.039
,171.500=0.039
,171.750=0.039
,172.000=0.039
,172.250=0.039
,242.000=0.039
,242.250=0.039
,242.500=0.039
,242.750=0.039
;
#SPEEDS:0.000=1.000=0.000=0;
#SCROLLS:0.000=1.000;
#TICKCOUNTS:0.000=4;
#TIMESIGNATURES:0.000=4=4;
#LABELS:0.000=Song Start;
#COMBOS:0.000=1;
#DISPLAYBPM:63.000:190.000;
#CHARTNAME:;
#CHARTSTYLE:;
#CREDIT:;
#NOTES:
0000
0000
0000
0000
,
0000
0000
0000
0000
,
0001
0100
0000
0000
0000
0000
0100
0010
0000
0000
0010
0000
1000
0000
0000
0001
0000
0000
0010
0000
0000
0100
0000
1000
,
0002
0000
0000
0203
0000
0000
0320
0000
0000
2030
0000
0000
3002
0000
0000
1003
,
0010
0000
0000
0100
0000
0000
0010
0000
0000
1000
0000
0000
0001
0000
0000
0000
0000
0000
0010
0000
0000
0100
0000
0000
0010
0000
0000
0000
0000
0000
0001
0000
0000
1000
0000
0000
0100
0000
0000
0000
0100
0000
0000
0000
0100
0000
0000
0000
,
0020
0000
0000
0032
0000
0000
2003
0000
0000
3001
0100
0010
1000
0000
0000
1000
,
1100
0000
0000
0101
0000
0000
0011
0000
0000
1010
0000
0000
0110
0000
0000
0001
,
0010
0000
0100
0000
0010
0000
0000
0000
0001
0000
0000
0000
1000
0000
0000
0010
0000
0000
0200
0000
0000
0000
0000
0000
,
0301
1000
0001
0100
0010
1000
0010
0100
0001
1000
0100
0010
0001
0010
0100
1000
,
0001
0000
0100
0010
0100
0000
0001
1000
0010
1000
0001
0010
0100
0010
0001
0100
,
1100
0000
1000
0010
0100
0000
0101
0000
0010
1000
0100
0000
1100
0000
1000
0100
,
0010
0000
0011
0000
0001
0010
0100
0000
0110
0000
0010
0001
1000
0100
0010
0001
,
1000
0000
0010
1000
0001
0010
0100
1000
0001
0100
0001
1000
0001
0010
0100
1000
,
0010
0000
0100
0001
1000
0100
1000
0001
0100
0010
1000
0001
0010
0100
1000
0000
,
1100
0012
1000
0100
1003
0020
0100
2030
,
0001
0000
0000
0000
0000
0000
0000
0000
0000
0000
0000
0000
0000
0000
0000
0000
0000
0000
0000
0000
0000
0000
0000
0000
0100
0000
0000
0000
0000
0000
0000
0000
0000
0000
0000
0000
0000
0000
0000
0000
0000
0000
0000
0000
0000
0000
0000
0000
3002
0000
0000
0000
0000
0000
0000
0000
0000
0000
0000
0000
0000
0000
0000
0000
0000
0000
0000
0000
0000
0000
0000
0000
1003
0000
0000
0000
0000
0000
0000
0000
0100
0000
0000
0000
0000
0000
0000
0000
0010
0000
0000
0000
0000
0000
0000
0000
0001
0000
0000
0000
0000
0000
0000
0000
0000
0000
0000
0000
0000
0000
0000
0000
0000
0000
0000
0000
0000
0000
0000
0000
0100
0000
0000
0000
0000
0000
0000
0000
0000
0000
0000
0000
0000
0000
0000
0000
0000
0000
0000
0000
0000
0000
0000
0000
0020
0030
0000
0000
0000
0000
0000
0000
0000
0000
0000
0000
0000
0000
0000
0000
0000
0000
0000
0000
0000
0000
0000
0000
2002
3003
0000
0000
0000
0000
0000
0000
0000
0000
0000
0000
0000
0000
0000
0000
0000
0000
0000
0000
0000
0000
0000
0000
,
0000
0001
0010
0000
1100
0000
1000
0000
0001
0100
0010
0000
0110
0000
0100
0000
,
0001
0100
1000
0100
0010
0000
1000
0010
0001
0010
0100
0000
0010
1000
0100
0010
,
0001
0010
0100
0000
1000
0100
0010
0001
0010
0100
1000
0000
0001
0010
0100
0000
,
1000
0010
0100
0000
0001
0010
0100
1000
0001
0100
0010
1000
0100
0010
0011
0000
,
0100
0000
1010
0000
0001
0000
1100
0000
0010
0000
0101
0000
1000
0010
0100
0000
,
1000
0100
0010
0000
1000
0100
0001
0000
0100
1000
0001
0000
1000
0100
1000
0001
,
0100
0010
1000
0001
1000
0001
0100
0010
0100
0001
1000
0001
0010
0100
0010
0001
,
1000
0010
1000
0100
0010
0001
2000
3020
0230
0000
0301
0000
1000
0100
0010
0001
,
1000
0100
1000
0100
0010
0100
1000
0100
1000
0001
0010
0100
1000
0000
0001
1000
0001
0000
0100
0000
0010
1000
0010
0000
0100
0000
0001
0100
0001
0100
0010
0100
,
0001
0100
0001
0100
0010
0000
1000
0001
1000
0000
0100
0000
0010
0001
1000
0100
1000
0000
0000
0000
1100
0000
1000
0010
0100
0000
0101
0000
0001
0010
0100
0000
,
0110
0000
0000
0000
1000
0000
0100
0010
0001
0000
0000
0000
1001
0000
0010
0000
0200
0000
0000
0000
0311
0000
0001
0100
0010
0000
1010
0000
1000
0100
0010
0000
,
0011
0000
0000
0000
0000
0000
0000
0000
0000
0000
0000
0000
0001
0000
0000
0000
0000
0000
0010
0000
0000
0000
0000
0000
0100
0000
0000
0000
0000
0000
0000
0000
0000
0000
0000
0000
1000
0000
0000
0000
0000
0000
0000
0000
0000
0000
0000
0000
0001
0000
0000
0000
0000
0000
0000
0000
0000
0000
0000
0000
1000
0000
0000
0000
0000
0000
0000
0000
0000
0000
0000
0000
0001
0000
0000
0000
0000
0000
0000
0000
0000
0000
0000
0000
0010
0000
0000
0000
0000
0000
0000
0000
0000
0000
0000
0000
0100
0000
0000
0000
0000
0000
1000
0000
0000
0000
0000
0000
0100
0000
0000
0000
0000
0000
1000
0000
0000
0000
0000
0000
0020
0030
0000
0000
0000
0000
0000
0000
0000
0000
0000
0000
0000
0000
0000
0000
0000
0000
0000
0000
0000
0000
0000
0000
0000
0000
0000
0000
0000
0000
0000
0000
0000
0000
0000
0000
0100
0000
0000
0000
0000
0000
0000
0000
0000
0000
0000
0000
0001
0000
0000
0000
0000
0000
0000
0000
0000
0000
0000
0000
0000
0000
0000
0000
0000
0000
0000
0000
0000
0000
0000
0000
,
1000
0100
0010
0001
1000
0101
1000
0110
,
0001
0000
1100
0000
0001
0000
0110
0000
0000
0000
1001
0000
0000
0001
0100
0000
,
0010
1000
0001
1000
0100
0010
0001
0000
1000
0010
0100
0000
0001
0010
0100
0000
,
1000
0001
1000
0010
0100
0001
0010
0000
0100
0000
1000
0000
0001
0100
1000
0000
,
0100
0001
0010
0000
0100
1000
0010
0000
1000
0010
0001
0000
0010
1000
0100
0000
,
0010
0001
0100
0000
1000
0100
0001
0000
0010
0000
0100
1000
0001
1000
0010
1000
,
0100
0000
0000
0000
0000
0000
0000
0000
0000
0000
0000
0000
1000
0000
0000
0000
0000
0000
0000
0000
0000
0000
0000
0000
0001
0000
0000
0000
0000
0000
0000
0000
0000
0000
0000
0000
0100
0000
0000
0000
0000
0000
0000
0000
0000
0000
0000
0000
0001
0000
0000
0000
0000
0000
0000
0000
0000
0000
0000
0000
1000
0000
0000
0000
0000
0000
0000
0000
0000
0000
0000
0000
0001
0000
0000
0000
0000
0000
0000
0000
0000
0000
0000
0000
0010
0000
0000
0000
0000
0000
0000
0000
0000
0000
0000
0000
0001
0000
0000
0000
0000
0000
0000
0000
0000
0000
0000
0000
0100
0000
0000
0000
0000
0000
0000
0000
0000
0000
0000
0000
0002
0003
0000
0000
0000
0000
0000
0000
0000
0000
0000
0000
0020
0030
0000
0000
0000
0000
0000
0000
0000
0000
0000
0000
0200
0300
0000
0000
0000
0000
0000
0000
0000
0000
0000
0000
2000
3000
0000
0000
0000
0000
0000
0000
0000
0000
0000
0000
0020
0030
0000
0000
0000
0000
0000
0000
0000
0000
0000
0000
0000
0000
0000
0000
0000
0000
0000
0000
0000
0000
0000
0000
,
0100
0000
0000
0000
0000
0000
0000
0000
0000
0000
0000
0000
0000
0000
0000
0000
0000
0000
0000
0000
0000
0000
0000
0000
0002
0003
0000
0000
0000
0000
0000
0000
0000
0000
0000
0000
1000
0000
0000
0000
0000
0000
0000
0000
0000
0000
0000
0000
0010
0000
0000
0000
0000
0000
0000
0000
0000
0000
0000
0000
0000
0000
0000
0000
0000
0000
0000
0000
0000
0000
0000
0000
0100
0000
0000
0000
0000
0000
0000
0000
0000
0000
0000
0000
0001
0000
0000
0000
0000
0000
0000
0000
0000
0000
0000
0000
0010
0000
0000
0000
0000
0000
0000
0000
0000
0000
0000
0000
0100
0000
0000
0000
0000
0000
0000
0000
0000
0000
0000
0000
1000
0000
0000
0000
0000
0000
0000
0000
0000
0000
0000
0000
0010
0000
0000
0000
0000
0000
0000
0000
0000
0000
0000
0000
0100
0000
0000
0000
0000
0000
0000
0000
0000
0000
0000
0000
0010
0000
0000
0000
0000
0000
0000
0000
0000
0000
0000
0000
1000
0000
0000
0000
0000
0000
0000
0000
0000
0000
0000
0000
0001
0000
0000
0000
0000
0000
0000
0000
0000
0000
0000
0000
,
1000
0000
0100
0000
0010
0000
0001
0000
0000
0000
0000
0000
1000
0000
0000
0001
0000
0000
0100
0000
0000
0000
0000
0000
0010
0000
0000
1000
0000
0000
0002
0000
0000
0010
0000
0000
0203
0000
0000
1000
0000
0000
0302
0000
0000
0010
0000
0000
,
0203
1000
0301
0000
1000
0010
0100
0000
0001
1000
0100
0010
0001
0100
0010
1000
,
0001
0000
0010
0000
0100
0000
1000
0000
0000
0000
0000
0000
0001
0000
0000
0100
0000
0000
0010
0000
0000
0100
0000
0000
0001
0000
0000
1000
0000
0000
0010
0000
0000
0100
0000
0000
0010
0000
0000
0100
0000
0000
0001
0000
0000
1000
0000
0000
,
0001
0000
0000
1000
0000
0000
0001
0000
0000
0000
0000
0000
0010
0000
0000
0100
0000
0000
1000
0000
0001
0000
1000
0000
0100
0000
0000
0000
0000
0000
1000
0000
0000
0010
0000
0000
0100
0000
0000
0001
0000
0000
0010
0000
0000
0100
0000
0000
,
0010
0001
1000
0000
0010
1000
0001
0000
0100
0010
2000
0100
3020
0001
2030
0100
,
3020
0001
0130
0001
0010
0001
1000
0100
1000
0010
1000
0100
0010
0100
1000
0001
,
1000
0001
0100
0010
0100
0000
0001
1000
0001
0000
0010
0100
1000
0001
0100
0010
,
0100
0000
0000
0000
0000
0000
0000
0000
0000
0000
0000
0000
0010
0000
0000
0000
0000
0000
0000
0000
0000
0000
0000
0000
0100
0000
0000
0000
0000
0000
0000
0000
0000
0000
0000
0000
0000
0000
0000
0000
0000
0000
0000
0000
0000
0000
0000
0000
0220
0330
0000
0000
0000
0000
0000
0000
0000
0000
0000
0000
0000
0000
0000
0000
0000
0000
0000
0000
0000
0000
0000
0000
1001
0000
0000
0000
0000
0000
0000
0000
0000
0000
0000
0000
0000
0000
0000
0000
0000
0000
0000
0000
0000
0000
0000
0000
0000
0000
0000
0000
0000
0000
0000
0000
0000
0000
0000
0000
0000
0000
0000
0000
0000
0000
0000
0000
0000
0000
0000
0000
1000
0000
0000
0000
0000
0000
0000
0000
0000
0000
0000
0000
0000
0000
0000
0000
0000
0000
0000
0000
0000
0000
0000
0000
0001
0000
0000
0000
0000
0000
0000
0000
0000
0000
0000
0000
1000
0000
0000
0000
0000
0000
0000
0000
0000
0000
0000
0000
0001
0000
0000
0000
0000
0000
0000
0000
0000
0000
0000
0000
0100
0000
0000
0000
0000
0000
0000
0000
0000
0000
0000
0000
,
0010
1000
0100
1000
0010
0100
0001
0010
2000
0010
3002
0010
2003
0010
3002
0010
,
0103
0000
0000
0000
0000
0000
1000
0000
0000
0100
0000
0000
0010
0000
0000
0001
0000
0000
1000
0000
0100
0000
0010
0000
0001
0000
0000
1000
0000
0000
0010
0000
0000
0100
0000
0000
0010
0000
0000
1000
0000
0000
0001
0000
0000
0010
0000
0000
,
0100
0000
0010
0001
1000
0000
0001
0010
0100
1000
0010
0100
0001
1000
0001
1000
,
0001
0000
1000
0000
0100
0010
0001
0100
0010
0100
0001
0010
0100
1000
0001
1000
,
0010
0100
0010
1000
0001
0100
0010
1000
0002
0100
2003
0100
3002
0100
2003
0100
,
3010
0000
0000
0000
0000
0000
0100
0000
0000
0001
0000
0000
1000
0000
0000
0000
0000
0000
0001
0000
0010
0000
0100
0000
1000
0000
0000
0000
0000
0000
0100
0000
0000
1000
0000
0000
0001
0000
0000
0000
0000
0000
1000
0000
0100
0000
0010
0000
,
0001
0000
0000
1000
0000
0000
0100
0000
0000
0010
0000
0000
0100
0000
0000
1000
0000
0000
0001
0000
0000
0100
0000
0000
0001
0000
1000
0000
0100
0000
1000
0000
0001
0000
0100
0000
0001
0000
1000
0000
0100
0000
1000
0000
0001
0000
0100
0000
,
0010
0000
0110
0000
0000
0000
1001
0000
0001
0010
0100
1000
0010
0000
0110
0000
,
0000
0000
0000
0000
0000
0000
1000
0000
0000
0000
0000
0000
0010
0000
0000
0000
0000
0000
0100
0000
0001
0000
0010
0000
0200
0000
0000
0000
0000
0000
0000
0000
0000
0000
0000
0000
1300
0000
0000
0100
0000
0000
0010
0000
0000
0100
0000
0000
,
1000
0000
0000
0001
0000
0000
0010
0000
0000
0100
0000
0000
0010
0000
0000
0001
0000
0000
0010
0000
0000
0100
0000
0000
1000
0000
0000
0001
0000
0000
0010
0000
0100
0000
1000
0000
0001
0000
0000
1000
0000
0000
0001
0000
0010
0000
0100
0000
,
1000
0100
0010
0100
1000
0100
0010
0001
0010
0100
0010
0001
1000
0010
0100
0010
,
1000
0000
0000
0001
0000
0000
0100
0000
0000
0010
0000
0000
0100
0000
0000
0001
0000
0000
0100
0000
0000
0010
0000
0000
1000
0000
0000
0001
0000
0000
0100
0000
0010
0000
1000
0000
0001
0000
0000
1000
0000
0000
0001
0000
0100
0000
0010
0000
,
1000
0010
0100
0010
1000
0010
0100
0001
0100
0010
0100
0001
1000
0100
0010
0100
,
1000
0000
0000
0001
0000
0000
0010
0000
0000
0100
0000
0000
0010
0000
0000
0001
0000
0000
0010
0000
0000
0100
0000
0000
1000
0000
0000
0001
0000
0000
0010
0000
0100
0000
1000
0000
0001
0000
0000
1000
0000
0000
0001
0000
0010
0000
0100
0000
,
1000
0100
0010
0100
1000
0100
0010
0001
0010
0100
0010
0001
1000
0010
0100
0010
,
1000
0000
0000
0001
0000
0000
0100
0000
0000
0010
0000
0000
0100
0000
0000
0001
0000
0000
0100
0000
0000
0010
0000
0000
1000
0000
0000
0001
0000
0000
0100
0000
0010
0000
1000
0000
0001
0000
0000
1000
0000
0000
0001
0000
0100
0000
0010
0000
,
1000
0010
0100
0010
1000
0010
0100
0001
1000
0100
1000
0100
1000
0001
0010
0001
,
0100
0000
0000
0010
0000
0000
1000
0000
0000
0001
0000
0000
0010
0000
0000
0100
0000
0000
1000
0000
0000
0001
0000
0000
0100
0000
0000
0010
0000
0000
0100
0000
0001
0000
1000
0000
0001
0000
0100
0000
0001
0000
1000
0000
0001
0000
0010
0000
,
0100
1000
0100
1000
0001
0010
0100
1000
0001
0100
0010
1000
0001
1000
0010
0100
,
0001
0000
0000
0010
0000
0000
0001
0000
0000
1000
0000
0000
0100
0000
0000
1000
0000
0000
0001
0000
0000
0010
0000
0000
0100
0000
0000
1000
0000
0000
0001
0000
1000
0000
0100
0000
1000
0000
0001
0000
1000
0000
0100
0000
1000
0000
0001
0000
,
0010
0100
1000
0010
0100
0001
0010
0100
1000
0100
0010
0001
1000
0010
1000
0010
,
0100
0000
0000
0001
0000
0000
0100
0000
0000
0001
0000
0000
1000
0000
0000
0100
0000
0000
1000
0000
0000
0100
0000
0000
0010
0000
0000
0001
0000
0000
0010
0000
0001
0000
1000
0000
0001
0000
0100
0000
0001
0000
1000
0000
0100
0000
1000
0000
,
0001
0010
0001
0010
0100
1000
0100
1000
0001
0100
0001
0100
0010
1000
0010
1000
,
0001
0000
0000
0010
0000
0000
0100
0000
0000
1000
0000
0000
0010
0000
0000
0100
0000
0000
0001
0000
0000
1000
0000
0000
0010
0000
0000
0100
0000
0000
0001
0000
1000
0000
0100
0000
1000
0000
0001
0000
0100
0000
0001
0000
1000
0000
0100
0000
,
1000
0001
0100
0001
1000
0100
1000
0001
0100
0001
1000
0100
1000
0001
1000
0001
1000
0001
2000
0000
0000
0000
0000
0000
,
0000
0000
3010
0100
0002
0023
0230
2300
,
0000
0000
3001
0100
0020
2030
3200
0320
,
0000
0000
0031
1000
0020
0230
0302
0023
,
0000
0000
0000
0000
0000
0000
0000
0000
0000
0000
0000
0000
0000
0000
0000
0000
0000
0000
0000
0000
0000
0000
0000
0000
0000
0000
0000
0000
0000
0000
0130
1000
0002
0000
0000
0000
0000
0000
0000
0000
0000
0000
0000
0000
0000
0000
0000
0000
0000
0000
0000
0000
0000
0000
0000
0000
0000
0000
0000
0000
0000
0000
0000
0000
,
0000
0000
0000
0003
0000
0000
0000
0000
;
