#TITLE:EXIST;
#SUBTITLE:;
#ARTIST:RAISE A SUILEN;
#TITLETRANSLIT:EXIST;
#SUBTITLETRANSLIT:;
#ARTISTTRANSLIT:RAISE A SUILEN;
#GENRE:ANIME;
#CREDIT:;
#MUSIC:EXIST.ogg;
#BANNER:EXIST.png;
#BACKGROUND:EXIST-bg.png;
#CDTITLE:;
#SAMPLESTART:63.417;
#SAMPLELENGTH:13.714;
#SELECTABLE:YES;
#OFFSET:1.151;
#BPMS:0.000=140.000
,68.000=130.000
,70.000=115.000
,72.000=100.000
,75.000=75.000
,76.000=140.000
;
#STOPS:;
#LASTBEATHINT:0.360316;
#BGCHANGES:2.500=EXIST.avi=1.000=0=0=0=StretchNoLoop====,
99999.000=-nosongbg-=1.000=0=0=0=StretchNoLoop====
;
#FGCHANGES:;

//--------------- dance-single - ----------------
#NOTES:
     dance-single:
     :
     Medium:
     14:
     0,0,0,0,0:
0000
0000
0000
0000
,
2000
0000
3200
0000
,
0302
0000
0203
0000
,
2300
0000
3002
0000
,
0203
0000
0000
0000
0302
0023
0230
2300
,
3010
2000
3200
0320
0230
0000
1000
0000
,
1300
0020
0230
0302
0203
0000
0010
0000
,
0310
2000
3002
0023
0230
0000
2300
0000
,
3002
0000
1000
0000
2003
3020
0230
0302
,
1003
0200
0320
0032
2003
0000
0010
0000
,
3010
0200
0302
0023
0230
0000
1000
0000
,
1300
2000
3200
0302
0203
0000
2300
0000
,
3020
0000
0130
0001
0100
0010
1000
0001
,
2000
0000
3002
0023
0000
0230
2300
0000
,
3010
0010
1000
1000
0001
0001
0100
0100
,
0020
0000
0230
0302
0023
0000
0100
0000
,
0230
0000
2300
3020
0230
1300
0100
0001
,
2000
3002
0023
0032
2003
0000
3002
0000
,
0023
0230
2300
3002
0203
0000
0320
0000
,
1030
0100
1000
0000
0001
0000
0100
0000
0010
0000
1000
0000
0001
0000
0010
0000
,
0100
0000
0010
0000
0001
0000
1000
0000
0001
0010
0001
0010
0100
1000
0100
1000
,
0001
1000
0010
0100
0010
1000
0010
0000
,
1000
0100
0010
0100
1000
0100
0010
0000
,
0001
0100
1000
0100
0001
0010
0100
1000
,
0010
0000
1000
0001
1000
0000
0100
0000
0001
0000
0100
0010
0100
0000
1000
0000
,
1001
0001
1000
1000
0010
0100
0010
0100
,
0001
0000
0001
0000
1000
0000
1000
0000
0100
0000
0010
0100
0010
0000
0100
0000
,
0010
0000
0001
0000
0010
0000
0001
0000
1000
0000
0010
1000
0010
0000
0100
0000
,
0101
0000
0001
0000
1001
0000
1000
0000
0100
0000
1000
0100
1000
0100
0010
0001
,
1000
0000
0000
0010
0100
0000
0001
0000
0010
0000
0001
0000
1000
0000
0010
0100
,
0010
0000
1000
0000
0001
0000
1000
0000
0001
0000
1000
0100
1000
0100
1000
0100
,
0010
0010
0001
1000
0010
0010
1000
0001
,
0100
0010
1000
0010
0100
0010
1000
0100
0010
0000
0001
1000
0001
0000
1000
0000
,
0010
0000
0100
0000
0010
0000
0100
0000
0001
0000
1000
0000
0001
0010
0001
0000
,
0010
0100
1000
0100
0010
0001
1000
0100
,
0010
0000
0001
0100
0000
0001
1000
0000
0001
0000
1000
0100
0000
1000
0001
0000
,
0010
0000
0001
0100
0001
0100
0010
0000
1000
0010
1000
0010
1000
0010
1000
0001
,
0020
0000
0000
0031
1000
0000
0010
0000
0100
0000
1000
0000
0100
0000
0001
0000
,
0010
0000
0010
0000
0100
1000
0100
0000
0001
0000
0100
0000
2000
0000
0000
0000
,
3010
0000
0100
0001
0100
0000
0010
0000
1000
0000
0001
0010
0001
0000
1000
0000
,
0001
0100
0001
0100
0001
0100
0010
1000
0001
0000
1000
0100
1000
0100
0010
0001
,
1000
0000
0000
0001
0100
0000
0010
0000
1000
0000
0001
0010
0001
0010
0100
1000
,
0001
0100
1000
0100
0001
0000
1000
0100
,
0001
0000
1000
0000
0001
0100
1000
0000
0001
0000
1000
0000
0001
0100
1000
0000
,
0001
0000
0010
0000
1000
0100
1000
0000
0001
0010
0001
0010
0100
1000
0100
1000
,
0002
0000
0000
1003
0010
0000
0010
0000
0100
0000
0000
0000
0001
0000
0010
0000
,
0001
0000
1000
0000
0001
0000
1000
0000
0001
0000
0100
0010
0100
0000
0001
0000
,
1000
0100
1000
0100
1000
0000
0001
1000
0010
1000
0010
1000
0010
0100
0001
1000
,
0001
0000
0001
0000
0010
0000
0010
0000
0100
0000
1000
0001
0010
0001
0010
0001
,
2000
0000
0001
0000
,
0001
0000
0001
0000
,
0000
3000
0000
0000
0000
0000
0000
0000
;

//--------------- dance-single - ----------------
#NOTES:
     dance-single:
     :
     Hard:
     16:
     0,0,0,0,0:
0000
0000
0000
0000
,
0002
0000
2003
0000
,
3002
0000
2003
0000
,
3020
0000
0230
0000
,
0320
0000
0000
0000
0000
0000
0000
0000
0000
0000
0000
0000
1030
0010
0100
0001
1000
0010
0100
0001
0010
0100
1000
0001
,
0020
0230
2300
3002
0203
0000
0010
0000
,
0310
2000
3200
0320
0230
0000
0010
0000
,
0310
0002
0203
2300
3200
0000
0302
0000
,
2003
0000
0001
0000
3002
0023
0230
2300
,
3001
2000
3020
0230
0302
0000
0010
0000
,
0013
0002
0203
0320
2030
0000
0010
0000
,
3010
2000
3200
0302
0203
0000
2300
0000
,
3020
0000
0000
0000
0000
0000
1030
0000
0000
1000
0010
0100
0001
0000
0000
0001
0000
0000
1000
0000
0000
1000
0000
0000
,
0020
0000
2030
3200
0000
0320
0001
0000
,
0032
2003
3020
0230
0302
2003
3200
0320
,
0032
1000
2003
3020
0230
0000
0001
0000
,
0302
0010
0023
0230
2300
3002
0023
0230
,
2300
3002
0203
0320
2030
3002
0023
0230
,
2300
0000
0000
3002
0000
0000
0203
0000
0000
0320
0000
0000
1030
0100
0010
0002
0000
0000
2003
0000
0000
0000
0000
0000
,
3001
0100
0001
0000
1000
0000
0100
0000
0010
0100
1000
0010
0100
0000
1000
0000
,
0100
0000
0001
0010
0001
0000
1000
0000
0100
0010
0001
1000
0001
0010
0100
1000
,
0010
0000
0010
0100
0010
0000
0010
1000
0100
0000
0100
0010
0100
1000
0100
0010
,
0001
0000
0001
1000
0001
0000
0001
1000
0010
0000
0010
0100
0001
0100
0010
1000
,
0010
0000
0010
1000
0001
0000
0001
0010
0100
0000
0100
1000
0100
0010
0100
1000
,
0001
0000
0001
0100
0010
0000
1000
0000
0001
0000
0010
0100
1000
0000
0010
0000
,
0100
0000
1000
0100
0010
0000
1000
0000
0100
0010
0100
0001
0100
1000
0010
0100
,
0010
0000
0100
0001
1000
0000
0001
0000
0100
0010
0100
1000
0100
0001
0010
0100
,
0010
0000
0100
1000
0001
0000
0100
0000
0010
1000
0100
0010
0100
1000
0010
0100
,
0001
0010
0100
1000
0001
0000
0100
0000
1000
0100
0001
0010
0100
1000
0001
0010
,
0100
0000
1000
0000
0001
0000
0100
0000
0010
0000
1000
0001
1000
0000
0100
0000
,
0010
0001
0100
1000
0100
0010
1000
0100
0001
0100
0010
0001
0100
1000
0001
0010
,
0100
0000
0001
0010
0100
0000
1000
0000
0001
0000
1000
0100
0010
0000
0001
0000
,
1000
0000
0000
0001
0000
0000
0100
0000
0000
0100
0000
0000
1000
0000
0000
0100
0000
0000
0100
0000
0000
0001
0000
0000
1000
0000
0000
0010
0000
0000
1000
0000
0100
0000
0010
0000
0001
0000
0000
0000
0000
0000
1000
0000
0000
0000
0000
0000
,
0010
0000
0100
0001
0010
0000
0100
1000
0010
0000
1000
0001
1000
0000
0100
0000
,
1000
0100
0010
0100
1000
0001
0100
0010
0100
0001
1000
0001
1000
0100
0010
0001
,
1000
0000
0010
0100
0002
0000
0023
0000
2030
0000
3001
0100
2000
0000
3020
0000
,
0130
0001
0010
0100
1000
0010
0100
0001
0100
1000
0100
1000
0100
0001
0100
0001
,
2000
0000
0000
3001
0020
0000
0230
0000
2300
0000
3010
0100
0010
0000
0100
0000
,
0001
0010
0100
0010
0001
0010
0100
1000
0100
0010
0100
1000
0100
0010
0001
1000
,
0020
0000
0130
1000
0002
0000
0023
0000
2030
0000
3100
0010
0002
0000
0023
0000
,
0130
1000
0100
0001
0100
0010
0001
0100
1000
0100
0010
1000
0100
0010
0001
1000
,
0020
0000
0000
0130
0002
0000
0023
0000
0130
1000
0020
0000
0130
0001
0010
0100
,
0020
0000
1030
0010
0002
0000
0203
0000
1300
0100
0001
0010
2000
0000
3010
0000
,
0001
0100
0010
0100
0001
0000
1000
0000
0001
0010
0100
0010
0001
0000
1000
0000
,
0001
0100
0010
0100
1000
0001
0010
0100
0010
1000
0100
1000
0001
0010
0100
1000
,
0002
0000
0000
0013
0200
0000
2300
0000
3001
0100
0010
1000
0001
1000
0010
0100
,
0001
0000
0010
0000
1000
0000
0010
0000
0001
0000
1000
0010
0100
0000
0001
0000
,
1000
0000
0000
0000
0000
0000
0001
0000
0010
0000
0100
0000
2000
0000
0000
0000
0000
0000
3001
0000
0000
0100
0000
0000
0010
0000
0000
1000
0000
0000
0100
0000
0000
0100
0000
0000
0001
0000
0000
0010
0000
0000
1000
0000
0000
0001
0000
0000
,
0100
0100
0010
1000
0001
0100
1000
0001
1000
0100
0001
1000
0100
0100
0001
1000
,
0020
0000
0100
0000
,
0100
0000
0100
0000
,
0000
0030
0000
0000
0000
0000
0000
0000
;

//--------------- dance-single - ----------------
#NOTES:
     dance-single:
     :
     Challenge:
     17:
     0.905655,1.021717,0.954823,0.8549,0.68281,571,485,86,77,0,0,0.905655,1.021717,0.954823,0.8549,0.68281,571,485,86,77,0,0:
0000
0000
0000
0000
,
0001
0020
0000
0000
0000
0000
0000
0000
0000
0000
0000
0000
0230
0000
0000
0000
0000
0000
0000
0000
0000
0000
0000
0000
,
1300
0020
0000
0000
0000
0000
0000
0000
0000
0000
0000
0000
0230
0000
0000
0000
0000
0000
0000
0000
0000
0000
0000
0000
,
0301
2000
0000
0000
0000
0000
0000
0000
0000
0000
0000
0000
3020
0000
0000
0000
0000
0000
0000
0000
0000
0000
0000
0000
,
0130
0002
0000
0000
0000
0000
0000
0000
0000
0000
0000
0000
1003
0010
0100
0001
1000
0010
0100
0001
0010
0100
1000
0001
,
0010
0200
2300
3002
0203
0010
0010
0310
,
1010
2000
3200
0320
0230
0010
0010
0310
,
0011
0002
0203
2300
3200
1000
0302
0010
,
2003
0000
0000
0010
0000
0000
0001
0000
0000
3100
0000
0000
1002
0003
0000
0021
0030
0000
0210
0300
0000
2100
3000
0000
,
1001
2000
3020
0230
0302
0010
0010
0013
,
0011
0002
0203
0320
2030
0010
0010
3010
,
1010
2000
3200
0302
0203
0010
2300
0001
,
3020
0000
0000
0100
0000
0000
1030
0000
0000
0001
0010
0100
1000
0000
0000
0001
0000
0000
1001
0000
0000
1000
0000
0000
,
0120
1000
2030
3200
0001
0320
0100
1030
,
2010
3010
0021
0031
1002
1003
1020
0130
,
0012
0000
0000
0013
0000
0000
0200
0000
0000
2300
0000
3000
0020
0000
0000
0100
0000
0000
0100
0000
0000
0130
0000
0000
,
2001
3010
0020
0230
0302
0013
0110
1000
,
2010
3001
0020
0130
2000
3001
0200
0310
,
2000
0000
0000
0000
0000
0000
3001
0000
0000
0000
0000
0000
0100
0000
0000
0000
0000
0000
0010
0000
0000
0000
0000
0000
1000
0000
0100
0000
0010
0000
0002
0000
0000
0000
0000
0000
2003
0000
0000
0000
0000
0000
0000
0000
0000
3000
0000
0000
,
1001
0100
0010
0000
1010
0000
0100
0000
0011
0000
0100
0000
1100
0000
0010
0000
,
1001
0000
0100
0000
0011
0000
1000
0000
1010
1000
0100
0010
0001
0100
0010
1000
,
1010
0000
1000
0100
0010
0000
0010
0001
1000
0000
1000
0010
0100
0000
0100
0001
,
1000
0000
0001
0010
0110
0000
1000
0000
0011
0100
1000
0010
0110
0000
0010
0000
,
1001
0000
1000
0010
0100
0000
1000
0000
0100
0001
0010
0000
0110
0000
1000
0000
,
0110
0000
1100
1000
0011
0000
1001
0000
0110
0000
1010
0010
0101
0000
1100
0000
,
0110
0000
0100
0001
0110
0000
0100
0000
0110
0000
0100
0001
0110
0000
0100
0000
,
0110
0000
0010
1000
0110
0000
0010
0000
0110
0000
0010
1000
0110
0000
0010
0000
,
1001
0000
1000
0100
0011
0000
0100
0000
1001
0000
0001
0100
1010
0000
0010
0000
,
0110
0000
0100
0010
1001
0000
0100
0000
0101
0001
1000
1000
0010
0010
0100
0100
,
0101
0000
0001
0000
1001
0000
0001
0000
0011
0000
0001
0010
0110
0000
1000
0000
,
0101
0100
1000
0100
0001
0010
1000
0010
0011
0000
1000
0000
0110
0000
0100
0001
,
0101
0010
1100
0010
1001
0100
0011
1000
,
1010
0000
0000
1000
0000
0000
0001
0000
0000
0100
0000
0000
0101
0000
0000
0001
0000
0000
1000
0000
0000
0100
0000
0000
1100
0000
0000
0000
0000
0000
1000
0000
0100
0000
0010
0000
0011
0000
0000
0000
0000
0000
1000
0000
0000
0000
0000
0000
,
0110
0000
1000
0000
0101
0000
0010
0000
1100
0000
1000
0100
0110
0000
1000
0000
,
0101
0100
0010
1000
1010
0010
0100
0001
1001
0000
1000
0100
0021
0000
0230
0000
,
0301
0100
0010
0001
2000
0000
3020
0000
0031
0010
0100
0001
2000
0000
3200
0000
,
0310
0100
0010
0001
0100
0010
0001
1000
0100
0001
1000
0100
0010
0100
0001
0100
,
2100
0000
0000
3001
0200
0000
0310
0000
1010
0100
0001
0000
0011
0100
1000
0000
,
1010
0000
0010
0100
1001
0000
0110
0000
1010
0100
0001
1000
0100
0010
0100
1000
,
0110
0000
0100
0001
1010
0000
1100
0000
0011
0000
0100
1000
0011
0000
0101
0000
,
1010
1000
0100
0001
0100
0010
0001
0100
0010
0001
0010
1000
0100
0010
0100
1000
,
1002
0000
0000
1003
0100
0000
0110
0000
0011
0100
1000
0000
1010
0100
0001
0000
,
1001
0000
1000
0100
0002
0000
0203
0000
1300
0010
0100
0010
1001
0000
0110
0000
,
0001
0100
1000
0100
0001
0000
1001
0000
1000
0100
0001
0100
1000
0000
1001
0000
,
0001
0100
0010
0100
1000
0000
0100
0000
0001
0010
0100
1000
0001
0010
0100
1000
,
0002
0000
0000
1003
0010
0000
0110
0000
0001
0010
0100
0000
1000
0100
0010
0001
,
1001
0000
0100
0000
1010
0000
0100
0000
0011
0000
0010
0001
1000
0000
0100
0000
,
1100
0000
0000
0000
0000
0000
1000
0000
0100
0000
0010
0000
1001
0000
0000
0000
0000
0000
0001
0000
0000
0100
0000
0000
0110
0000
0000
0010
0000
0000
1000
0000
0000
0100
0000
0000
0110
0000
0000
0010
0000
0000
0001
0000
0000
0100
0000
0000
,
0110
0000
1010
0000
0101
0000
1001
0000
1100
1000
0100
0001
1000
0010
0001
0100
,
2000
0000
0100
0000
,
0100
0000
0100
0000
,
0000
3000
0000
0000
0000
0000
0000
0000
;
