#TITLE:ダブルラリアット;
#SUBTITLE:[Double Bass Drum Remix 2021];
#ARTIST:アゴアニキ Remixed by 鬱P feat. 巡音ルカ;
#TITLETRANSLIT:Double Lariat;
#SUBTITLETRANSLIT:[Double Bass Drum Remix 2021];
#ARTISTTRANSLIT:Agoaniki-P Remixed by Utsu-P feat. Megurine Luka;
#GENRE:POP;
#CREDIT:;
#MUSIC:Double Lariat [Double Bass Drum Remix 2021].ogg;
#BANNER:Double Lariat [Double Bass Drum Remix 2021].png;
#BACKGROUND:Double Lariat [Double Bass Drum Remix 2021]-bg.png;
#CDTITLE:;
#SAMPLESTART:67.445;
#SAMPLELENGTH:13.913;
#SELECTABLE:YES;
#OFFSET:-0.054;
#BPMS:0.000=69.000
,26.000=138.000
,104.000=69.000
,105.000=138.000
,222.000=69.000
,238.000=138.000
,270.000=69.000
;
#STOPS:127.000=0.652
,221.500=0.652
;
#BGCHANGES:;
#FGCHANGES:;

//--------------- dance-single - ----------------
#NOTES:
     dance-single:
     :
     Medium:
     12:
     0,0,0,0,0:
0000
0000
0000
0000
0000
0000
0000
0000
0001
0100
0001
0100
0001
0000
1000
0100
,
1000
0100
1000
0001
1000
0000
0001
1000
0001
0010
0001
0010
0001
0000
1000
0100
,
1000
0100
1000
0001
1000
0000
0001
0100
0000
0000
1000
0100
0000
0000
0001
1000
,
0000
0010
1000
0001
0000
1000
0001
0100
0000
0010
0100
0001
0000
1000
0000
0001
,
0000
1000
0100
1000
0100
0000
1000
0100
0000
0000
0001
0100
0000
0000
1000
0001
,
0000
0100
0010
0100
0000
0010
0100
0001
0000
1000
0100
1000
0000
0001
1000
0001
,
0000
1000
0010
0100
0001
0000
1000
0100
1000
0000
0100
0000
0010
0000
0001
0000
,
0000
0100
0001
0100
0010
1000
0100
0001
,
0000
0100
1000
0010
0100
0001
1000
0001
,
0000
0010
0001
0100
0000
0001
1000
0100
,
0010
0000
0001
0100
0001
0100
0010
1000
,
0000
0100
1000
0100
0010
0001
0100
1000
,
0000
0100
0001
0010
0100
1000
0001
1000
,
0000
0010
1000
0100
0000
1000
0001
0100
,
0010
0000
0000
1000
0001
0100
0001
0100
,
0010
1000
0100
1000
0100
0001
0100
1000
,
0001
0000
0000
1000
0001
0100
0001
1000
,
0001
0000
0010
0000
0100
0000
1000
0000
0001
0000
0000
1000
0000
0000
0101
0000
,
0100
0000
0000
0010
0000
0000
1001
0000
1000
0000
0100
0000
1000
0000
0100
0000
,
0010
0001
0100
0001
0100
1000
0100
0001
,
1000
0000
0000
0001
1000
0100
1000
0001
,
1000
0000
0010
0000
0100
0000
0001
0000
1000
0000
0000
0001
0000
0000
1000
0000
,
0010
0100
1001
0000
0001
1000
0100
1000
,
0001
0010
0001
0010
0100
1000
0100
1000
,
0100
0001
0100
0001
1000
0010
0001
0100
,
1000
0001
0010
1000
0100
0001
1000
0010
,
0110
0000
1001
0000
0010
0000
0000
0001
0000
0000
0100
0000
1000
0000
0001
0000
,
0010
0000
1000
0000
0010
0000
0000
0100
0000
0000
0001
0000
0010
0000
1000
0000
,
0001
0100
1000
0010
1000
0010
0100
0001
,
0100
0010
2000
0000
3020
0000
0230
0000
,
0302
0000
1003
0001
1000
0001
1000
0001
,
1000
0001
0000
1000
1000
0001
1001
1000
,
1000
1000
1000
0001
0100
1000
0100
0001
,
0001
0001
0001
0010
1000
0010
0001
0010
,
0010
0010
0010
0100
1000
0010
1000
0100
,
0100
0100
0100
0110
0000
1001
0000
0001
,
0001
0100
0100
1000
0001
1000
0100
0001
,
0001
0010
0010
1000
0001
1000
0010
0001
,
0001
1000
1000
0010
0010
0100
0100
0001
,
0001
1000
1000
1001
0000
1000
0010
0000
,
0010
0100
0001
0000
0001
0010
0100
0000
,
0100
1000
0001
0000
0001
1000
0010
0000
,
0010
1000
0100
0000
0100
0010
0001
0000
,
1000
0000
0001
1000
0000
0001
0100
0000
,
0100
0001
0010
0000
0010
0100
1000
0000
,
1000
0001
0100
0000
0100
0010
1000
0000
,
1000
0001
0100
0000
0100
0001
1000
0000
,
0001
0000
1000
0001
0000
0001
0100
1010
,
0000
0011
0000
1010
0000
1000
0100
0011
,
0000
1010
0000
0011
0000
0001
0100
1001
,
0000
0110
0000
1001
0000
0001
1000
0110
,
0000
1001
0000
0110
0010
0100
0010
0110
,
0000
0101
0001
1001
0000
0011
0001
1001
,
0000
0110
0010
1010
0000
0110
0010
1001
,
0100
0010
0100
0010
0100
0010
1001
0000
,
0110
0000
0110
0000
1001
0000
1001
0000
2000
0000
3001
0200
0000
0310
1000
0020
,
0000
0130
0001
2000
0000
3001
0010
2000
0000
3010
0100
2000
0000
3002
0000
0203
,
0000
0301
1000
0100
2000
0000
3001
2000
0000
0000
3010
0200
0000
0000
0301
0020
,
0000
0130
1000
0020
0000
0130
0001
2000
0000
3001
0010
0002
0000
2003
0000
3002
,
0000
0103
0010
0100
0020
0000
0130
1000
0100
0000
0010
0000
0100
0000
0001
0000
,
0010
0100
0010
1000
0001
0100
0010
0100
,
1000
0010
0100
0010
0001
0010
1000
0100
,
0001
1000
0010
0001
0100
1000
0001
0010
,
0110
0000
1001
0000
0001
0100
0010
0001
,
1000
0100
0010
1000
0001
0010
0100
0001
,
1000
0010
0100
1000
0010
0001
1000
0001
,
0010
1000
0100
0001
1000
0001
0100
1000
,
1001
0000
0000
0000
0010
0000
1000
0000
0000
0000
0001
0100
0000
0000
1000
0001
,
0000
0010
0001
1000
0000
0001
1000
0100
0000
0010
0100
1000
0000
0001
0000
1000
,
0000
0001
0100
0001
0100
0000
0001
0100
0000
0010
1000
0100
0000
0000
0001
0100
,
0000
0100
1000
0100
0000
0010
0100
1000
0000
0001
0100
0001
0000
1000
0000
0001
,
0000
0001
0010
0100
1000
0000
0000
0000
0000
0000
0000
0000
0000
0000
0000
0000
;

//--------------- dance-single - ----------------
#NOTES:
     dance-single:
     :
     Hard:
     15:
     0,0,0,0,0:
0000
0000
0000
0000
0000
0000
0000
0000
0001
0100
0001
0100
1001
0000
1000
0100
,
1000
0100
1000
0010
1001
0000
0001
1000
0001
0010
0001
0010
1001
0000
1000
0100
,
1000
0100
1000
0010
1001
0000
0001
2000
0000
0000
3001
0200
0000
0000
0310
0200
,
0000
0310
1000
0002
0000
0013
0100
0020
0000
0130
1000
0002
0000
2003
0000
3002
,
0000
0100
0103
0001
2000
0000
3001
2000
0000
0000
3001
0200
0000
0000
0310
0200
,
0000
0301
1000
0002
0000
0013
0100
2000
0000
3001
0100
0020
0000
1030
0001
2000
,
0000
3001
0010
0100
1000
0001
1001
0000
1000
0100
1000
0100
1000
0000
0000
0000
,
0001
0000
1000
0100
0000
1000
0001
0000
0000
0000
1000
0001
1000
0001
0100
0010
,
0100
0000
0010
1000
0000
0010
1000
0000
0001
0100
0001
0100
0001
0000
0000
0000
,
0010
0000
0100
1000
0000
0100
1000
0000
0000
0000
0100
0010
0100
0010
0001
1000
,
0001
0000
0100
0001
0000
0100
0010
0000
1000
0010
1000
0010
1000
0000
0000
0000
,
0001
0000
0010
0100
0000
1000
0001
0000
0000
0000
0100
0010
0100
0010
1000
0010
,
1000
0000
0001
1000
0000
0010
1000
0000
0001
0010
0001
0010
0001
0000
0000
0000
,
0100
0000
0010
1000
0010
1000
0100
0000
0010
0000
0001
0100
0001
0100
0010
0000
,
1000
0100
1000
0100
0010
0001
0010
0001
1000
0000
0001
1000
0000
0001
0100
0000
,
0010
0000
1000
0000
0100
0010
0100
0000
1000
0000
0001
1000
0000
0100
1000
0000
,
0001
0000
1000
0000
0010
0100
0010
0000
1000
0000
0001
0100
0000
0001
1000
0000
,
0010
0000
0100
0000
0001
1000
0001
0000
1000
0000
0100
0010
0000
0001
1000
0000
,
0010
0000
0100
0001
0100
0001
1000
0000
0001
0000
0010
0100
0000
0010
0001
0000
,
0100
0000
1000
0000
0100
0001
0100
0000
0010
0000
1000
0100
0000
1000
0001
0000
,
0010
0000
1000
0000
0010
0001
0010
0000
0100
0000
1000
0001
0000
0100
0001
0000
,
0100
0000
1000
0000
0100
0010
0100
0000
0001
0000
0010
0001
0000
0001
0100
0000
,
0010
0000
1000
0100
1000
0000
0000
0000
0001
0100
0001
0100
0001
1000
0001
1000
,
0010
0100
0010
0100
0010
1000
0010
1000
0001
0010
0001
0010
0001
1000
0001
1000
,
0100
0010
0100
0010
0100
1000
0100
1000
0001
0100
0001
0100
0010
1000
0010
1000
,
0001
0010
0001
0010
0100
1000
0100
1000
0001
0100
0001
0000
1000
0100
1000
0000
,
1001
0000
1001
0000
0010
0000
1000
0001
0000
0001
0010
0000
0100
1000
0100
1000
,
0000
1000
0001
0000
0010
0000
0100
1000
0000
1000
0010
0000
0100
0001
0100
0001
,
0000
0010
0100
0000
1000
0100
0010
0100
1000
0100
0010
0001
0100
0010
0100
0001
,
0100
0010
1000
0001
1000
0001
1000
0100
0010
0100
0010
0100
1000
0100
0010
0001
,
1000
0100
0010
0002
1000
0000
1000
0000
1000
0000
1000
0000
1000
0000
1000
0000
,
1003
1001
0000
1001
1001
1001
1001
1000
,
0010
0100
0001
1001
1000
0100
0010
0001
,
1000
0000
0001
0000
0100
0010
0100
0000
1000
0000
0100
0010
0100
0000
0001
0000
,
0010
0100
1000
1100
0100
0010
0001
1000
,
0001
0000
1000
0000
0010
0000
0110
0000
0100
0001
1000
0000
0100
0000
0010
0000
,
0001
0100
0010
1010
1000
0001
0010
0100
,
1000
0000
0001
0000
1000
0000
1001
0000
0001
0000
1000
0010
1000
0000
0001
0000
,
0100
0010
1000
1010
0010
0100
0001
0010
,
0100
1000
0100
0000
0010
0100
0010
0000
0100
1000
0100
0010
0001
0010
0001
0000
,
0010
0100
1000
1100
0101
1100
0101
1000
,
0010
0100
0001
0101
1100
0101
1100
0001
,
0100
0010
1000
1010
0011
1010
0011
0010
,
0100
0000
0010
0000
0100
0000
0110
0000
0010
0100
0010
0000
0110
0000
0001
0000
,
1000
0010
0100
1010
0101
1010
0101
0010
,
0100
0001
1000
0011
1100
0011
1100
1000
,
0001
0100
0010
0110
1001
0110
1001
0100
,
0001
1000
0001
1001
0110
1001
0110
1001
,
1000
1100
1000
1010
0010
0110
0000
1001
,
0001
0000
0101
0000
0001
0000
0011
0000
0010
0100
0010
0000
0000
0000
1100
0000
,
1000
1001
0001
1001
1000
1001
0000
1001
,
0100
0000
1001
0000
0010
0000
1001
0000
1000
0001
1000
0000
0010
0000
0110
0000
,
0100
0000
0101
0000
0001
0000
1001
0000
1000
0100
0010
0000
0001
0000
0011
0000
,
0010
0000
0110
0000
0100
0000
1100
0000
1000
0010
0100
0000
0001
0000
0101
0000
,
0101
0110
0110
1010
1010
1001
1001
0000
,
0110
0000
0110
0000
1001
0000
1001
0000
0001
0100
0001
0100
0000
0010
1000
0001
,
0000
0001
0010
0100
0000
0100
1000
0001
0000
0001
0100
0010
0000
0010
1000
0100
,
0010
0001
1000
0100
0010
0000
0001
2000
0000
0000
3010
0200
0000
0000
0301
0010
,
0001
0010
0100
1000
0100
1000
0001
0002
0000
1003
0100
2000
0000
3001
0100
0002
,
0000
1003
0001
1000
0001
1000
0001
0000
1100
0000
0100
0000
0110
0000
0100
0000
,
1100
1000
1001
0001
0101
0100
0110
0100
,
0101
0001
1001
1000
1010
0010
0011
0001
,
0101
0100
1100
1000
1010
0010
0110
0100
,
1001
0000
0001
0100
0001
0000
0010
0000
1100
0000
1010
0000
1100
0000
1010
0000
,
0101
0011
0101
0011
1010
0011
1010
0011
,
0101
1100
0101
1100
1010
0101
1010
0101
,
0011
0000
1100
0000
0011
0000
1100
0000
1001
0000
1000
0100
1000
0000
0001
0100
,
0001
0000
1000
0100
0010
0001
1000
0100
0020
0000
0031
0200
0000
0000
0301
0200
,
0000
0310
1000
0002
0000
0013
0100
0020
0000
0130
1000
0002
0000
2003
0000
3002
,
0000
0100
0103
0001
2000
0000
3001
0200
0000
0310
1000
0020
0000
0000
0130
0002
,
0000
1003
0001
2000
0000
3001
0010
0002
0000
1003
0100
0020
0000
0031
1000
0002
,
0000
1003
0010
0100
0020
0000
0030
0000
0000
0000
0000
0000
0000
0000
0000
0000
;

//--------------- dance-single - ----------------
#NOTES:
     dance-single:
     :
     Challenge:
     17:
     0,0,0,0,0:
0000
0000
0000
0000
0000
0000
0000
0000
0001
0010
0100
1000
1001
0000
1000
0010
,
0100
0010
1000
0010
1001
0000
1000
0100
0010
0001
0100
0001
1001
0000
0001
0100
,
0010
0100
0001
1000
1010
0000
0002
0023
0100
0130
2000
3020
0100
0130
0002
2003
,
0100
0000
3200
0000
0320
0000
0032
0000
1000
0000
2003
0000
3100
0010
0200
0000
1000
0000
2300
0000
3002
0000
0203
0000
0010
0000
0320
0000
1000
0000
2030
0000
,
0001
3002
0023
2030
3020
0001
0032
0203
0010
0010
0302
2003
0001
3001
0020
0230
,
1000
0000
2300
0000
3200
0000
0320
0000
0001
0000
0032
0000
1003
0010
2000
0000
0001
0000
3002
0000
0023
0000
0230
0000
1000
0000
2300
0000
0010
0000
3020
0000
,
0100
0000
0000
0230
0000
0000
0302
0000
0000
2003
0000
0000
3010
0100
0010
0100
0010
0100
0020
0000
0000
2030
0000
0000
3100
0000
0000
0010
0000
0000
0100
0000
0000
0010
0000
0000
0002
0000
0000
0000
0000
0000
0003
0000
0000
0000
0000
0000
,
1001
0000
1000
0010
0000
1000
0002
0000
0000
0000
1003
0100
0010
0100
1000
0100
,
0020
0000
0031
0100
0000
0001
2000
0000
3010
0100
0010
0100
0002
0000
0003
0000
,
1001
0000
1000
0001
0000
0100
0020
0000
0000
0000
1030
0100
0010
0100
0010
0001
,
1001
0000
0010
0001
0000
0001
1000
0000
1000
0010
0100
0010
2020
0000
3030
0000
,
0101
0000
0100
0010
0000
1000
0002
0000
0000
0000
0013
0100
1000
0001
0100
0010
,
0200
0000
0301
1000
0000
0010
1000
0000
0001
0010
0100
0010
0022
0000
0033
0000
,
0101
0000
0100
0010
1001
0100
0010
0000
0110
0000
1000
0110
0001
0010
0011
0000
,
0010
0100
1000
0010
0100
0010
0100
0001
1000
0000
1000
0100
0000
0100
0010
0000
,
1001
0000
0011
0000
0010
0100
1000
0000
1010
0000
0100
0001
0000
0001
0010
0000
,
0110
0000
1100
0000
1000
0100
0010
0000
0011
0000
0001
0100
0000
0001
1000
0000
,
1010
0000
0110
0000
0100
0001
1000
0000
1100
0000
0100
0010
0000
0001
1000
0000
,
0110
0000
0010
1000
0010
0100
0001
0000
0011
0000
0010
0100
0000
0100
1000
0000
,
0011
0000
1100
0000
1000
0001
0100
0000
1010
0000
0010
0100
0000
0100
0001
0000
,
1010
0000
0101
0000
0001
0010
0100
0000
1001
0000
0100
0010
0000
0010
0100
0000
,
0110
0000
1001
0000
0001
0010
0100
0000
1100
0000
1000
0100
0000
0100
0001
0000
,
0101
0000
0001
0100
2000
0000
0000
0000
3010
0100
0001
0010
0001
0100
0001
0100
,
0010
1000
0001
0010
0001
1000
0001
1000
0010
0100
0001
1000
0100
0010
0100
0010
,
0001
1000
0001
0010
0100
1000
0100
1000
0001
0100
0010
0100
0001
0010
0001
0010
,
0100
0000
0000
0010
0000
0000
0001
0000
0000
0100
0000
0000
0010
0000
0000
1000
0000
0000
0010
0000
0000
1000
0000
0000
0001
0000
0100
0000
0010
0000
1000
0000
0000
0001
0000
0000
1000
0000
0100
0000
0010
0000
0001
0000
0000
1000
0000
0000
,
1001
0000
1001
0000
0110
0000
0100
0001
0000
0001
1000
0000
0100
0010
0001
1000
,
0000
1000
0010
0000
0110
0000
0010
1000
0000
1000
0100
0000
0010
0001
0100
0010
,
0000
0000
0000
1000
0000
0000
0100
0000
0000
0010
0000
0000
0001
0000
0000
1000
0000
0000
0100
0000
0000
0010
0000
0000
0001
0000
1000
0000
0001
0000
1000
0000
0000
0001
0000
0000
0100
0000
0000
0010
0000
0000
1000
0000
0000
0010
0000
0000
,
1000
0000
0001
0000
1000
0000
0001
0000
0000
1000
0000
0000
0001
0000
0000
0100
0000
0000
1000
0000
0000
0100
0000
0000
0001
0000
0010
0000
0100
0000
0010
0000
0000
0100
0000
0000
1000
0000
0000
0100
0000
0000
0001
0000
0000
0100
0000
0000
,
1000
0000
0010
0000
0100
0000
0010
0000
0000
0200
0000
0000
0010
0000
0000
0000
0000
0000
0010
0000
0000
0000
0000
0000
0010
0000
0000
0000
0000
0000
0010
0000
0000
0000
0000
0000
0010
0000
0000
0000
0000
0000
0010
0000
0000
0000
0000
0000
,
0310
0110
0000
1001
1001
1001
1001
1001
,
0110
0000
0100
0001
1000
0001
1001
0000
0001
0000
1000
0000
0100
0000
0010
0000
,
0001
1000
0001
1000
0010
0100
0110
0000
0100
0000
0001
0010
0100
0000
1000
0000
,
0100
0010
0001
1000
0001
0000
1100
0000
0100
0010
0001
0000
0100
0001
0010
0000
,
1000
0000
0010
0001
0100
0010
1010
0000
0100
0001
1000
0000
0010
0000
0100
0000
,
0001
0000
1000
0010
1000
0010
0101
0000
0100
0000
0001
0000
1000
0000
0001
0010
,
0100
0010
0001
0010
1000
0010
0110
0000
0100
0000
1000
0010
0100
0000
1000
0000
,
0100
0010
1000
0000
0100
0000
0110
0000
0010
0001
1000
0000
0100
0000
0010
0000
,
0100
1000
0010
0000
0100
0001
0010
0000
0100
1000
0020
0100
0032
0010
0103
0000
,
0010
0000
0200
0000
0320
0030
2001
0000
0010
0000
3200
0000
0302
0000
1000
0000
,
0100
0000
0023
0000
0230
0300
2001
0000
0100
0000
3002
0000
2003
0000
0001
0000
,
0100
0000
3020
0000
0230
0300
2001
0000
0100
0000
3002
0000
2003
0000
0010
0000
,
3200
0000
0010
0000
2300
3000
0021
0000
0031
0100
1002
0000
2003
0000
0001
0000
,
0100
0000
3020
0000
2030
3000
0120
0000
1000
0000
0032
0000
0203
0000
0010
0000
,
1000
0000
0302
0000
2003
3000
0012
0000
0100
0000
2003
0000
3002
0000
0100
0000
,
0010
0000
2003
0000
3200
0300
2001
0000
0001
0000
3200
0000
0320
0000
0100
0000
,
0032
0000
2003
0000
3200
0300
0120
0000
0130
0000
1001
0000
0100
0000
1010
0000
,
0001
0110
1000
0011
0100
1010
0100
1001
,
0010
0000
1001
0000
0010
0000
0110
0000
1000
0001
0110
0000
1000
0000
0011
0000
,
0100
1010
0001
1100
0010
0101
1000
0110
,
0010
0000
1001
0000
0100
0000
0110
0000
1000
0100
0011
0000
0001
0000
1100
0000
,
0010
0000
0101
0000
0010
0000
1001
0000
0001
1000
0110
0000
0001
0000
1010
0000
,
0100
0000
0011
0000
0100
0000
1001
0000
0001
0010
1100
0000
0010
0000
0101
0000
,
0110
1100
0110
0011
0110
1010
0110
0000
,
0101
0000
0110
0000
1010
0000
1001
0000
0100
0100
0001
1000
0000
1000
0001
1000
,
0100
0000
0001
0000
0100
0000
1000
0000
0000
0000
1000
0000
0010
0100
0010
0000
1000
0000
0001
0000
0010
0000
0001
0000
1000
0000
0100
0000
1000
0000
0100
0000
,
0001
0000
0100
0000
1000
0000
0010
0000
0100
0000
0001
0000
2000
0010
3200
0000
0320
0000
0100
0000
0100
0000
0100
0000
2030
0000
0001
0000
0001
0000
3001
0000
,
0012
0000
0013
0000
2100
0000
3100
0000
2010
0000
0010
0000
3001
1000
0001
1000
0002
0000
0010
0000
0010
0000
0013
0100
2000
0000
0010
0000
0010
0000
3010
0100
,
0001
0000
0000
1000
0000
0000
0001
0000
0000
1000
0000
0000
0001
0100
0001
0100
0001
0100
0020
0000
0000
0000
0000
0000
0130
0000
0000
0001
0000
0000
1000
0000
0000
0100
0000
0000
0010
0000
0000
0100
0000
0000
0010
0000
0000
0100
0000
0000
,
1000
0010
0001
0010
0100
0010
0100
0010
1000
0100
0010
0001
1000
0001
1000
0001
,
0100
0010
1000
0001
0010
0001
0010
0001
1000
0100
0001
0100
1000
0100
1000
0100
,
0010
0001
0100
0010
1000
0010
1000
0010
0100
0001
0010
0100
0010
0100
0010
0001
,
1001
0000
0100
0010
1001
0000
0001
1000
0001
1000
0010
0100
0010
0100
0010
0001
,
1000
0001
0010
0100
0010
0100
0010
1000
0001
1000
0100
0010
0100
0010
0100
0001
,
1000
0001
0100
0010
0100
0010
0100
1000
0001
1000
0010
0100
0010
0001
1000
0001
,
0010
0100
0010
1000
0001
1000
0100
0010
1001
0000
0001
0110
1000
0000
0001
1000
,
0110
0000
0100
0001
0010
0100
1000
0001
0020
0000
0032
0023
0100
0130
2000
3002
,
0100
0000
0203
0000
0320
0000
2030
0000
0001
0000
3002
0000
0103
0010
0200
0000
0001
0000
0302
0000
2003
0000
3200
0000
0010
0000
0320
0000
0001
0000
0032
0000
,
1000
2003
3020
0230
0320
1000
2030
3200
0010
0320
0032
2003
0001
3001
0020
0230
,
1000
0000
2300
0000
3200
0000
0320
0000
0001
0000
0032
0000
1003
0010
2000
0000
0001
0000
3002
0000
0023
0000
0230
0000
1000
0000
2300
0000
0010
0000
3020
0000
,
0100
0230
0302
2003
3200
0010
0010
0310
0000
0000
0000
0000
0000
0000
0000
0000
;
