#TITLE:Doggy god's street;
#SUBTITLE:;
#ARTIST:戌神ころね;
#TITLETRANSLIT:Doggy god's street;
#SUBTITLETRANSLIT:;
#ARTISTTRANSLIT:Inugami Korone;
#GENRE:POP;
#CREDIT:;
#MUSIC:Doggy god's street.ogg;
#BANNER:Doggy god's street.png;
#BACKGROUND:Doggy god's street-bg.png;
#CDTITLE:;
#SAMPLESTART:16.905;
#SAMPLELENGTH:7.500;
#SELECTABLE:YES;
#OFFSET:1.845;
#BPMS:0.000=128.000;
#STOPS:;
#LASTBEATHINT:1.802667;
#BGCHANGES:6.750=Doggy god's street.avi=1.000=0=0=0=StretchNoLoop====,
99999.000=-nosongbg-=1.000=0=0=0=StretchNoLoop====
;
#FGCHANGES:;

//--------------- dance-single - ----------------
#NOTES:
     dance-single:
     :
     Hard:
     13:
     0,0,0,0,0:
0000
0000
0000
0000
,
0000
0000
0000
0000
,
0011
0000
0100
0000
1010
0000
0100
0000
1001
0000
0010
0100
0010
0000
1000
0000
,
0001
0000
0010
0100
0010
0000
0001
0000
1000
0000
0010
0000
1000
0000
0010
0000
,
0101
0000
0010
0000
1100
0000
0010
0000
1001
0000
0100
0010
0100
0000
0001
0000
,
1000
0000
0000
0000
0000
0000
0100
0000
0000
0000
0000
0000
1000
0000
0000
0000
0001
0000
0100
0000
0000
0000
0001
0000
0100
0000
0000
0000
0000
0000
0010
0000
0000
1000
0000
0000
0100
0000
0000
0000
0000
0000
1000
0000
0000
0000
0000
0000
,
0001
0000
0010
0000
1000
0000
0010
0000
0001
0000
0100
1000
0100
0000
0001
0000
,
1000
0000
0010
0000
0001
0000
0010
0000
1000
0000
0100
0001
0100
0000
1000
0000
,
0120
0000
0000
0000
0130
0000
0100
0001
2000
0000
0000
0000
3001
0000
0000
0000
,
1100
0000
0000
0000
0000
0000
0001
0000
1000
0100
0000
1000
0100
0000
0000
0010
0000
0100
0000
0000
1000
0001
0000
0000
,
0101
0000
0000
0000
1010
0000
0000
0000
1001
0000
0001
0010
0000
1100
0000
0000
,
1000
0000
0001
0100
0001
0000
1000
0010
1000
0000
0100
0010
0000
0110
0000
0000
,
0001
0000
0001
0010
0100
0000
0010
0100
1000
0000
0001
0100
0000
0000
0010
0100
,
0001
0000
0001
0000
1000
0100
1000
0100
0000
0000
0010
0000
1002
0000
0103
0000
,
0010
0000
0000
1000
0000
0000
0001
0000
0000
0000
0000
0000
0011
0000
0000
0000
0000
0000
0100
0000
0000
0000
0000
0000
1000
0000
0000
0000
0001
0000
0100
0000
0000
0000
0101
0000
0000
0000
0000
0000
0000
0000
0100
0000
0000
0001
0000
0000
,
1000
0000
0000
0000
0000
0000
1100
0000
0000
0000
0000
0000
0100
0000
0000
1000
0000
0000
0001
0000
0000
0000
0000
0000
1000
0000
0000
0000
0010
0000
0100
0000
0000
0000
0110
0000
0000
0000
0000
0000
0000
0000
0100
0000
0000
0001
0000
0000
,
1000
0000
1000
0100
0000
0100
0010
0000
0010
0001
0000
0001
1000
0000
1000
0020
,
0000
0000
0130
0000
0001
0010
0000
0100
1000
0000
0001
0100
0000
0010
2000
0000
,
3001
0000
0010
0000
0100
0000
1000
0000
0002
0000
0000
0100
0000
0000
1003
0000
,
1000
0000
0010
0000
0100
0000
0001
0000
2000
0000
0000
0010
0000
0000
3001
0000
,
0001
0000
0000
0011
0000
0000
0010
0100
1000
0000
0000
1100
0000
0000
1000
0010
,
0100
0000
0000
0000
0000
0000
0000
0000
0000
0100
0000
0000
0001
0000
0000
0000
1000
0000
0000
0000
0001
0000
0000
0000
1000
0000
0000
0000
0000
0000
0010
0000
0000
0000
0000
0000
0220
0000
0000
0000
0000
0000
0330
0000
0000
0000
0000
0000
,
0100
0000
1000
0000
0100
0000
0001
0000
0200
0000
0000
0010
0000
0000
0301
0000
,
0010
0000
1000
0000
0010
0000
0001
0000
0020
0000
0000
0100
0000
0000
0031
0000
,
0011
1000
1100
0001
0101
0000
0110
0000
,
1001
0000
0110
1000
0002
0000
0203
0000
,
0320
0000
1030
0001
0010
0100
2100
0000
,
3001
0100
0000
0010
0100
0000
0001
0000
0020
0000
0000
0000
0130
0000
0000
0000
,
1100
0101
2002
3003
,
0001
0100
1000
0001
0020
0000
2030
0000
,
3001
0010
0100
1000
0001
0100
0102
0000
,
1003
0100
0000
0010
0100
0000
1000
0000
0002
0000
0000
0000
0103
0000
0000
0000
,
0101
1100
0220
0330
,
0001
0100
0001
0100
0001
0000
1000
0000
1001
0000
0000
0000
0101
0000
1010
0000
,
0101
0000
1100
0011
1100
0000
1000
0100
,
0001
0100
1000
0010
0110
0000
1010
0101
,
1010
0000
0011
1100
0011
0000
0001
0010
,
1000
0000
0010
0001
0100
0000
0010
0000
1000
0000
0000
0000
0110
0000
1001
0000
,
0110
0000
1001
0110
1001
0000
0001
0010
,
0100
0000
1000
0000
0001
0000
0100
0000
0010
0000
1010
0000
1001
0000
0001
0010
,
0100
1001
0010
1001
,
0001
0100
0001
0100
0010
1000
0001
0010
,
1100
0000
1000
0000
0001
0000
0100
0000
0010
0000
0100
0001
1000
0000
0100
0000
,
0010
0000
0100
1000
0001
0000
0100
0000
1000
0000
0100
0000
0001
0000
0000
0000
,
1000
0000
0100
0010
0100
0000
1000
0010
0100
0000
0010
1000
0000
1000
0100
0010
,
0001
1000
0001
1000
0110
0000
1001
0000
,
1001
0000
1000
0000
0001
0100
0000
0100
0001
0000
1000
0000
1000
0100
0000
0100
,
1000
0000
0010
0100
0000
1000
0100
0000
0001
0000
0010
0200
0000
0000
0000
0000
,
1300
0000
0001
0000
0100
0020
0000
0000
1030
0000
0001
0000
0010
0200
0000
0000
,
1300
0000
0001
0000
0100
0000
0010
0000
1000
0000
0001
0010
0000
0100
1000
0000
,
0001
0100
0000
0010
1000
0000
0001
0020
0000
0000
0000
0000
0130
0000
0000
0000
,
1010
0000
0100
0000
0101
0000
0010
0000
1100
0000
1000
0000
0001
0100
0000
0000
,
0010
0000
0100
0000
0010
0000
0100
0001
0000
0000
0010
0000
1001
0000
0000
0000
,
0101
0000
0010
0000
1100
0000
0010
0000
1001
0000
0001
0000
1000
0010
0000
0000
,
0100
0000
0010
0000
0100
0000
0010
1000
0000
0000
0001
0000
0110
0000
0000
0000
,
0011
0000
0100
0000
1010
0000
0100
0000
1001
0000
1000
0000
0010
0100
0000
0000
,
0001
0000
1000
0000
0001
0000
1000
0010
0000
0000
0100
0000
1001
0000
0000
0000
,
0001
0010
1100
0000
1000
0010
0101
0000
,
0100
0001
0010
0001
1000
0000
1100
0101
,
1100
0000
0011
1010
0011
0000
0001
0100
,
1000
0100
0001
0010
0110
0000
1010
1100
,
1010
0000
0101
0011
0101
0000
0100
0001
,
0010
0000
0100
0010
0100
0000
1000
0000
0001
0000
0000
0000
1010
0000
0101
0000
,
1001
0000
0011
1100
1001
0000
1000
1000
,
0001
0000
0001
0000
0100
0000
0010
0000
0100
0000
0110
0000
1001
0000
0001
1000
,
0010
0000
0110
1000
1100
0000
0011
0000
,
1000
0010
0001
1000
0100
0001
0010
0100
,
1100
0000
0000
0000
;

//--------------- dance-single - ----------------
#NOTES:
     dance-single:
     :
     Challenge:
     16:
     0.9125,0.997704,0.815092,0.916978,0.928734,815,711,104,117,0,0,0.9125,0.997704,0.815092,0.916978,0.928734,815,711,104,117,0,0:
0000
0000
0000
0000
,
0000
0000
0000
0000
,
0120
0000
0000
1030
0000
0000
0210
0000
0000
0301
0000
0000
1002
0000
0000
0013
0000
0200
1000
0000
0000
2300
0000
0000
,
3001
0000
0000
0100
0010
0100
0001
0000
0000
1000
0000
0100
0020
0000
0000
0130
0000
0000
2001
0000
0000
0010
0000
3010
,
0200
0000
0000
0301
0000
0000
1002
0000
0000
1003
0000
0000
0120
0000
0000
1030
0000
0002
0100
0000
0000
0103
0000
0000
,
0010
0000
0000
1010
0000
0000
0101
0000
0001
0010
0000
0100
0010
0000
1000
0010
0100
1000
0020
0000
0000
0130
0000
0100
,
0002
0000
0000
0013
0000
0000
2100
0000
0000
3010
0000
0000
0102
0000
0000
0013
0000
0200
1000
0000
0000
2300
0000
0000
,
3001
0000
0000
0100
0010
0100
0002
0000
0000
1003
0000
0000
1001
0000
0000
0001
0010
0100
2000
0000
0000
3001
0000
0000
,
0120
0000
0000
0000
0000
0000
0130
0000
0000
0100
0000
0001
2000
0000
0000
3100
0000
1000
0002
0000
0000
0013
0000
0000
,
1100
0000
0000
0000
0000
0000
1000
0000
0000
0100
0000
0000
0010
0000
0000
0000
0010
0000
0100
0000
0000
0000
0100
0000
2000
0000
0000
0000
0000
0000
3001
0000
0000
0000
0100
0000
0000
0000
0000
0000
0010
0000
0100
0000
0000
0000
0001
0000
,
2000
0000
0000
3100
0000
0000
0120
0000
0000
0031
0000
1000
0002
0000
0000
0103
0000
0010
0000
0000
1000
0001
0000
0000
,
0010
0000
0100
1000
0000
1000
0001
0000
0001
0100
0000
0100
0010
0000
0000
1000
0000
0001
0000
0000
0010
0100
0000
0000
,
1000
0100
0010
0100
1000
0000
0001
0100
0010
0100
1000
0100
0002
0000
0013
0100
,
1000
1000
0001
0001
0100
0010
0100
0020
0000
0000
0001
0000
1000
0000
0130
0010
,
0100
0000
0000
0001
0000
0000
0010
0000
0000
0000
0000
0000
1100
0000
0000
0000
0000
0000
1000
0000
0000
0001
0000
0000
0100
0000
0000
0000
0100
0000
0010
0000
0000
0000
1010
0000
0000
0000
0000
0000
0000
0000
0100
0000
0000
0001
0000
0000
,
1000
0000
0000
0010
0000
0000
1000
0000
0000
0010
0000
0000
0100
0000
0000
1000
0000
0000
0100
0000
0000
1000
0000
0000
0001
0000
0000
0000
0010
0000
0100
0000
0000
0000
0101
0000
0000
0000
0000
0000
0000
0000
0001
0000
0000
0010
0000
0000
,
0100
0000
0000
0000
0000
0000
1000
0000
0000
0000
0100
0000
0000
0000
0000
0100
0000
0000
0010
0000
0000
0000
0000
0000
0010
0000
0000
0001
0000
0000
0000
0000
0000
0001
0000
0000
0100
0000
0000
0000
0100
0000
0001
0000
0000
2000
0000
0000
,
0000
0000
3200
0000
0301
0200
0000
1300
0020
0000
0031
0020
0000
1030
0002
0000
,
0013
0000
0000
0000
0100
0000
1000
0000
0000
0000
0000
0000
0001
0000
0000
0000
0100
0000
0010
0000
0000
0000
0000
0000
0200
0000
0000
0000
0000
0000
0000
0000
0000
1000
0000
0000
0000
0000
0000
0000
0000
0000
0301
0000
0000
0000
0010
0000
,
2000
0000
0000
0000
0000
0000
3010
0000
0000
0000
0001
0000
0200
0000
0000
0000
0000
0000
0320
0000
0000
0000
0000
0000
2030
0000
0000
0000
0000
0000
0000
0000
0000
3200
0000
0000
0000
0000
0000
0000
0000
0000
0310
0000
0000
0000
0010
0000
,
0002
0000
0000
0203
0000
0000
1300
0100
0002
0000
0000
0023
0000
0000
1030
0010
,
0002
0000
0000
0000
0000
0000
0000
0000
0000
1003
0000
0000
0010
0000
0000
0000
0100
0000
0000
0000
0001
0000
0000
0000
1001
0000
0000
0000
0000
0000
0010
0000
0000
0100
0000
0000
0020
0000
0000
0000
0000
0000
1030
0000
0000
0000
1000
0000
,
0200
0000
0000
0000
0000
0000
0301
0000
0000
0000
0001
0000
0200
0000
0000
0000
0000
0000
2300
0000
0000
0000
0000
0000
3020
0000
0000
0000
0000
0000
0000
0000
0000
0001
0000
0000
0000
0000
0000
0000
0130
0000
0001
0000
0000
0000
0000
0000
,
0011
0000
0000
0000
0010
0000
0100
0000
0000
0000
1000
0000
0002
0000
0000
0000
0000
0000
0100
0000
0000
0000
0000
0000
0023
0000
0000
0000
0000
0000
0000
0000
0000
0100
0000
0000
0000
0000
0000
0000
0130
0000
1000
0000
0000
0000
0000
0000
,
0011
0000
0000
1100
0000
0100
0020
0000
0000
0031
0000
0000
0101
0000
0000
1010
0000
0010
0100
0000
0000
0010
0000
0000
,
1001
0000
0001
0010
0000
0010
0100
0000
0100
1000
0000
1000
0010
0100
0010
0100
0001
0100
0001
0010
0001
0010
0100
1000
,
0001
0100
0001
0100
0010
0000
0000
0000
0100
0000
0000
0000
0010
0000
1000
0000
0001
0000
0000
0000
0100
0000
0000
0000
0120
0000
0000
0000
1000
0000
0000
0000
,
0130
0000
0001
0010
0000
0100
2000
0000
0000
3002
0000
0000
0023
0000
0000
1000
0000
0000
0001
0000
0000
0130
0000
0000
,
1200
0000
0000
0000
0310
0000
0000
0000
0201
0000
0000
0000
0310
0000
0000
0000
0100
0010
0100
0010
0100
0010
0100
0010
0200
0000
0000
0000
0010
0000
0000
0000
,
0301
0000
0010
2000
0000
0000
3001
0000
0000
0100
0000
0000
2100
0000
0000
3001
0000
0000
0120
0000
0000
0000
0000
0000
,
0130
0000
0000
0000
0000
0000
0100
0000
0000
0001
0000
0000
1000
0000
0000
0000
0000
0000
0100
0000
0000
0000
0000
0000
0110
0000
0000
0000
0010
0000
0001
0000
0000
0000
0000
0000
0201
0000
0000
0000
0000
0000
1000
0000
0000
0000
0000
0000
,
0310
0000
0000
0000
0010
0000
1000
0000
0000
0000
1000
0000
0200
0000
0000
0000
0000
0000
0320
0000
0000
0000
0000
0000
0130
0000
0000
1000
0000
0000
0001
0000
0000
0000
0000
0000
0110
0000
0000
0000
0000
0000
1000
0000
0000
0000
0000
0000
,
0201
0000
0000
0000
0310
0000
0000
0000
1200
0000
0000
0000
0310
0000
0000
0000
0100
0010
0100
0010
0100
0010
0100
0010
0200
0000
0000
0000
0010
0000
0000
0000
,
1300
0000
0010
0100
0000
0100
0001
0000
0000
1000
0000
0000
1001
0000
0000
1000
0000
0001
0100
0000
0100
0001
0000
0001
,
0020
0000
0000
0130
0000
1000
0010
0000
0010
1000
0000
1000
0200
0000
0000
0310
0000
0000
1001
0000
0000
0100
0000
0000
,
1001
0000
0000
0000
0001
0000
0100
0000
0000
0000
0010
0000
1000
0000
0000
0000
0000
0000
0100
0000
0000
0000
0000
0000
0110
0000
0000
0000
0000
0000
0000
0000
0000
0000
0000
0000
0021
0000
0000
0030
0000
0000
1200
0000
0000
0300
0000
0000
,
0021
0030
0100
0000
1020
0030
0201
0300
1020
0030
0100
0000
0110
0000
1000
0000
,
1001
0000
0001
0010
0000
0010
0100
0000
0000
1000
0000
0000
0102
0000
0000
0103
0000
0010
1000
0000
1000
0001
0000
0000
,
2100
0000
0000
3100
0000
0010
0001
0000
0001
1000
0000
0000
0102
0000
0000
0103
0000
0010
1000
0000
1000
0001
0000
0000
,
0011
0000
0000
0000
0100
0000
1000
0000
0000
0000
1000
0000
0010
0000
0000
0000
0000
0000
0100
0000
0000
0000
0000
0000
0001
0000
0000
0000
0000
0000
0101
0000
0000
0000
0000
0000
1100
0000
0000
0000
0000
0000
1000
0000
0000
0010
0000
0000
,
0100
0000
0000
0010
0000
0000
0110
0000
0000
0001
0000
0100
0001
0000
0000
1000
0000
0100
1000
0000
0000
0010
0000
0100
,
0001
0000
0001
1000
0000
1000
0100
0000
0100
0010
0000
0010
0001
0000
0000
1000
0000
0000
1010
0000
0000
0100
0000
0000
,
0201
0000
0000
0310
0000
0000
1200
0000
0000
0310
0000
0000
0101
0000
0000
0001
0000
2000
0010
0000
0000
3020
0000
0000
,
0130
0000
0000
0000
0000
0000
0001
0000
0000
0000
1000
0000
0100
0000
0000
0000
0000
0000
0010
0000
0000
0000
0000
0000
0021
0000
0000
0000
0000
0000
0130
0000
0000
0000
0000
0000
2100
0000
0000
0000
0000
0000
3001
0000
0000
0010
0000
0000
,
0001
1000
0100
0010
0100
1000
0001
0100
0010
0000
0100
0010
0000
1000
0100
0010
,
0001
0000
0001
0010
0100
0000
0010
0000
1001
0000
0100
0000
0220
0000
0330
0000
,
0101
0000
1000
0000
0001
0100
0000
0100
0001
0000
1000
0100
0010
0100
0000
0100
,
1000
0000
0010
0100
0000
1000
0100
0001
0010
0000
0010
0200
0000
0000
1300
0000
,
1010
0000
0010
0100
0001
0020
0000
0000
0130
0000
0100
1000
0010
0200
0000
0000
,
0310
0000
0000
0000
0000
0000
0100
0000
0000
0000
0001
0000
1000
0000
0000
0000
0000
0000
0100
0000
0000
0000
0000
0000
0011
0000
0000
0000
0000
0000
0001
0000
0000
0200
0000
0000
0000
0000
0000
1300
0000
0000
0200
0000
0000
0000
0000
0000
,
0301
0020
0000
1030
0020
0000
0031
2000
0000
0000
0000
0000
3010
0000
0100
0000
,
2001
0000
0000
0000
0000
0000
3010
0000
0000
0000
0100
0000
0001
0000
0000
0000
0010
0000
0100
0000
0000
0000
0000
0000
0011
0000
0000
0000
0100
0000
1000
0000
0000
0000
1000
0000
0010
0000
0000
0100
0000
0000
0000
0000
0000
0100
0000
0000
,
0002
0000
0000
0023
0000
0130
1000
0000
0000
1000
0000
0010
0000
0000
1000
0001
0000
0000
0021
0000
0000
0130
0000
0000
,
1100
0000
1000
0010
0000
0000
0100
0000
0100
0001
0000
0000
0101
0000
0000
1010
0000
0000
0001
0000
0020
0000
0000
0130
,
2000
0000
3010
0000
0110
0000
0100
0001
0000
0001
0010
0000
0210
0000
1300
0000
,
1001
0000
0000
0000
0000
0000
0001
0000
0000
0000
0100
0000
1000
0000
0000
0000
0000
0000
0100
0000
0000
0000
0000
0000
0101
0000
0000
0000
0000
0000
0001
0000
0000
0000
0000
0000
0010
0000
0000
1000
0000
0000
0000
0000
0000
0000
0010
0000
,
0001
0000
0000
0000
0000
0000
1000
0000
0000
0000
0000
0000
0110
0000
0000
0000
0000
0000
0001
0000
0000
2000
0000
0000
0000
0000
0000
0000
3010
0000
0100
0000
0000
0000
0100
0000
0001
0000
0000
0000
0001
0000
0010
0000
0000
0000
0010
0000
,
0100
0000
0000
1100
0000
1000
0010
0000
0000
0110
0000
0100
0001
0000
0001
1000
0000
0000
1001
0000
0000
0010
0000
0000
,
0110
0000
0100
0001
0000
1000
0010
0000
0000
0101
0000
0000
0021
0000
0000
0130
0000
1000
0100
0000
0001
0100
0000
1000
,
0200
0000
0000
0310
0000
0001
0100
0000
1000
0100
0000
0001
0200
0000
0000
0310
0000
0000
0110
0000
0000
0100
0000
0000
,
1001
0000
0000
0000
0001
0000
0010
0000
0000
0000
0010
0000
0100
0000
0000
0000
0000
0000
1000
0000
0000
0000
0000
0000
0220
0000
0000
0000
0330
0000
0000
0000
0000
0000
0000
0000
0102
0000
0000
0003
0000
0000
2010
0000
0000
3000
0000
0000
,
0102
0003
1000
0000
0012
0003
2100
3000
0012
0003
1000
0000
0110
0000
0001
0000
,
0110
0000
0100
0010
0000
1000
0001
0000
0000
0010
0000
0000
1002
0000
0000
1003
0000
1000
0010
0000
0010
0100
0000
0000
,
2001
0000
0000
3001
0000
0001
0010
0000
0010
0100
0000
0000
1001
0000
0000
0010
0000
0000
0110
0000
0000
0100
0000
0010
,
0100
0000
0100
0010
0000
0000
0110
0000
0000
0100
0000
0000
0110
0000
0000
1000
0000
0000
1002
0000
0000
0013
0100
1000
,
0020
0000
0000
0130
0000
0001
0020
0000
0000
0130
0000
0000
1100
0000
1000
0001
0000
0001
0100
0000
0100
0010
0000
0000
,
1010
0000
0100
0001
0000
0000
0011
0000
0100
1000
0000
0000
0110
0000
1000
0001
0000
1000
0100
0010
0001
1000
0100
0010
,
0001
0000
0000
0000
;
