#TITLE:ディスコミュ星人;
#SUBTITLE:;
#ARTIST:兎田ぺこら;
#TITLETRANSLIT:Discommunication alien;
#SUBTITLETRANSLIT:;
#ARTISTTRANSLIT:Usada Pekora;
#GENRE:POP;
#CREDIT:;
#BANNER:Discommunication alien.png;
#BACKGROUND:Discommunication alien-bg.png;
#LYRICSPATH:;
#CDTITLE:;
#MUSIC:Discommunication alien.ogg;
#OFFSET:0.465000;
#SAMPLESTART:57.417000;
#SAMPLELENGTH:11.294000;
#SELECTABLE:YES;
#BPMS:0.000000=170.000000
;
#STOPS:288.000000=0.176000,
288.500000=0.176000,
289.000000=0.176000,
289.500000=0.176000,
290.000000=0.176000,
290.500000=0.176000,
291.000000=0.176000,
291.500000=0.176000
;
#BGCHANGES:1.500=Discommunication alien.avi=1.000=0=0=0=====,
99999=-nosongbg-=1.000=0=0=0 // don't automatically add -songbackground-
;
#KEYSOUNDS:;
#ATTACKS:;

//---------------dance-single - ----------------
#NOTES:
     dance-single:
     :
     Hard:
     12:
     0.702312,0.859600,0.476569,0.150495,0.075248,588.000000,531.000000,57.000000,18.000000,0.000000,0.000000,0.702312,0.859600,0.476569,0.150495,0.075248,588.000000,531.000000,57.000000,18.000000,0.000000,0.000000:
0000
0000
0000
0000
,
1001
0000
0001
0010
0100
1000
0000
1001
,
0000
0000
1000
0100
0010
0100
0010
0001
,
1000
0000
1000
0010
0100
0001
0000
0110
,
0000
0000
0010
1000
0001
1000
0001
0010
,
0100
0000
1000
0100
0010
0001
0000
0011
,
0000
0000
1000
0010
0100
0010
1000
0001
,
1100
0000
0101
0000
1100
1000
0100
0010
,
0110
1001
0110
1001
,
1001
0000
0001
0100
0001
0010
0000
0100
,
0000
1000
0100
1000
0010
0100
0001
1000
,
0100
0000
0010
0001
0100
0001
0000
0010
,
0000
0100
1000
0001
0100
0001
1000
0010
,
0100
0000
0001
0100
1000
0100
0000
0010
,
0000
1000
0100
0010
0100
1000
0001
0100
,
0001
1001
0000
0011
0000
0110
0000
0100
,
1000
0000
0000
0000
,
0001
0010
0100
1000
0001
0100
0010
0110
,
0000
1010
0000
0101
0001
0010
0100
1000
,
0001
0100
0010
1000
0010
0001
0010
1000
,
0001
0001
0010
0010
0110
0000
1001
0000
,
0001
0010
0001
0010
0100
1000
0100
1000
,
0000
0001
0100
1000
0100
0010
1000
0100
,
0010
0001
0001
0010
0100
1000
0100
1000
,
0001
0100
0001
0000
0101
0000
1001
0000
,
1000
0100
0100
0001
1000
0010
0010
0001
,
0100
0100
1000
1000
0100
0001
0010
0000
,
0001
0100
0100
1000
0001
0010
0010
1000
,
0100
0100
0001
0001
0010
0000
1001
0000
,
1000
0100
0010
0100
1000
0100
0010
0100
,
1100
0000
1010
0000
0011
0001
0010
0100
,
1000
0001
0100
0010
0100
0001
0100
0010
,
0001
0010
0100
0010
1001
0000
0002
0023
,
0230
0000
0000
0000
0000
0000
1300
0000
0000
0000
0000
0001
0000
0000
1000
0100
,
0010
0000
0000
0000
0001
0010
0100
0000
1000
0001
0000
0001
0000
0000
0010
0000
,
0100
0000
1000
0000
0000
0100
1000
0001
0000
0000
0000
0000
0100
0001
0000
0000
,
1000
0010
0000
0000
0010
0000
1000
0000
0200
0000
0000
0000
0320
0000
0032
0000
,
2003
0000
0000
0000
3100
0100
0000
0000
0010
0010
0000
0000
0000
0000
0001
0001
,
0000
0000
0100
0000
0000
0000
0000
0010
0000
0000
1000
1000
0000
0000
0100
0000
,
0100
0000
0000
0000
0010
0000
0000
0000
0000
0000
0001
0020
0000
0000
0000
0000
,
0100
0100
0100
0100
0130
0000
1001
0000
,
1100
0000
0101
0000
1100
0000
0001
0010
,
0000
0100
1000
0010
0100
0010
1000
0010
,
1010
0000
0011
0000
1010
0000
0001
0100
,
0001
1000
0001
0010
0100
0000
1000
0100
,
1000
0100
0010
0001
0010
0100
1000
0000
,
0001
0100
0010
1000
0010
0100
0001
0000
,
0001
0100
0101
0000
1000
0100
1100
0000
,
0001
0000
0100
0000
1000
0000
0100
0000
0001
0000
0100
0010
0100
0010
0100
0010
,
0100
0000
0110
0000
0110
0000
1000
0001
,
0000
0001
1000
0001
0100
0000
0110
0000
,
0001
0100
1000
0001
1000
0100
0001
1000
,
0001
0010
1000
0001
1000
0010
0001
0000
,
2000
3002
0203
0320
,
2030
0000
3200
0000
2300
0000
3002
0003
,
1000
0100
1000
0100
0001
0100
0001
0100
,
1000
0010
0001
0010
2000
0000
0001
3001
,
0000
0001
0100
1000
0001
0010
1000
0001
,
1000
0100
0001
1000
0010
0001
1000
0000
,
0000
1000
0100
0001
1000
0010
0001
1000
,
0001
0100
1000
0001
0010
1000
0001
0000
,
0000
1000
0100
1000
0100
1000
0100
1000
,
0000
0001
0100
0001
0100
0001
0100
0001
,
0100
0000
0100
0010
1010
0000
0100
0010
,
0011
0000
1001
0000
0110
0000
0100
0001
,
0000
1000
0100
0010
1000
0010
0100
1000
,
0010
0100
1000
0100
0010
1000
0100
0010
,
0000
0001
0100
0010
0001
0010
0100
0001
,
0010
0100
0001
0100
0010
0001
0100
0010
,
1000
0100
0010
0001
1000
0100
0010
0001
,
1000
0010
0100
0001
1000
0010
0100
0001
,
1000
1000
0001
0001
1000
0010
0100
0001
,
1100
0110
0011
1001
0101
0110
1010
1001
,
0001
0010
0100
1000
0001
0010
0100
1000
,
0001
0100
1000
0000
0110
0000
1001
0000
,
1001
0000
1000
0100
1000
0010
0000
0100
,
0000
0001
0100
0001
0010
0100
1000
0001
,
0100
0000
0010
1000
0100
1000
0000
0010
,
0000
0100
0001
1000
0100
1000
0001
0010
,
0100
0000
1000
0100
0001
0100
0000
0010
,
0000
0001
0100
0010
0100
0001
1000
0100
,
1000
1001
0000
0011
0000
1100
0000
0100
,
0020
1030
0000
0000
;

//---------------dance-single - ----------------
#NOTES:
     dance-single:
     :
     Challenge:
     15:
     0.862362,0.893984,0.451486,0.091969,0.405501,722.000000,668.000000,54.000000,11.000000,0.000000,0.000000,0.862362,0.893984,0.451486,0.091969,0.405501,722.000000,668.000000,54.000000,11.000000,0.000000,0.000000:
// measure 0
0000
0000
0000
0000
,  // measure 1
1001
0000
0001
0010
0001
0100
0000
1001
,  // measure 2
0000
0000
1000
0010
1000
0100
0010
0001
,  // measure 3
0110
0000
1000
0010
1000
0100
0000
0110
,  // measure 4
0000
0000
0010
0001
0100
0001
0010
0100
,  // measure 5
1100
0000
0001
0010
0100
1000
0000
0011
,  // measure 6
0000
0000
1000
0010
0100
0001
0100
0010
,  // measure 7
1010
0000
0000
0000
0011
0000
0000
0000
1010
0000
0010
1000
0100
0000
0010
0000
,  // measure 8
0110
1001
0110
1001
,  // measure 9
1001
0000
0000
0001
0010
0000
0100
0000
0001
0000
0100
0000
1000
0000
0001
0000
,  // measure 10
0000
0000
1000
0010
0100
0000
0001
0000
0100
0000
1000
0000
0100
0000
0001
0000
,  // measure 11
1000
0000
0000
0100
0010
0000
0001
0000
1000
0000
0001
0000
0100
0000
0010
0000
,  // measure 12
0000
0000
0100
0001
0010
0000
0001
0000
0100
0000
0010
0000
1000
0100
1000
0100
,  // measure 13
0010
0000
0000
0001
1000
0000
0100
0000
0001
0000
0100
0000
1000
0000
0001
0000
,  // measure 14
0000
0000
1000
0100
0010
0000
0001
0000
1000
0000
0010
0000
0001
0000
0010
0000
,  // measure 15
1000
0001
0000
0011
0000
0110
0000
1100
,  // measure 16
1000
0000
0001
0010
0001
0000
0010
0000
0100
0000
1000
0100
1000
0000
0100
0000
,  // measure 17
0010
0000
0001
1000
0001
0000
0100
0000
0010
0000
0100
0000
0001
0000
0011
0000
,  // measure 18
0000
0011
0000
1100
1000
0100
0010
0001
,  // measure 19
1000
0000
0010
0100
0010
0000
1000
0000
0100
0000
0010
0000
0001
0000
0100
0000
,  // measure 20
0001
0001
0100
0100
0110
0000
1001
0000
,  // measure 21
1001
0000
0100
1000
0010
0000
0100
0000
0001
0000
0010
0000
1000
0000
0001
0000
,  // measure 22
0000
0001
0100
1000
0001
0100
0010
0100
,  // measure 23
0010
0000
1000
0100
1000
0000
0001
0100
0001
0000
0010
0000
0100
0000
1000
0000
,  // measure 24
0001
0000
1000
0000
1000
0000
0000
0000
0001
0000
0100
0010
1001
0000
0000
0000
,  // measure 25
0001
0000
0100
0010
0100
0000
0001
0000
1000
0000
0100
0010
0100
0000
1000
0000
,  // measure 26
0001
0000
0100
0010
0100
0000
0001
0000
1000
0000
0001
0000
1000
0000
0000
0000
,  // measure 27
0010
0000
1000
0001
1000
0000
0100
0000
0010
0000
0001
1000
0001
0000
1000
0100
,  // measure 28
1000
0000
0001
0100
0001
0000
1000
0100
1000
0000
0000
0000
1001
0000
0000
0000
,  // measure 29
0001
0100
0010
0100
1000
0100
0010
0100
,  // measure 30
0101
0000
1010
0000
0101
0001
0010
0100
,  // measure 31
1000
0000
0100
0001
0100
0000
1000
0000
0010
0000
0100
0000
0001
1000
0001
0000
,  // measure 32
0101
0010
1100
0010
1001
0000
0001
0010
,  // measure 33
0200
0000
0000
0000
0000
0000
1300
0001
1000
0000
0000
0000
0001
0000
0100
0010
,  // measure 34
0100
0010
0000
1000
0001
0000
0001
0010
,  // measure 35
0100
0000
0000
0000
1000
0000
0100
0010
0001
0000
0000
0000
0001
0000
0010
0100
,  // measure 36
1000
0000
0001
0000
0000
0000
0001
0000
1000
0000
0000
0000
0001
0100
0010
1000
,  // measure 37
0001
0010
1000
0010
0001
0010
1000
0010
,  // measure 38
0001
0100
1000
0100
0001
0100
1000
0100
,  // measure 39
0001
0000
0100
0001
0100
0000
0100
1000
0100
0000
0100
0001
0100
0000
0010
0000
,  // measure 40
1001
0000
1001
0000
1001
0000
1001
0000
1001
0000
0001
0010
0100
0000
0000
0000
,  // measure 41
1000
0000
0001
0100
0001
0000
1000
0100
1000
0000
0001
0100
0001
0000
0010
0000
,  // measure 42
0000
0000
0100
0000
1000
0000
0010
0000
0100
0000
0010
1000
0100
0000
0010
0000
,  // measure 43
0100
0000
0001
0100
0001
0000
0100
0000
1000
0000
0100
0001
0100
0000
1000
0000
,  // measure 44
0100
0000
1000
0100
1000
0000
0001
0100
0001
0000
0010
0000
0001
0010
0001
0010
,  // measure 45
1000
0001
0100
1000
0001
0100
1000
0001
,  // measure 46
0010
1000
0001
0100
0010
0001
0010
1000
,  // measure 47
0100
0100
1001
0000
0010
0010
1001
0000
,  // measure 48
0001
0000
0001
0000
1000
0000
1000
0000
0010
0000
0100
0001
0100
0001
0100
0001
,  // measure 49
0100
0000
0010
1000
0100
0000
0010
0001
0100
0000
0010
1000
0100
0000
0001
0000
,  // measure 50
0000
0001
0100
1000
0100
0010
0110
0000
,  // measure 51
0001
0000
1000
0010
1000
0000
0001
0000
1000
0000
0001
0010
0001
0000
1000
0000
,  // measure 52
0001
0000
1000
0100
1000
0000
0010
0000
0100
0000
0010
0000
0100
0010
0100
0010
,  // measure 53
2000
3002
0023
0230
,  // measure 54
0302
0000
0203
0000
2300
0000
3002
0003
,  // measure 55
1000
0000
0001
0100
0010
0000
0100
0000
0001
0000
1000
0100
0010
0000
0001
0000
,  // measure 56
0010
0000
1000
0010
0001
0000
0001
0100
1000
0000
1000
0100
0001
1000
0001
0010
,  // measure 57
1000
0001
0100
1000
0001
0100
0001
0100
,  // measure 58
1000
0100
0001
1000
0100
1000
0100
0010
,  // measure 59
0001
0010
1000
0010
0001
1000
0001
1000
,  // measure 60
0010
0000
0001
0000
0010
0000
0010
0000
1000
0000
1000
0000
0001
0010
0100
1000
,  // measure 61
0100
0010
0001
0100
0001
0010
0001
0100
,  // measure 62
0010
1000
0100
1000
0010
1000
0100
1000
,  // measure 63
0011
0000
0001
0100
1010
0000
1000
0001
,  // measure 64
0110
0000
1001
0000
0110
1000
0010
0100
,  // measure 65
0001
0000
1000
0100
0010
0000
1000
0010
0100
0000
1000
0010
0100
0000
1000
0100
,  // measure 66
0010
0000
1000
0100
0010
0000
1000
0010
0100
0000
1000
0000
0001
0000
0100
0000
,  // measure 67
0001
0000
0010
0100
0001
0000
0100
0010
0001
0000
0100
0010
0001
0000
0010
0100
,  // measure 68
0001
0000
0010
0100
0001
0000
0100
0010
0001
0000
0010
0000
0100
1000
0010
0100
,  // measure 69
1000
0000
0100
0000
0010
0000
1000
0000
0100
0000
0010
0000
0001
0010
0100
0000
,  // measure 70
0010
0000
0001
0000
0100
0000
1000
0000
0100
0000
0010
0000
1000
0100
0010
0000
,  // measure 71
0001
0001
1000
1000
0001
0010
0100
1000
,  // measure 72
1100
0110
0011
1001
0101
0110
1010
1001
,  // measure 73
0001
0010
0100
1000
0001
0010
0100
1000
,  // measure 74
0001
0000
0100
0010
0100
0000
0000
0000
0110
0000
0000
0000
1001
0000
0000
0000
,  // measure 75
0001
0000
0000
0100
0010
0000
1000
0000
0001
0000
1000
0100
1000
0000
0010
0000
,  // measure 76
0000
0000
0100
0001
0100
0000
0010
0000
1000
0000
0010
0100
0010
0000
1000
0001
,  // measure 77
1000
0000
0000
0001
0010
0000
0100
0000
1000
0000
0001
0100
0001
0000
0010
0000
,  // measure 78
0000
0000
0100
1000
0100
0000
0010
0000
0001
0000
0010
0000
0100
1000
0100
1000
,  // measure 79
0010
0000
0000
0100
0001
0000
0100
0000
1000
0000
0100
0001
0010
0000
0100
0000
,  // measure 80
0000
0000
0001
0100
1000
0000
0001
0000
0100
0000
0010
0000
0001
0000
0010
0000
,  // measure 81
0200
1000
0000
0001
0000
1000
0000
0010
,  // measure 82
0320
0130
0000
0000
;
