#TITLE:DiViNE;
#SUBTITLE:;
#ARTIST:EXiNA;
#TITLETRANSLIT:DiViNE;
#SUBTITLETRANSLIT:;
#ARTISTTRANSLIT:EXiNA;
#GENRE:ANIME;
#CREDIT:;
#MUSIC:DiViNE.ogg;
#BANNER:DiViNE.png;
#BACKGROUND:DiViNE-bg.png;
#CDTITLE:;
#SAMPLESTART:51.163;
#SAMPLELENGTH:7.980;
#SELECTABLE:YES;
#OFFSET:-0.053;
#BPMS:0.000=203.000;
#STOPS:;
#BGCHANGES:0.000=DiViNE.avi=1.000=0=0=0=StretchNoLoop====,
99999.000=-nosongbg-=1.000=0=0=0=StretchNoLoop====
;
#FGCHANGES:;

//--------------- dance-single - ----------------
#NOTES:
     dance-single:
     :
     Medium:
     12:
     0,0,0,0,0:
0000
0000
0000
0000
,
0000
0000
0000
0000
,
1000
0000
0000
0001
0000
0000
0100
0000
,
0001
0000
1000
0000
0100
0000
0000
0010
,
0000
0001
0000
1000
,
0010
0000
0000
0010
0000
0000
0100
0000
,
0001
1000
0001
0000
,
0000
1000
0100
0010
,
0001
0000
1000
0010
0000
0100
0001
0000
,
1000
0000
0001
0000
0100
0000
0001
0010
,
0000
0100
1000
0000
0001
0000
1000
0000
,
0010
0000
0100
0000
0010
1000
0000
0001
,
0000
1000
0100
0000
0010
0000
0001
0000
,
1000
0010
0100
0001
,
0101
0101
1001
1100
,
1100
1001
0101
0011
,
1010
1100
1010
0011
,
1100
1100
1001
0101
,
0101
1001
0110
1001
,
0110
0000
0001
1000
0000
0010
0100
0010
,
1000
0000
0001
0010
0000
0001
1000
0000
,
0010
0000
1000
0000
0010
0000
0100
0001
,
0000
0100
1000
0000
0100
0000
0001
0000
,
1000
0000
0100
0010
0000
0001
1000
0000
,
0010
0000
1000
0000
0001
0000
1000
0100
,
0000
0001
0100
0000
1000
0000
0001
0000
,
0100
0000
0010
1000
0010
1000
0001
0000
,
0010
0000
0100
0000
1000
0000
0001
0100
,
0001
0100
0010
0000
1000
0001
0010
0000
,
0100
0000
1000
0001
0100
0000
0010
0000
,
1000
0001
0000
0001
1000
0000
0100
0000
,
0010
0000
0001
0100
1000
0001
0010
0100
,
0001
0000
0010
0100
1000
0100
0010
0000
,
0011
0000
1001
0000
1000
0010
0100
0010
,
1000
0000
0010
0100
0001
0100
0010
0000
,
1000
0100
0010
0100
1000
0000
0100
0010
,
0001
0010
0100
0000
1000
0100
0010
0001
,
1000
0100
1000
0010
0100
0001
1000
0001
,
0100
0000
0010
1000
0001
0010
0100
0000
,
1000
0100
0010
0001
1000
0000
0010
0100
,
0001
1000
0010
0000
0100
0001
1000
0010
,
0100
0001
0010
0100
1000
1000
0001
1000
,
0100
0010
0010
0001
1000
0100
0010
0001
,
1000
0100
0010
0000
0000
0000
0000
0000
,
0001
1000
0010
0001
0010
1000
0100
0010
,
0100
0010
0001
1000
1010
0000
0101
0000
,
1010
0011
1100
0011
,
0010
0100
1000
0001
0100
1000
0001
0010
,
1000
0100
0010
0001
0011
0000
0101
0000
,
0011
1010
1100
1010
,
0010
1000
0100
0001
1000
0010
0001
0100
,
1000
0100
0010
1000
1010
0000
0011
0000
,
1010
0101
1100
0101
,
0001
0010
0001
1000
0100
1000
0010
0100
,
0010
0001
0010
1000
0001
0010
1000
0001
,
0100
0001
1000
0001
0100
0010
0100
0000
,
0110
0000
0110
0000
1001
0000
0010
1000
,
0001
0100
0110
0000
1001
0000
1001
0000
,
0110
0000
0010
0100
0001
1000
0100
0010
,
0011
1001
0101
1010
,
1001
1100
0011
0101
,
1100
0000
1010
1000
0001
0100
0110
0000
,
1001
0000
1000
0100
0000
0100
0010
0001
,
1000
0100
0010
0001
1001
0000
0001
0100
,
0000
0100
0010
1000
0001
0100
0010
1000
,
1010
1100
0101
0011
,
0101
1100
0110
1001
,
0110
1100
0101
0011
,
1010
1010
1001
0011
,
0011
1001
1010
1100
,
0101
0011
0101
1100
,
0011
0011
1001
1010
,
1010
1001
0110
1001
,
0110
0000
1000
0001
0000
0100
0010
0100
;

//--------------- dance-single - ----------------
#NOTES:
     dance-single:
     :
     Hard:
     16:
     0,0,0,0,0:
0000
0000
0000
0000
,
0000
0000
0000
0000
,
1000
0000
0000
0001
0000
0000
0100
0000
,
0001
0000
1000
0000
0100
0000
0010
0001
,
0000
0001
1000
0000
0000
0000
0010
0100
,
0010
0000
0010
1000
0000
0001
0100
0000
,
0001
1000
0001
0000
,
0000
0000
1000
0100
0010
0001
0010
0100
,
1000
0000
0001
0100
0010
1000
0001
0000
,
1000
0100
0010
0001
1000
0000
0001
0010
,
0100
1000
0001
0000
1000
0010
0100
0001
,
1000
0000
0001
1000
0010
0100
0001
0000
,
0010
0100
1000
0001
0100
0000
0010
1000
,
0001
0010
0100
1000
0001
0100
0010
1000
,
0001
0100
1000
0100
0001
0000
1000
0100
,
0001
0100
1000
0000
0001
1000
0001
1000
,
0100
0100
0001
0100
0010
1000
0100
0100
,
0001
0010
1000
0010
0001
0000
1000
0010
,
0001
0010
1000
0000
1000
0100
1000
0100
,
0010
0001
1000
1001
0000
0001
1000
0001
,
0110
0000
0010
1000
0001
0010
0100
0000
,
1000
0100
0010
0001
1000
0000
0001
0100
,
1000
0100
0001
0000
1000
0010
0001
0010
,
1000
0000
0100
0010
0001
0010
0100
0000
,
0010
0100
1000
0100
0010
0000
0001
0100
,
0010
0100
0001
0000
0100
0010
1000
0010
,
0100
0000
0010
0100
0010
0100
0001
0000
,
0010
0100
0010
0100
1000
0000
0001
0100
,
0001
0100
0010
0000
1000
0100
1000
0100
,
0010
0000
0001
0010
0100
1000
0001
0000
,
1000
0010
0100
0001
1000
0000
0100
0001
,
0100
1000
0001
0010
1000
0001
0100
1000
,
0010
0000
0010
0100
0010
0100
0001
1000
,
0001
0000
0010
0100
0010
0000
0001
0000
1000
0000
0010
0000
1000
0000
0010
0000
,
0100
0000
0001
0000
0101
0000
0010
0100
0010
0000
1010
0000
1000
0001
1000
0000
,
0011
0000
0010
0000
0001
0000
0010
0000
0100
0000
1000
0001
1000
0000
0010
0000
,
0001
0000
0010
0000
1000
0000
0100
0010
0100
0000
1000
0000
0001
0000
0100
0000
,
0010
0000
1000
0000
1100
0000
0010
0100
0010
0000
0011
0000
0001
1000
0001
0000
,
1010
0000
1000
0000
0010
0000
0100
0000
0001
0000
1000
0000
0001
0000
0010
0100
,
0010
0000
1000
0000
0010
0000
0001
0000
1001
0000
0001
0100
0010
0000
1010
0000
,
1000
0100
0010
0000
0011
0000
0010
0000
1001
0000
0001
0100
0001
0000
0100
0000
,
1000
0000
0100
0010
0100
0000
0001
0010
0001
0000
0010
0000
1000
0000
0010
0100
,
0010
0000
0100
1000
0100
0000
1000
0000
0001
0100
0001
0100
0001
1000
0010
0100
,
0010
0100
0010
1000
0001
0000
0000
0000
0000
0000
0000
0000
0000
0000
0000
0000
,
0001
1100
0010
0001
1000
0001
0100
0010
,
1001
0100
0001
0010
1100
1100
1000
0001
,
0010
0000
0001
0000
1000
0010
1000
0000
0010
0100
0010
0000
0100
0001
0100
0000
,
0110
0110
0010
1000
0001
1000
0100
0010
,
0011
0001
1001
1000
1010
0010
0100
0001
,
1000
0000
0100
0010
0100
0000
1000
0001
1000
0001
0100
0010
0100
0001
1000
0001
,
0010
0100
1000
0010
0001
0010
1000
0100
,
0001
0100
1000
0010
0100
1000
0100
0001
,
1000
0100
0001
0100
1000
0010
0100
0101
,
0001
0100
0001
0100
0001
0000
1001
0000
1000
0100
1000
0100
1000
0000
1010
0000
,
0010
0100
0010
0100
0010
0000
0100
0001
1000
0000
0100
0000
0010
0000
0001
0000
,
0010
0000
0100
0000
1000
0000
0001
0000
0100
0000
0010
0000
1000
0100
1000
0100
,
0010
0001
0010
0100
1000
0010
0110
0100
,
0110
0010
0110
0000
0010
1000
0001
0010
,
1000
0010
0110
0100
0110
0010
0110
0100
,
1000
0000
1000
0010
0001
0000
0001
0010
,
1000
0100
0001
0000
0001
0100
1000
0010
,
0100
0000
0000
0000
0010
0000
0100
0010
0100
0010
0100
0010
1000
0000
0000
0000
,
0001
0000
1000
1100
0000
0100
0010
0001
,
1000
0100
0010
0001
1001
0000
0001
0101
,
0000
0100
0010
1000
0001
0100
0010
1000
,
0001
0000
0100
0000
1000
0100
1000
0100
1000
0100
1000
0100
0001
0000
1000
0000
,
0100
0001
0100
0001
0100
0001
0100
1000
0001
0000
0100
0000
0010
0000
1000
0000
,
0001
0010
0100
1000
0001
0000
0100
0001
0100
0001
1000
0010
1000
0010
0100
0001
,
1000
0100
0001
0100
1000
0000
0001
0100
,
1000
0100
0001
0000
1000
0001
1000
0001
,
0100
0100
1000
0100
0010
0001
0100
0100
,
1000
0010
0001
0010
1000
0000
0001
0010
,
1000
0010
0001
0000
0001
0100
0001
0100
,
0010
1000
0001
1001
0000
0100
0010
1001
;

//--------------- dance-single - ----------------
#NOTES:
     dance-single:
     :
     Challenge:
     18:
     0.914461,0.697811,0,0,0,577,577,0,0,0,0,0.914461,0.697811,0,0,0,577,577,0,0,0,0:
0000
0000
0000
0000
,
0000
0000
0000
0000
,
0001
0000
0000
1000
0000
0000
0100
0000
,
1000
0000
0001
0000
0100
0000
0010
1000
,
0000
1000
0001
0000
0000
0000
0010
0100
,
0010
0000
0010
0001
0000
1000
0100
0000
,
1000
0001
1000
0000
,
0000
0000
0010
1000
0010
0100
0001
0010
,
1100
1000
0001
1000
0100
0010
0101
0001
,
0100
0010
1000
0001
0011
0100
1000
0001
,
1000
0010
0110
0100
0001
1000
0100
1000
,
1010
0100
0001
1000
0100
0010
1001
0100
,
0010
0100
0001
1000
0110
0100
0001
1000
,
0001
0010
1001
1000
0100
0010
0100
1000
,
0001
0100
0001
0000
0010
0100
1000
0100
0010
0000
1100
0000
1000
0100
1000
0000
,
0010
0100
0001
0100
0010
0000
0101
0000
0001
0100
0001
1000
0001
0100
0001
1000
,
0001
0000
1100
0000
1000
0100
1000
0001
1000
0100
1000
0001
1000
0000
0110
0000
,
0001
0010
0001
0000
0001
0010
0100
1000
0100
0010
0100
0000
1000
0010
1000
0000
,
1000
0010
0100
0001
0100
0010
0100
0000
0001
0010
0100
0010
0001
0010
0100
1000
,
0100
0010
0001
0000
1001
0000
1001
0000
0000
0000
0101
0000
1100
0000
0101
0000
,
1100
0000
0110
0010
0001
0011
0011
0000
,
0101
0100
0010
1000
1010
1010
0000
1100
,
0000
0010
0011
0000
0101
0100
0001
1000
,
1100
1100
0000
1010
1000
0001
0101
0000
,
0110
0010
1000
0100
0110
0110
0000
1001
,
0000
0110
0010
1010
0010
0110
0100
0101
,
1001
1001
0000
1100
0010
0001
0101
0000
,
1010
0000
0110
0010
0101
0101
0000
0110
,
0000
1000
1100
0000
0101
0100
0001
1000
,
0011
0011
0000
0101
0000
1010
0001
0100
,
0001
0010
0100
0010
1100
1100
0000
0001
,
0010
0000
0100
0010
0001
0000
0001
0000
0010
0000
0010
0000
0100
0000
0100
0000
,
1100
0000
0101
0000
1100
0000
0101
0100
,
0010
0100
0101
0000
1010
0000
0011
0000
,
1001
0000
0110
0010
0100
0110
0010
1000
,
1010
0000
0110
0010
0110
0100
0110
1001
,
0000
0101
1100
0010
1001
0000
1001
1000
,
0110
0100
0101
1010
0000
0110
0101
0100
,
1010
0000
0110
0000
1001
0000
1100
0101
,
0010
0010
1001
0100
0011
0000
0101
0001
,
0101
0100
1100
1000
1000
0110
0010
0100
,
1010
0100
0101
0010
1010
0010
1100
0100
,
0011
0000
0010
0000
1100
0000
1000
0000
0001
0010
0100
0010
0001
1000
0100
1000
,
0100
0010
0001
0010
0100
0000
0000
0000
0000
0000
0000
0000
0000
0000
0000
0000
,
1100
0000
0101
0000
0010
0000
1000
0000
0100
0010
0001
0010
0100
0000
1000
0000
,
1010
0000
1000
0010
0100
0000
0001
0000
0101
0000
1001
0000
1000
0000
0001
0100
,
0010
0100
0001
0000
1000
0010
0100
0000
0001
0100
0010
0000
1000
0010
0100
0000
,
1010
0000
0011
0000
0001
0000
0010
0100
1000
0100
0010
0001
1000
0000
0100
0000
,
0011
0000
0100
0000
1010
0000
0100
0000
1001
0000
1000
0100
0001
0000
0100
0000
,
1000
0000
0001
0100
1000
0000
1000
0100
0010
1000
0100
0010
0001
1000
0100
0010
,
0001
0000
0010
0000
0001
0000
1000
0000
0010
0000
0100
0000
0001
0010
0100
0000
,
0010
0100
1000
0000
0001
0100
0010
0000
1000
0000
0010
0000
0100
0000
0001
0000
,
1000
0000
0100
0000
0010
0100
1000
0000
0001
0010
0100
0000
1000
0010
0100
0000
,
0100
0001
0100
0010
0100
0010
1000
0100
0010
0100
0010
0001
1000
0100
1000
0100
,
0010
0001
1000
0010
0100
0001
1000
0001
1000
0010
0100
0001
1000
0001
1000
0100
,
0010
0001
0010
0100
1000
0001
0100
0010
1000
0010
0100
0001
0100
0010
1000
0010
,
0001
0010
0100
0000
1000
0100
0010
0000
1000
0100
0010
0000
0001
0010
0100
0010
,
0001
0100
0010
0100
0001
0000
1000
0000
0010
0000
0100
0000
1000
0100
0001
1000
,
0100
0010
0001
0000
0010
0001
0100
0010
0100
0001
0010
0100
1000
0000
0100
0000
,
0010
0001
0010
0100
0010
0001
0010
0100
1000
0000
0001
0000
1000
0010
0100
0010
,
1000
0010
0100
0010
1000
0010
0100
0000
0010
1000
0010
0000
0100
0001
0100
0000
,
0001
1000
0001
0000
0010
0000
0100
1000
0100
0010
0100
1000
0001
0010
0100
0010
,
0001
0000
1000
0000
1100
0000
1000
0000
1001
0000
1000
0000
1000
0100
1000
0001
,
1000
0010
1000
0001
1000
0000
0001
0000
0101
0000
1001
0000
0001
0000
0011
0000
,
0001
0000
0101
0000
0001
0100
0001
1000
0001
0010
0001
1000
0001
0100
0001
1000
,
0001
0000
0100
0000
0010
0000
1000
0100
1000
0100
1000
0010
0100
0000
0001
0000
,
1000
0000
0001
0100
0001
0100
0001
0010
0100
0000
0010
0000
0001
0100
0010
0100
,
0001
0010
0100
0000
1000
0100
1000
0100
0010
0001
0010
0001
1000
0100
0010
0001
,
0010
0100
0010
0001
0010
0100
1000
0010
0100
0000
0001
0000
1000
0010
0100
0010
,
1000
0010
0100
0001
0010
0000
0100
0000
1000
0100
0001
0100
1000
0100
0001
0100
,
1000
0000
1000
0000
0001
0100
1000
0100
0001
0100
1000
0100
0001
0000
0001
0000
,
1000
0100
0010
0100
1000
0100
0010
0001
0100
0000
0001
0000
1000
0010
0100
0010
,
1000
0010
0100
0001
0010
0000
1000
0000
0010
0001
0100
1000
0001
0010
1000
0100
,
0010
0001
0011
0011
0000
0110
1100
0101
;
