#TITLE:デビル;
#SUBTITLE:;
#ARTIST:てにをは feat.可不;
#TITLETRANSLIT:Devil;
#SUBTITLETRANSLIT:;
#ARTISTTRANSLIT:Teniwoha feat. KAFU;
#GENRE:POP;
#CREDIT:;
#MUSIC:Devil.ogg;
#BANNER:Devil.png;
#BACKGROUND:Devil-bg.png;
#CDTITLE:;
#SAMPLESTART:54.402;
#SAMPLELENGTH:15.000;
#SELECTABLE:YES;
#OFFSET:-0.027;
#BPMS:0.000=128.000
,212.000=64.000
,214.000=128.000
;
#STOPS:;
#BGCHANGES:1.500=Devil.avi=1.000=0=0=0=StretchNoLoop====,
99999.000=-nosongbg-=1.000=0=0=0=StretchNoLoop====
;
#FGCHANGES:;

//--------------- dance-single - ----------------
#NOTES:
     dance-single:
     :
     Hard:
     14:
     0,0,0,0,0:
0000
0000
0000
0000
,
0000
0000
0000
0000
,
0000
0000
0000
0000
,
0000
0000
0000
0000
,
0101
0000
0000
0101
0000
0000
0001
0000
1000
0000
0000
0001
0000
0000
0010
0100
0000
0000
0220
0000
0000
0330
0000
0000
,
0010
0000
0000
0001
0000
1000
0000
0000
0000
0010
0000
0000
0100
0000
0001
0000
0000
0000
1001
0000
0000
0000
0000
0010
,
1000
0000
0000
0100
0000
0000
0100
0000
0010
0000
0000
0000
1100
0000
0000
0011
0000
0000
1100
0000
0000
0000
0000
0000
,
1001
0000
0000
0001
0000
0100
0000
0000
0000
0010
0000
0000
1000
0000
0100
0000
0000
0000
0110
0000
0000
0000
0000
0010
,
0001
0000
0000
1000
0000
0000
0001
0000
1000
0000
0000
0000
0101
0000
0000
1010
0000
0000
0101
0000
0000
0001
0000
0010
,
0100
0000
0000
0000
0000
0100
1000
0000
0000
0001
0000
0000
0012
0000
0000
0000
0000
1003
0000
0000
1000
0010
0000
0010
,
0100
0000
0000
1001
0000
0000
0110
0000
0000
1001
0000
0000
0002
0000
0000
0000
0000
1003
0000
0000
0000
0000
0000
0000
,
1010
0000
0000
0100
0000
0001
0010
0000
0000
1000
0000
0000
0020
0000
0000
0000
0000
0031
0000
0000
0000
0001
0000
0100
,
2000
0000
0000
0000
0000
3100
0000
0000
0000
0001
0000
0000
1010
0000
0000
0101
0000
0000
1001
0000
0000
0000
0000
0000
,
1010
0100
0001
0010
1100
0010
0001
0100
,
1010
0000
0000
0100
0000
0001
1000
0000
0000
1000
0000
0000
0002
0000
0000
0000
0000
0023
0000
0000
0000
0130
0000
0000
,
1000
0000
0000
0020
0000
0000
0000
0000
0032
0000
0000
0000
0023
0000
0000
0000
0000
2030
0000
0000
0000
3100
0000
0100
,
1000
0000
0000
0001
0000
0000
0110
0000
0000
0110
0000
0000
0120
0000
0000
0000
0000
0000
0130
0000
0100
0001
0000
0001
,
1000
0000
0000
0100
0000
0010
0000
0000
0010
0001
0000
0000
0011
0000
0000
1100
0000
0000
0011
0000
0000
0000
0000
0000
,
0101
0000
0000
0001
0000
1000
0000
0000
1000
0010
0000
0000
0101
0000
0000
1010
0000
0000
0101
0000
0000
0000
0000
0000
,
0001
0000
0000
0010
0000
0000
0200
0000
0000
0000
0000
0000
1300
0000
0000
0010
0000
0000
0100
0000
0000
0001
0000
0001
,
1000
0000
0000
1000
0000
0100
0000
0000
0000
0010
0000
0000
0110
0000
0000
0000
0000
0000
0010
0000
0000
0001
0000
0000
,
1000
0000
0000
1000
0000
0010
0000
0000
0010
0100
0000
0000
1010
0000
0000
0110
0000
0000
0101
0000
0000
0000
0000
0000
,
1001
0000
0000
0001
0000
0010
0000
0000
0010
0100
0000
0000
0011
0000
0000
0110
0000
0000
1100
0000
0000
0000
0000
0000
,
0120
0000
0000
0032
0000
0000
0103
0000
2010
0000
0000
3200
0000
0000
0310
0000
,
0012
0000
0000
2003
0000
0000
3010
0000
0120
0000
0000
0000
0130
0000
0000
0000
,
0110
0000
0000
0000
1001
0000
0000
0000
0110
0000
0000
1001
0000
0000
0110
0000
,
0110
0010
1010
1000
1001
1001
1001
0000
,
1001
0000
0000
0000
0110
0000
0000
0000
1001
0000
0000
1010
0000
0000
0101
0000
,
0011
0011
1001
1001
1010
1010
0120
0000
,
0130
0000
0000
0010
0000
0000
1000
0000
0001
0000
0000
0011
0000
0000
0010
0100
0000
0000
1000
0000
0000
0001
0000
0000
,
1000
0000
0000
0010
0000
0000
0100
0000
0002
0000
0000
2000
0000
0000
0000
3003
0000
0000
1100
0000
0000
0101
0000
0000
,
1100
0000
0000
0000
0000
0000
0101
0000
0000
1100
0000
0102
0000
0000
0000
1000
0000
0000
1003
0000
0000
0200
0000
0000
,
0001
0000
0000
0000
0000
0000
0010
0000
0000
0000
0000
0000
2300
0000
0000
0000
0000
0000
0000
0000
0000
0100
0000
0000
0000
0000
0000
0000
0000
0000
0001
0000
0000
0000
0000
0000
3010
0000
0000
0000
0000
0000
0000
0000
0000
0000
0010
0000
,
2000
0000
0000
0000
0000
0000
3100
0000
0000
0100
0000
0002
0000
0000
0000
0000
0000
0000
0103
0000
1000
0000
0100
0000
,
2000
0000
0000
3001
0100
0001
0200
0000
0000
0310
0000
0000
,
0110
0000
0000
0010
0000
1000
0100
0000
0000
0100
0000
0010
0002
0000
0000
0000
0000
1003
0000
0000
0000
0001
0000
0001
,
0100
0000
0100
0001
0000
0001
1000
0000
1000
0010
0000
0000
0110
0000
0000
0000
0000
0000
0110
0000
0000
0000
0000
0010
,
1000
0000
0000
0100
0000
0000
0100
0000
0001
0000
0000
0100
0000
0000
0100
1000
0000
1000
0010
0000
0010
0100
0000
0100
,
0001
0000
0000
1010
0000
0000
1100
0000
0100
0010
0000
0010
1000
0000
1000
0010
0000
0010
0002
0000
0000
1003
0000
0000
,
1010
0000
0000
0000
0000
0000
0021
0000
0000
0100
0000
0000
1030
0000
0000
0000
0000
1000
0010
0000
0000
0001
0000
0000
,
0100
0000
0000
1000
0000
0000
0100
0000
0000
0002
0000
2000
0000
0000
0000
3003
0000
0000
1100
0000
0000
0100
0000
0000
,
0011
0000
0101
0100
1010
0000
0110
0100
,
2001
0000
0000
3001
0100
0001
0200
0000
0000
0310
0000
0000
,
1000
0000
0000
1000
0000
0001
1000
0000
0000
0001
0000
1000
0001
0000
0000
0100
0000
0010
0100
0000
0000
0010
0000
0100
,
0010
0000
0010
1000
0000
1000
0001
0000
0001
0100
0000
0100
0010
0000
0010
1000
0000
0000
2010
0000
0000
3200
0000
0000
,
0000
0000
0000
0301
0000
0000
0100
0000
1000
0000
0000
0020
0000
0000
0000
0000
0000
0000
0130
0000
0010
0000
0100
0000
,
0020
0000
0000
0000
0000
0000
1030
0000
0100
0000
0000
0010
0000
0000
0010
0001
0000
0000
1001
0000
0000
0100
0000
0000
,
0020
0000
0000
0000
0000
0230
0000
0000
0000
0301
0000
0000
2000
0000
0000
0000
0000
3002
0000
0000
0000
0013
0000
0000
,
2000
0000
0000
0000
0000
0000
3010
0000
0000
0002
0000
2000
0000
0000
3003
0000
0000
0000
2002
0000
0000
3003
0000
0000
,
0110
0000
0110
1000
0001
0000
0110
0001
,
0200
0000
0000
0301
0010
0100
2000
0000
0000
3002
0000
0000
,
0103
0000
0000
0010
0000
0010
1000
0000
0000
0100
0000
0100
0001
0000
0000
0100
0000
0100
1000
0000
0000
0010
0000
0000
,
1010
0000
0000
1010
0000
0000
0100
0000
0001
0000
0000
0010
0000
0000
0010
0000
0000
0010
0100
0000
0000
0220
0000
0000
,
0000
0000
0000
0000
0000
0000
0330
0000
0000
1001
0000
0000
2000
0000
0000
3020
0000
0000
0000
0000
0230
0000
0000
0000
,
0301
0000
0000
0001
0000
1000
0000
0000
1000
0010
0000
0000
0100
0000
0000
0110
0000
0000
0000
0000
1001
0000
0000
0001
,
0010
0000
0100
1000
0000
0001
0010
0000
0100
0000
0000
0000
0011
0000
0000
1001
0000
0000
0000
0000
1100
0000
0000
0000
,
1010
0000
0000
0000
0000
0110
0000
0000
0100
0001
0000
0001
1000
0000
0000
1000
0000
0000
1000
0000
0010
0000
0000
0010
,
0000
0000
0010
0100
0000
0000
0110
0000
0000
0100
0000
0000
0001
0000
0000
0020
0000
0000
0000
0000
0230
0000
0000
0000
,
1300
0000
0000
1000
0000
0001
0000
0000
0001
0010
0000
0000
0100
0000
0000
0110
0000
0000
0000
0000
1001
0000
0000
1000
,
0010
0000
0100
0001
0000
1000
0010
0000
0100
0000
0000
0000
1010
0000
0000
1001
0000
0000
0000
0000
0101
0000
0000
0000
,
0011
0000
0000
0000
0000
0110
0000
0000
0100
1000
0000
1000
0001
0000
0000
0001
0000
0000
0001
0000
0010
0000
0000
0010
,
0000
0000
0010
0100
0000
0000
2100
0000
0000
0000
0000
0000
3001
0000
1000
0100
0000
0001
0100
0000
1000
0010
0000
0001
,
0010
0000
1000
0001
0000
0100
0020
0000
0200
0000
0000
0000
0330
0000
0000
0000
0000
0000
0000
0000
0000
0000
0000
0000
;

//--------------- dance-single - ----------------
#NOTES:
     dance-single:
     :
     Challenge:
     16:
     0.902872,0.962795,0.657824,0.366383,1.103312,759,680,79,44,0,0,0.902872,0.962795,0.657824,0.366383,1.103312,759,680,79,44,0,0:
0000
0000
0000
0000
,
0000
0000
0000
0000
,
0000
0000
0000
0000
,
0000
0000
0000
0000
,
0011
0000
0000
0000
0000
0000
0000
0000
0000
0000
0000
0000
1100
0000
0000
0000
0000
0000
0000
0000
0000
0000
0000
0000
0001
0000
0000
0000
0000
0000
0000
0000
0100
0000
0000
0000
0000
0000
0000
0000
0000
0000
0000
0000
0100
0000
0000
0000
0010
0000
0000
0000
0000
0000
0000
0000
0000
0000
0000
0000
1000
0000
0000
0000
0000
0000
0001
0000
0000
0000
0000
0000
0100
0000
0000
0010
0000
0000
0100
0000
0000
0010
0000
0000
0100
0000
0000
0010
0000
0000
0100
0000
0000
0000
0000
0000
,
0001
0000
0000
1000
0000
0001
0010
0000
0000
0100
0000
1000
0001
0000
0100
0010
0000
0000
0110
0000
0000
0010
0000
0010
,
0100
0000
0000
0000
0000
0000
0000
0000
0000
0000
0000
0000
0001
0000
0000
0000
0000
0000
0000
0000
0000
0000
0000
0000
1000
0000
0000
0000
0000
0000
0000
0000
0001
0000
0000
0000
0100
0000
0000
0000
0000
0000
0000
0000
0000
0000
0000
0000
0010
0000
0000
0000
1000
0000
0000
0000
0010
0000
0000
0000
1000
0000
0000
0000
0010
0000
0000
0000
1000
0000
0000
0000
0010
0000
0000
0000
0000
0000
0000
0000
0000
0000
0000
0000
0100
0000
0000
0001
0000
0000
0100
0000
0000
0001
0000
0000
,
0010
0000
0100
1000
0000
0100
0010
0000
0000
0010
0000
0001
1000
0000
0100
0010
0000
0001
0100
0000
0000
0010
0000
0010
,
1000
0000
0000
0000
0000
0000
0000
0000
0000
0000
0000
0000
0100
0000
0000
0000
0000
0000
0000
0000
0000
0000
0000
0000
0010
0000
0000
0000
0000
0000
0000
0000
0100
0000
0000
0000
1000
0000
0000
0000
0000
0000
0000
0000
0000
0000
0000
0000
0001
0000
0000
0000
0100
0000
0000
0000
0001
0000
0000
0000
0100
0000
0000
0001
0000
0000
1000
0000
0000
0001
0000
0000
1000
0000
0000
0000
0000
0000
0000
0000
0000
0000
0000
0000
0001
0000
0000
0000
0000
0000
0000
0000
0010
0000
0000
0000
,
0100
0000
0000
0100
0000
0100
1000
0000
1000
0010
0000
0000
0120
0000
0000
0000
0000
1030
0000
0000
1000
0001
0000
0001
,
0010
0000
0000
1100
0000
0000
0011
0000
0000
1100
0000
0000
2000
0000
0000
3001
0000
1000
0010
0000
0000
0100
0000
0000
,
0110
0000
0000
0100
0000
0001
1000
0000
0000
0010
0000
0000
0100
0000
0000
0010
0000
1000
0001
0000
0000
0001
0000
0010
,
0200
0000
0000
0000
0000
0310
0001
0000
0000
1000
0000
0000
0001
0100
0001
0100
0001
0100
0001
0000
0000
0000
0000
0000
,
1010
0000
0000
0100
0000
0000
0001
0000
0000
0010
0000
0000
0100
0000
0000
0001
0000
0001
0100
0000
0100
1000
0000
1000
,
0010
0000
0000
0110
0000
0100
0001
0000
0000
1000
0000
0000
0002
0000
0000
0000
0000
0013
0100
0000
0000
1001
0000
0000
,
0010
0000
0000
0101
0000
0000
1000
0000
0020
0000
0000
0000
0001
0000
0000
0000
0000
1030
0001
0000
0000
0010
0000
0100
,
1000
0000
0000
0001
0000
0000
1100
0000
0000
0101
0000
0000
1002
0000
0000
0000
0000
0000
1003
0000
1000
0010
0000
0010
,
0100
0000
0000
0100
0000
0001
0000
0000
0001
1000
0000
0100
0010
0000
0000
0011
0000
0000
1001
0000
0000
0000
0000
0000
,
0100
0000
0000
0000
0000
0000
0000
0000
0000
0000
0000
0000
0010
0000
0000
0000
0000
0000
0000
0000
1000
0000
0000
0000
0000
0000
0000
0000
0000
0000
0000
0000
1000
0000
0000
0000
0010
0000
0000
0000
0000
0000
0000
0000
0100
0000
0000
0000
0001
0000
0000
1000
0000
0000
0000
0000
0000
0000
0000
0000
1000
0000
0000
0001
0000
0000
0000
0000
0000
0000
0000
0000
0001
0000
0000
2000
0000
0000
0000
0000
0000
0000
0000
0000
0000
0000
0000
0000
0000
0000
0000
0000
0000
0000
0000
0000
,
3001
0000
0000
1000
0000
1000
0010
0000
0000
0100
0000
0100
0001
0000
0000
0010
0000
0000
0100
0000
0000
1000
0000
0001
,
0100
0000
0000
0010
0000
0000
0100
0000
0010
0100
0000
0000
0100
0000
0010
0100
0000
0100
0010
0000
0000
0100
0000
0000
,
0001
0010
0100
1000
0000
1000
0010
0000
0010
0100
0000
0100
0001
0000
0000
0011
0000
0000
1100
0000
0000
0000
0000
0000
,
1000
0000
0000
0010
0000
1000
0000
0000
1000
0001
0000
0001
0100
0000
0000
1010
0000
0000
0101
0000
0000
0000
0000
0000
,
0120
0000
0000
1030
0020
0000
0100
0000
2030
0000
0000
3001
0020
0000
0001
0000
,
0230
0000
0000
0000
0000
0000
0000
0000
0000
0310
0000
0000
0002
0000
0000
0000
0000
0000
1000
0000
0000
0000
0000
0000
0203
0000
0000
0000
0000
0000
0000
0000
0000
0310
0000
0000
1000
0000
0010
0000
1000
0000
0010
0000
1000
0000
0010
0000
,
0100
0000
0000
0010
0000
0000
0110
0000
0000
1000
0000
0010
0100
0000
0000
1000
0000
0001
0000
0000
0000
0011
0000
0000
,
0100
0000
0000
0000
0000
0000
0000
0000
0000
0000
0000
0000
1100
0000
0000
0000
0000
0000
0000
0000
1000
0000
0000
0000
0001
0000
0000
0000
0000
0000
0000
0000
0000
0000
0000
0000
0100
0000
0000
0000
0000
0000
0000
0000
0001
0000
0000
0000
0100
0000
0000
0000
0000
0000
0000
0000
0010
0000
0000
0000
1000
0000
0000
0000
0000
0000
0000
0000
0001
0000
0000
0000
0100
0000
0000
0000
0001
0000
0000
0000
0100
0000
0000
0000
0001
0000
0000
1000
0000
0000
0100
0000
0000
1000
0000
0000
,
0100
0000
0000
0010
0000
0000
0110
0000
0000
0010
0000
0000
1001
0000
0000
1000
0000
0010
0000
0000
0000
0110
0000
0000
,
0011
0000
0000
0000
0000
0000
0000
0000
0010
0000
0000
0000
0100
0000
0000
0000
0000
0000
0000
0000
0100
0000
0000
0000
1000
0000
0000
0000
0000
0000
0000
0000
1000
0000
0000
0000
0001
0000
0000
0000
0000
0000
0000
0000
0001
0000
0000
0000
0100
0000
0000
0000
0001
0000
0000
0000
1000
0000
0000
0000
0100
0000
0000
0000
1000
0000
0000
0000
0001
0000
0000
0000
0010
0000
0000
0000
0000
0000
0000
0000
0000
0000
0000
0000
0100
0000
0000
1000
0000
0000
0100
0000
0000
1000
0000
0000
,
0100
0000
0100
0010
0000
0010
0001
0000
1001
0000
0000
1000
0010
0000
0010
0100
0000
0000
0110
0000
0000
0001
0000
0001
,
1000
0000
0000
0100
0000
0000
0001
0000
0100
0000
0000
1000
0010
0000
0000
0100
0000
0000
0110
0000
0000
1001
0000
0000
,
0110
0000
0000
0100
0000
0000
1001
0000
0000
0110
0000
1000
0001
0000
0001
0010
0000
0010
1000
0000
0000
0020
0000
0000
,
0001
0000
0000
0100
0000
0000
1030
0000
1000
0020
0000
0000
1000
0000
0000
0100
0000
0000
0031
0000
0100
0000
0000
0100
,
0002
0000
0000
0010
0000
0000
0013
0000
0100
1000
0000
1000
0020
0000
0000
0230
0000
0000
0001
0000
0010
0000
0001
0000
,
0310
0000
0000
0020
0000
0000
1000
0000
0100
0000
1000
0000
0130
0000
1000
0001
0000
0000
0010
0000
0100
1000
0000
0000
,
0110
0000
0000
0001
0000
0100
0010
0000
0000
1000
0000
0100
0020
0000
0000
0000
0000
0130
0000
0000
0000
0100
0000
0010
,
0001
0000
1000
0001
0000
0100
0001
0000
1000
0010
0000
0100
0010
0100
0010
0100
0010
0100
0001
0000
0000
1000
0000
0010
,
0001
0000
0000
0010
0000
0000
0100
0000
0010
0000
0000
0010
0100
0000
0010
1000
0000
1000
0001
0000
0001
0010
0000
0010
,
1000
0000
0000
0110
0000
0000
1001
0000
1000
0010
0000
0010
0100
0000
0100
0001
0000
0001
1000
0000
1000
0010
0000
0000
,
0110
0000
0000
0000
0000
0100
0002
0000
0000
1000
0000
0000
0103
0000
0000
0000
0000
0100
0001
0000
0000
0010
0000
0000
,
0200
0000
0000
2300
0000
0000
3020
0000
0000
0130
0000
0001
0000
0000
0001
0010
0000
0010
0100
0000
0000
1000
0000
1000
,
0001
0000
0000
0101
0000
0000
0010
0000
0000
1100
0000
1000
0001
0000
0001
1000
0000
0000
0010
0000
0010
0100
0000
0000
,
2001
0000
0000
0000
0000
0000
3001
0000
0010
0000
0100
0000
1000
0000
1000
0100
0000
0100
0001
0000
0000
0100
0000
1000
,
0010
0000
0000
0100
0000
0010
0100
0000
0000
0100
0000
0010
0100
0000
0000
0100
0000
0010
0100
0000
0000
0100
0000
0010
,
0100
0000
0000
0000
0000
0000
0000
0000
0100
0000
0000
0000
0001
0000
0000
0000
0000
0000
0000
0000
0001
0000
0000
0000
1000
0000
0000
0000
0000
0000
0000
0000
0001
0000
0000
0000
1000
0000
0000
0000
0000
0000
0000
0000
1000
0000
0000
0000
0001
0000
0000
0000
0000
0000
0000
0000
1000
0000
0000
0000
0001
0000
0000
0000
0000
0000
0000
0000
0000
0000
0000
0000
1000
0000
0000
0100
0000
0000
1000
0000
0000
0100
0000
0000
1000
0000
0000
0100
0000
0000
1000
0000
0000
0100
0000
0000
,
1000
0000
0000
0001
0000
0000
0100
0000
0010
0000
0000
0100
0010
0000
0000
2000
0000
0000
0001
0000
0100
0000
0001
0000
,
3100
0000
0000
1000
0000
0000
0001
0000
0010
0000
0000
0010
0100
0000
0100
1000
0000
0000
1001
0000
0001
0100
0000
0010
,
1000
0000
0000
0010
0000
0001
0010
0000
0000
0100
0000
1000
0100
0000
0000
0001
0000
1000
0100
0000
0000
0001
0000
0100
,
2000
0000
0000
3020
0000
0000
0032
0000
0000
0013
0000
0020
0000
0000
1030
0001
0000
0000
0220
0000
0000
0300
0000
0000
,
0130
0000
0000
0000
0000
0000
1001
0000
0001
0010
0000
0000
1001
0000
1000
0010
0000
0000
1001
0000
0001
0200
0000
0000
,
2300
0000
0000
3200
0000
0000
0302
0000
0023
0000
2030
0000
3002
0000
0103
1000
0000
1000
0001
0000
0000
1001
0000
0001
,
0100
0000
0000
0110
0000
0010
1000
0000
0000
1001
0000
1000
0100
0000
0000
0110
0000
0010
0001
0000
0000
0011
0000
0000
,
1100
0000
0000
0101
0000
0000
0011
0000
1010
0000
0000
0110
0000
0000
0110
0000
0000
0010
1000
0000
0000
1002
0000
0000
,
0000
0000
0000
0000
0000
0000
0000
0000
0000
2003
0000
0000
3001
0000
0000
0001
0000
0100
0010
0000
0010
1000
0000
0000
,
1010
0000
0000
0101
0000
1000
0001
0000
0001
1000
0000
0100
0010
0000
0010
0001
0000
0001
1000
0000
0000
1001
0000
0001
,
0100
0000
1000
0100
0000
0001
0100
0000
1000
0100
0000
0001
1000
0000
0000
1001
0000
0000
1000
0000
1000
0100
0000
0000
,
0110
0000
0010
0001
0000
0000
0101
0000
0100
0010
0000
0010
1010
0000
0000
1010
0000
0000
0101
0000
0101
0000
0000
0011
,
0000
0000
0001
1000
0000
0000
1001
0000
0000
1000
0000
0010
0100
0000
0000
0001
0000
0010
0100
0000
0000
1000
0000
0000
,
0110
0000
0000
0100
0000
0001
1000
0000
0000
0100
0000
0010
0001
0000
0000
0010
0000
0100
1000
0000
0000
1001
0000
1000
,
0100
0000
0001
0100
0000
1000
0100
0000
0001
0100
0000
1000
0001
0000
0000
1000
0000
0000
0001
0000
0100
0010
0000
0000
,
0100
0000
0010
1000
0000
0000
0100
0000
0100
0010
0000
0001
0011
0000
0000
0011
0000
0000
1100
0000
1100
0000
0000
0110
,
0000
0000
0000
0000
0000
0000
0000
0000
0010
0000
0000
0000
0001
0000
0000
0000
0000
0000
0000
0000
0000
0000
0000
0000
1000
0000
0000
0100
0000
0000
1000
0000
0000
0100
0000
0000
1000
0000
0000
0100
0000
0000
1000
0000
0000
0100
0000
0000
0001
0000
0000
0000
0000
0000
0000
0000
0001
0000
0000
0000
0100
0000
0000
0000
0000
0000
0000
0000
0100
0000
0000
0000
1000
0000
0000
0000
0000
0000
0000
0000
1000
0000
0000
0000
0010
0000
0000
0000
0000
0000
0000
0000
0010
0000
0000
0000
,
0001
0000
0001
1000
0000
1000
0200
0000
0002
0000
0000
0000
0303
0000
0000
0000
0000
0000
0000
0000
0000
0000
0000
0000
;
