#TITLE:ディカダンス feat.初音ミク;
#SUBTITLE:;
#ARTIST:sasakure.UK;
#TITLETRANSLIT:Decadence;
#SUBTITLETRANSLIT:;
#ARTISTTRANSLIT:sasakure.UK;
#GENRE:POP;
#CREDIT:;
#MUSIC:Decadence.ogg;
#BANNER:Decadence.png;
#BACKGROUND:Decadence-bg.png;
#CDTITLE:;
#SAMPLESTART:50.029;
#SAMPLELENGTH:16.000;
#SELECTABLE:YES;
#OFFSET:-0.029;
#BPMS:0.000=120.000;
#STOPS:;
#BGCHANGES:2.500=Decadence.avi=1.000=0=0=0=StretchNoLoop====,
99999.000=-nosongbg-=1.000=0=0=0=StretchNoLoop====
;
#FGCHANGES:;

//--------------- dance-single - ----------------
#NOTES:
     dance-single:
     :
     Easy:
     8:
     0,0,0,0,0:
0000
0000
0000
0000
,
0000
0000
0000
0000
,
0000
0000
0000
0000
,
0001
1000
0001
1001
,
0100
0010
0100
0110
,
0001
0010
0100
0000
1000
0100
0010
0000
,
0001
1000
0010
0100
,
0001
0100
0010
0000
1000
0010
0100
0000
,
0001
0000
1000
0000
0100
0000
0010
0001
,
1000
0001
2000
0100
,
3100
0010
0002
1000
,
1003
0010
0200
0001
,
0301
1000
0001
0010
,
0100
1000
0001
0000
0100
0010
0100
0000
,
0001
0000
1000
0100
0010
0000
0100
1000
,
0001
0000
1000
0010
1000
0000
0001
0100
,
0001
0000
0010
0000
0100
1000
0001
0000
,
1001
1000
0010
0010
,
0100
0100
0001
0001
,
0011
0010
0100
0100
,
1000
1000
0001
1001
,
1000
0010
1000
0000
0010
0000
0100
0000
,
0001
0010
0001
0000
0010
0000
0100
0000
,
1000
0001
1000
0000
0001
1000
0001
0000
,
1000
0000
1000
0000
0001
0000
0001
1000
,
0010
0000
0100
0001
0000
1000
0100
0000
,
0010
0000
0100
0000
1000
0001
0000
0000
,
0110
0000
0010
0000
1000
0002
0000
0010
,
0013
0000
0100
0000
1000
0001
0000
0100
,
0010
0000
1000
0001
0010
0000
0100
0000
,
1000
0010
0100
0001
,
1000
0001
1000
0000
0010
0100
0010
0000
,
1000
0010
0210
0320
,
1030
0010
0100
0000
0001
0100
0010
0000
,
1000
0001
0010
0100
,
1000
0100
0010
0000
0001
0010
0100
0000
,
1000
0000
0001
0000
0100
0000
0010
1000
,
0100
0000
0010
0001
0000
1000
0010
0000
,
0100
0000
0010
0000
1000
0001
0000
0000
,
0110
0000
0100
0000
1000
0002
0000
0100
,
0103
0000
0010
0000
1000
0001
0000
0010
,
0100
0000
1000
0001
0100
0000
0010
0000
,
1000
0100
0010
0001
,
1000
0001
1000
0000
0010
0100
0010
0000
,
1000
0100
0120
0230
,
1300
0001
0010
0000
0100
1000
0001
0000
,
0100
0010
1000
0001
,
0010
0100
1000
0000
0001
0100
0010
0000
,
1000
0000
0001
0000
0010
0000
0100
1000
,
0001
0000
0001
0100
0000
0100
0010
0000
,
0010
1000
0000
1000
0001
0000
1001
0000
,
0001
0000
1000
0010
0000
0010
0100
0000
,
0100
0001
1000
0000
0100
0010
0100
1000
,
0001
0001
1000
1000
,
0010
0010
0100
0100
,
0001
0010
0100
1000
,
0001
0000
0100
0000
0010
0000
1000
0001
;

//--------------- dance-single - ----------------
#NOTES:
     dance-single:
     :
     Medium:
     13:
     0,0,0,0,0:
0000
0000
0000
0000
,
0000
0000
0000
0000
,
0000
0000
0000
0000
,
0101
0000
0000
0000
1100
0000
0000
0000
0101
0000
0000
1100
0000
0000
0110
0000
,
1001
0000
0000
0000
0110
0000
0000
0000
0001
0000
0000
1000
0000
0000
0001
0000
,
1001
0000
1000
0100
0000
1000
0100
0000
0010
0000
0001
0000
1000
0000
0010
0000
,
0100
0010
1000
0001
0010
0100
1000
0001
,
1000
0000
0001
0100
0000
0001
0100
0000
0010
0000
1000
0000
0100
0000
0010
0000
,
0001
1000
0010
0000
0100
0000
0100
0000
0010
1000
0001
0000
0010
0000
0010
0000
,
1100
0000
0000
0000
1000
0000
0000
0001
0000
0000
0100
0000
0000
0001
0000
0000
0200
0000
0000
0000
0000
0000
0010
0000
0000
0000
0000
0000
0010
0000
0000
0000
,
0301
0000
0001
0010
0100
1000
0000
1000
0200
0000
0000
0010
0000
0000
1000
0000
,
0310
0000
0000
0000
0000
0000
0001
0000
1000
0000
0001
0000
0000
0100
0000
0000
0020
0000
0000
0000
0000
0000
0100
0000
0000
0000
0000
0000
1000
0000
0000
0000
,
0130
0000
0002
0000
2003
0000
3200
0000
0320
0000
0032
0000
0103
0010
0100
0000
,
0001
0000
0001
0000
0010
0100
0010
0000
0100
1000
0001
0000
1000
0000
1010
0000
,
0000
0000
1000
0000
0001
0010
0000
0100
0010
0000
0001
0100
0010
0100
0001
0000
,
1000
0000
0001
0000
1000
0010
0100
0000
1000
0000
0100
0000
0001
0000
0011
0000
,
1000
0000
1100
0000
0000
0000
0010
0000
0001
1000
0001
0000
0100
0000
0010
0000
,
1010
0000
0100
0000
0001
1000
0001
0000
0010
0000
0100
0000
,
1000
0000
0000
0000
0000
0000
0000
0000
0001
0000
0000
0000
0000
0000
0000
0000
1000
0000
0000
0000
0000
0000
0000
0000
0001
0000
0000
0100
0000
0000
0001
0000
0000
0000
0000
0000
1000
0000
0000
0100
0000
0000
1000
0000
0000
0000
0000
0000
,
0110
0000
1000
0000
0001
0100
0001
0000
1000
0000
0100
0000
,
0010
0000
0000
0000
0000
0000
0000
0000
0100
0000
0000
0000
0000
0000
0000
0000
1000
0000
0000
0000
0000
0000
0000
0000
0010
0000
0000
0100
0000
0000
0010
0000
0000
0000
0000
0000
1000
0000
0000
0001
0000
0000
0000
0000
0000
0000
0000
0000
,
1000
0000
0100
0000
0010
0000
0010
0000
0001
0000
1000
0010
0000
0100
0000
0010
,
1000
0000
1000
0000
0001
0000
0010
0000
0100
1000
0000
0010
0000
0100
0000
0010
,
0000
1000
0001
1000
0000
0001
0000
0010
0000
0100
0000
1000
0000
0010
0000
0100
,
0001
0001
1000
1000
0001
0100
0110
0110
,
1001
0000
0001
0100
0000
0001
0010
0000
0100
0000
1000
0000
0010
0000
0100
0000
,
0010
0000
1000
0100
0000
1000
0001
0000
0100
0000
0020
0000
0000
0000
0130
0000
,
0001
0000
1000
0100
0000
0010
0000
0100
0000
1000
0002
0000
0000
0000
0103
0000
,
0100
0000
0010
0000
1000
0000
1000
0000
0001
0010
0100
0000
0000
0000
0100
0000
,
0110
0000
0010
0000
0001
1000
0001
0000
0100
0000
0010
0000
0100
0000
0001
0000
,
1000
0000
0000
0001
0100
0000
0000
0001
0010
0000
0200
0000
0000
0000
1300
0000
,
0010
0000
0100
1000
0000
0100
0000
0001
0000
0010
0000
0100
0000
0001
0100
0000
,
1000
0001
0000
0000
0100
0000
0010
0000
0210
0000
0000
0000
0320
0000
0000
0000
,
1030
0000
0001
0100
0000
0001
0100
0000
0010
0000
1000
0000
0100
0000
1000
0000
,
0001
1000
0010
0010
0100
0001
1000
1000
,
0100
0000
1000
0010
0000
1000
0010
0000
0100
0000
0001
0000
1000
0000
0010
0000
,
0100
0001
0100
0000
0001
0000
1000
0000
0010
0100
0010
0000
0110
0000
0110
0000
,
1001
0000
0001
0010
0000
0001
1000
0000
0010
0000
0100
0000
0001
0000
1000
0100
,
1000
0000
0001
0100
0000
0010
1000
0100
0020
0000
0032
0000
0000
0000
1003
0000
,
0010
0000
0100
0001
0000
0010
0000
0100
0000
0010
0000
0001
1000
0000
0010
0000
,
0100
0100
1000
0001
0010
0020
0000
0130
,
0001
0000
1000
0100
0000
1000
0001
0000
0100
0000
1000
0000
0100
0000
0001
0000
,
0010
0000
0000
0100
1000
0000
0000
0001
0100
0000
0020
0000
0000
0000
0130
0000
,
1001
0000
0001
0100
0000
0010
0000
0100
0000
0001
0000
1000
0000
0100
0010
0100
,
0020
0000
0000
0000
1000
0000
0000
0000
0031
0000
1000
0010
0100
0000
0010
0000
,
0100
0000
0010
1000
0000
0001
0010
0000
0100
0000
1000
0000
0010
0000
0100
0000
,
1000
0000
0100
0001
0010
0000
0001
0000
0010
0000
0100
1000
0010
0000
0100
0000
,
0101
0000
0001
0010
0000
0100
0010
0000
0001
0000
1000
0000
0010
0000
0100
0000
,
0010
0000
0100
0001
1000
0000
0100
0000
0010
0000
0100
1000
0001
0000
0100
0000
,
0110
0000
0010
1000
0000
0001
0010
0000
0100
0000
1000
0000
0001
0000
0100
0000
,
0010
0000
0100
0001
1000
0000
0100
0000
0010
0000
0100
1000
0001
0000
0110
0000
,
1000
0000
0001
0100
0000
0010
0100
0000
0001
0000
0010
0000
0100
0000
0010
0000
,
0001
1000
0001
0000
0110
0000
0001
0000
1000
0001
1000
0000
0100
0010
0100
0000
,
0110
0000
0000
0000
0000
0000
0000
0000
0010
0000
0000
0000
0001
0000
0000
0000
0010
0000
0000
0000
0001
0000
0000
0000
1000
0000
0000
0000
0000
0000
0000
0000
0000
0010
0000
0000
0000
0000
0000
0000
0000
0000
0100
0000
0000
0000
0000
0000
,
0000
0000
0000
0000
0000
0000
0000
0000
0010
0000
0000
0000
1000
0000
0000
0000
0010
0000
0000
0000
1000
0000
0000
0000
0001
0000
0000
0000
0000
0000
0000
0000
0000
0010
0000
0000
0000
0000
0000
0000
0000
0000
0100
0000
0000
0000
0000
0000
,
0000
0000
1000
0000
0001
0000
1000
0000
0001
0000
0000
0100
0000
0000
0010
0000
,
0000
0000
0100
0000
0001
0000
1000
0100
1000
0000
0001
0000
0100
0010
0100
0000
;

//--------------- dance-single - ----------------
#NOTES:
     dance-single:
     :
     Hard:
     15:
     0,0,0,0,0:
0000
0000
0000
0000
,
0011
0000
0000
1000
0100
1000
0000
0000
0101
0000
0001
1000
0000
1000
0010
0000
,
0110
0000
1000
0000
0001
0010
0000
0100
0010
0000
0000
0110
0000
0000
1001
0000
,
1000
0000
0010
0100
0010
0100
0000
0100
0001
0000
0001
1000
0000
1000
0100
0000
,
0010
0000
0100
0000
0010
0001
1000
0000
0001
0000
0100
0000
1000
0100
0010
0000
,
1010
0000
1000
0001
0000
0001
0010
0000
0100
0000
0010
0001
1000
0000
0010
0000
,
0100
0001
0010
0000
0100
0010
0001
0000
1000
0010
0100
0010
1000
0001
0010
0100
,
1000
0000
1000
0010
0000
0010
0100
0000
0001
0000
1000
0100
0010
0000
1001
0000
,
0001
1000
0010
1000
0010
0100
0001
1000
0100
0010
0100
0010
0001
1000
0100
0010
,
0001
0000
1000
0010
0100
0010
0100
0010
1000
0000
1000
0100
0000
0010
0000
0100
,
1000
0000
0001
0100
0010
0100
0010
0100
0001
0000
0001
0010
0000
0100
0000
0010
,
0001
0000
0010
0001
1000
0001
1000
0001
0100
0000
0100
0001
0000
1000
0000
0001
,
0010
0000
0100
1000
0002
0000
0203
0000
2300
0000
3200
0000
0301
0010
0100
0000
,
1000
0000
1100
0000
0100
1000
0010
0000
0010
1000
0100
1000
0010
1000
0001
0000
,
1001
0000
1000
0000
0001
0010
0100
0010
0001
0000
0100
0010
0001
0010
0100
0000
,
0001
0000
1000
0100
1000
0100
0010
0000
0001
0010
0001
0010
0100
0000
1000
0010
,
0100
0000
0101
0000
0001
0010
0100
0000
1000
0100
0010
0000
0001
0010
0100
1000
,
0001
0000
0100
0000
0010
0000
0110
0000
1000
0000
0001
0000
,
0011
0000
0100
0000
1000
0000
1010
0000
0001
0000
0100
0000
,
0110
0000
0001
0000
0010
0000
0011
0000
1000
0000
0100
0000
,
1100
0000
0000
0000
0000
0000
0000
0000
0001
0000
0000
0000
0000
0000
0000
0000
1000
0000
0000
0000
0000
0000
0000
0000
1010
0000
0000
0000
0000
0000
0010
0000
0000
0000
0000
0000
1000
0000
0000
0001
0000
0000
1000
0000
0000
0000
0000
0000
,
0001
0010
0100
1000
0001
0100
0001
0100
1000
0001
0010
1000
0000
1000
0100
0010
,
0001
1000
0100
1000
0100
0001
1000
0010
0001
1000
0000
0010
0000
0100
0000
0100
,
0010
0000
0100
0001
1000
0100
0000
0010
0000
0100
0000
1000
0000
0010
0000
0001
,
0010
1000
0001
0010
0100
1000
0100
1000
0001
0010
0100
0000
0110
0000
0110
0000
,
1001
0000
0001
0100
0000
0100
0010
0000
0110
0000
1001
0000
0001
0010
0100
0000
,
0110
0000
0010
0001
0000
1000
0010
1000
0001
0000
0110
0000
1000
0000
0001
0000
,
1100
0000
0100
1000
0000
0010
0000
0001
0000
1000
0100
0000
0001
0000
0010
0100
,
0010
0100
1000
0001
0100
0010
0100
0010
1000
0100
0010
0001
1000
0000
0010
0100
,
0010
0000
0100
0001
1000
0001
0010
0100
1000
0000
1000
0100
0010
0001
1000
0010
,
0100
0000
0100
1000
0100
0000
0100
0001
1000
0000
1000
0100
0010
0000
0100
0000
,
0110
0000
0100
1000
0000
0100
0000
0010
0000
0100
0000
1000
0000
0001
0100
0010
,
0100
1000
0100
0010
0100
0001
0010
0100
1000
0000
1000
0100
0020
0000
0130
0000
,
0110
0000
1000
0100
0000
0100
0010
0100
1000
0001
0100
0001
0100
0010
1000
0001
,
0010
0100
0010
0001
1000
0010
1000
0010
0100
0001
0010
0100
1000
0001
1000
0001
,
0100
0000
0100
0001
0000
0001
0010
0100
0010
0001
0010
0001
1000
0010
0100
0001
,
1000
0100
0110
0000
0110
0000
1000
0001
0100
0001
0010
0001
0100
0001
0010
0100
,
1000
0000
1000
0010
0000
0100
0010
0000
0100
0000
0001
0000
0010
0000
0100
1000
,
0010
0000
0100
0010
0000
1000
0100
0010
0001
0000
0011
0000
0100
0000
0010
0000
,
0110
0000
0100
1000
0000
1010
0000
0110
0000
0101
0000
1001
0000
0001
0100
1000
,
0100
0000
0010
1000
0100
0000
0010
0001
0100
0000
0010
0000
0110
0000
0100
0001
,
1000
0000
1000
0100
0010
0001
1000
0001
0010
0000
0100
0000
1000
0010
0100
0001
,
0100
0000
0100
0001
0010
0000
0010
0100
0010
0000
0100
0000
0110
0000
0010
0000
,
1001
0000
1000
0010
0000
0110
0000
0101
0000
1010
0000
0110
0000
0010
1000
0100
,
0010
0000
0100
1000
0001
0100
0010
0100
1000
0100
0001
1000
0100
0010
0001
1000
,
0100
0000
0010
0001
0000
0001
1000
0010
0100
0000
0100
0001
0010
0000
0100
0000
,
0100
1000
0001
0100
1000
0001
0010
0000
1000
0100
0001
1000
0010
0001
0010
0100
,
1000
0000
1000
0010
0000
0100
0001
0010
0100
0000
0100
1000
0001
0000
0100
0000
,
0010
1000
0001
0010
1000
0001
0100
0000
1000
0010
0001
1000
0100
0001
0100
0010
,
1000
0000
1000
0010
0000
0010
0100
0001
1000
0000
1000
0100
0001
0000
0100
0000
,
1000
0001
0100
1000
0100
0010
0100
0000
0001
1000
0100
0001
0100
0010
0100
1000
,
0010
0000
0010
0100
0000
0100
0001
1000
0100
0000
0100
0010
0100
0000
0110
0000
,
0010
0001
1000
0000
1010
0000
0101
0000
0001
0010
0100
0000
1000
0100
0010
0001
,
1000
0000
0000
0000
0000
0000
0000
0000
0001
0000
0000
0000
0100
0000
0000
0000
0001
0000
0000
0000
0010
0000
0000
0000
0100
0000
0000
0000
0000
0000
0000
0000
0000
1100
0000
0000
0000
0000
0000
0000
0000
0000
0011
0000
0000
0000
0000
0000
,
0000
0000
0000
0000
0000
0000
0000
0000
1000
0000
0000
0000
0010
0000
0000
0000
0100
0000
0000
0000
0001
0000
0000
0000
1000
0000
0000
0000
0000
0000
0000
0000
0000
1010
0000
0000
0000
0000
0000
0000
0000
0000
0101
0000
0000
0000
0000
0000
,
0000
0000
0001
0000
1000
0000
0100
0000
1100
0000
0000
1001
0000
0000
0101
0000
,
0000
0000
0100
0000
0001
0000
1000
0100
0010
0000
0100
0000
1000
0001
0100
0000
;

//--------------- dance-single - ----------------
#NOTES:
     dance-single:
     :
     Challenge:
     18:
     1.103738,0.810085,0,0,1.929388,897,897,0,0,0,0,1.103738,0.810085,0,0,1.929388,897,897,0,0,0,0:
0000
0000
0000
0000
,
0011
0000
0000
0010
0001
1000
0000
0000
1010
0000
0000
0101
0000
0000
0110
0000
,
1001
0000
0010
0000
0100
1000
0000
0001
0100
0000
0000
0010
0000
1000
0010
0000
,
0101
0000
0000
0000
0000
0000
0001
0000
1000
0000
0100
0000
0000
0000
1000
0000
1100
0000
0000
0000
0100
0000
1000
0001
1000
0000
0010
0000
0100
0000
0000
0000
,
0010
0000
0100
0001
0010
0100
1000
0001
0100
0001
0100
0010
1000
0100
0010
0001
,
0011
0000
0010
0110
0000
1100
1000
0010
0100
0001
0100
0010
0100
0001
1000
0100
,
0110
0010
0001
0010
0110
0100
1000
0001
1001
1000
0100
1000
1001
0001
0100
0001
,
1001
0000
1000
1100
0000
0100
0010
0001
0011
0010
0100
1000
1100
0100
0010
0100
,
0110
0000
0010
0000
0001
0000
1000
0000
1010
0000
0010
0000
0110
0000
0100
0000
0101
0000
0001
0000
0010
0000
0100
0000
0010
0001
0010
0100
0010
0001
0010
0100
,
1000
0000
0000
0000
0001
0000
0100
0000
0001
0100
0010
1000
0001
0100
0010
1000
0001
0000
0000
0000
1000
0000
1100
0000
0000
0000
0101
0000
0001
0000
0000
0000
,
1001
0000
0000
0000
1000
0000
0100
0000
1000
0100
0010
0001
1000
0100
0010
0001
1000
0000
0000
0000
0001
0000
0101
0000
0000
0000
1010
0000
1000
0000
0000
0000
,
0110
0000
0000
0000
0001
0000
1000
0000
0001
1000
0010
0100
0001
1000
0010
0100
0001
0000
0000
0000
0001
0000
0110
0000
0000
0000
0110
0000
0000
0000
0110
0000
,
1000
0000
0000
0000
1000
0000
0001
0000
1000
0001
0010
0100
1000
0001
0010
0100
1000
0000
0000
0000
0001
0000
1100
0000
0000
0000
1010
0000
0001
0000
0010
0000
,
0100
0000
1100
0100
1000
0001
0101
0100
0110
1000
0001
1000
0110
0001
0010
0000
,
0110
0000
1100
0010
0100
0010
0001
1000
1001
0010
0100
0010
1001
0100
0010
0000
,
0011
0000
1100
1000
1010
0000
0101
0001
0011
0000
0101
0100
0110
0000
1100
0100
,
0110
0000
1001
0000
0001
0100
0001
0100
1010
0001
0010
0001
1100
0010
0100
0010
,
1001
0000
0011
0000
0010
0100
1000
0000
1010
0000
1100
0000
,
0101
0000
0000
0000
0000
0000
0000
0000
1001
0000
0000
0000
0000
0000
0000
0000
0011
0000
0000
0000
0000
0000
0000
0000
0001
0000
0000
0100
0000
0000
0010
0000
0000
0000
0000
0000
1000
0000
0000
0010
0000
0000
0100
0000
0000
0000
0000
0000
,
1001
0000
0011
0000
0110
0000
1100
0000
1010
0000
1001
0000
,
0101
0000
0000
0000
0000
0000
0000
0000
0011
0000
0000
0000
0000
0000
0000
0000
1001
0000
0000
0000
0000
0000
0000
0000
0101
0000
0000
0000
0000
0000
1001
0000
0000
0000
0000
0000
1000
0000
0000
0100
0000
0000
1000
0000
0000
0000
0000
0000
,
0011
0010
0100
1000
1010
0010
0110
0000
1010
0010
0100
0001
0011
0010
0110
0000
,
1100
0100
1000
0001
0101
0000
0110
0000
1001
1000
0001
1000
0100
0110
0000
0110
,
0010
0000
0001
1000
1100
0000
0101
0000
0011
0000
0001
1000
1010
0000
0010
1000
,
0010
0000
0000
0000
0000
0000
1000
0000
0000
0000
0000
0000
0001
0000
0000
0010
0000
0000
0001
0000
0000
0010
0000
0000
0100
0000
0000
0000
0000
0000
1000
0000
0000
0000
0000
0000
0001
0000
0000
0000
0000
0000
0010
0000
0000
0000
0000
0000
0100
0000
0000
0000
0000
0000
0010
0000
0000
0000
0000
0000
0110
0000
0000
0000
0000
0000
0000
0000
0000
0000
0000
0000
1000
0000
0000
0000
0001
0000
0000
0000
1000
0000
0000
0000
0001
0000
0000
0000
1000
0000
0000
0000
0001
0000
0000
0000
,
0110
0000
0001
0101
0000
1000
1010
0000
0110
0000
1010
0000
0100
0001
0101
0000
,
0011
0000
0010
0110
0000
0100
1100
1000
1001
0000
0101
0010
0000
0100
0110
0010
,
1010
0000
0101
0001
0000
0001
0010
0100
1100
0000
1100
1000
0100
0010
0100
1000
,
0011
0000
0100
0000
1000
0000
0001
0000
0100
0010
0100
0001
1000
0010
1000
0100
1000
0000
0100
0000
0010
0000
0001
0000
1000
0100
1000
0001
0010
0100
0010
0001
,
1000
0000
0001
1000
0110
0001
1001
0000
0011
0010
0100
1000
1010
0010
0110
0000
,
1001
0100
0010
0100
0101
0101
0000
0000
0011
0000
0010
0100
0011
0100
1100
0000
,
1010
0000
0101
0001
1001
0001
0101
0000
0110
0000
1010
1000
1001
1000
1010
0000
,
0001
0000
0010
0000
0100
0000
1000
0000
0001
0010
0100
0010
0001
0010
0100
1000
0001
0000
0100
0000
0010
0000
1000
0000
0001
0100
0010
0100
0001
0100
0010
1000
,
0001
0000
1000
1100
0000
0110
0010
0001
1001
1000
0010
0100
0101
0001
1000
0010
,
0101
1000
0100
0010
1100
0001
0100
0010
1001
0010
0100
1000
1001
0001
0100
0010
,
0110
0000
1000
1010
0000
0100
0001
0010
0110
0100
1000
0001
0101
0100
0001
1000
,
0110
0000
0000
0000
0000
0000
0001
0000
0000
0000
0000
0000
0110
0000
0000
0000
0000
0000
0000
0000
0000
0000
0000
0000
0110
0000
0000
0000
0000
0000
0000
0000
0000
0000
0000
0000
0010
0000
0000
0000
0000
0000
0110
0000
0000
0000
0000
0000
0100
0000
0000
0000
0000
0000
0001
0000
0000
0000
0000
0000
1000
0000
0000
0000
0000
0000
0001
0000
0000
0000
0000
0000
1000
0000
0000
0100
0000
0000
0010
0000
0000
0001
0000
0000
1000
0000
0000
0000
0100
0000
0000
0000
0010
0000
0000
0000
,
0001
0000
0001
1100
0000
1000
0101
0000
0011
0000
1010
0000
0100
0001
0110
0000
,
1001
0000
1000
0011
0000
0001
1100
1000
0101
0000
1010
0100
0000
0001
0011
0100
,
1010
0000
0110
0001
0000
1000
0010
0100
1010
0000
0101
0010
0100
1000
0010
0100
,
1001
0000
0100
0000
0001
0000
0010
0000
0001
1000
0010
0100
0010
0100
0010
1000
0001
0000
0010
0000
0100
0000
1000
0000
0001
1000
0100
0010
0100
0010
0100
1000
,
0001
0000
0001
1000
1010
0001
0101
0000
1001
1000
0010
0100
0110
0001
1001
0000
,
0011
0100
1000
0010
1010
0101
0000
0000
0011
0000
0001
0010
0110
0100
1100
0000
,
0011
0000
1100
0001
0010
0001
1100
0000
1001
0000
1010
0001
0100
0001
1010
0000
,
1001
0000
0001
0000
1000
0000
0010
0000
0100
0001
1000
0010
0100
0001
0010
0100
1000
0000
0100
0000
0010
0000
0001
0000
1000
0010
0100
0001
1000
0100
0010
0001
,
1000
0000
0010
0110
0000
0101
0001
0010
0100
1000
0100
0010
0100
1000
0001
0100
,
0110
0010
1000
0010
0110
0100
0001
1000
1001
0001
0100
0001
1001
1000
0100
1000
,
1001
0000
0001
0101
0000
0100
0010
1000
1010
0010
0100
0001
0101
0100
0010
0100
,
0110
0010
1000
0001
0011
0010
0100
1000
1010
0010
0100
0001
1001
1000
1100
0100
,
0110
0000
0001
0101
0000
0110
0010
1000
1001
0001
0010
0100
1100
1000
0001
0010
,
1100
0001
0100
0010
0101
1000
0100
0010
1001
0010
0100
0001
1001
1000
0100
0010
,
0110
0000
0001
0011
0000
0100
1000
0010
0110
0100
0001
1000
1100
0100
1000
0001
,
0110
0000
1000
0000
0110
0000
0000
0000
0110
0000
0000
0000
0010
0000
0110
0000
0100
0000
0001
0000
1000
0000
0001
0000
1000
0100
0010
0001
1000
0100
0010
0001
,
1000
0000
0000
0000
0100
0000
0000
0000
1000
0000
0000
0000
0001
0000
0000
0000
0100
0000
0000
0000
0010
0000
0000
0000
1010
0000
0000
0000
0000
0000
0000
0000
0000
0110
0000
0000
0000
0000
0000
0000
0000
0000
0011
0000
0000
0000
0000
0000
,
0101
0000
0000
0000
0001
0000
0000
0000
0010
0000
0000
0000
0100
0000
0000
0000
1000
0000
0000
0000
0010
0000
0000
0000
1010
0000
0000
0000
0000
0000
0000
0000
0000
0101
0000
0000
0000
0000
0000
0000
0000
0000
1010
0000
0000
0000
0000
0000
,
1001
0000
0000
0000
1000
0000
0000
0000
0010
0000
0000
0000
0100
0000
0000
0000
0010
0000
0000
0000
1000
0000
0000
0000
1100
0000
0000
0000
0000
0000
0000
0000
0000
0011
0000
0000
0000
0000
0000
0000
0000
0000
1100
0000
0000
0000
0000
0000
,
0000
0000
1000
0000
0100
0000
0010
0001
1000
0000
0010
0000
0100
0001
1000
0000
;
