#TITLE:Dead or Like;
#SUBTITLE:;
#ARTIST:P丸様。;
#TITLETRANSLIT:Dead or Like;
#SUBTITLETRANSLIT:;
#ARTISTTRANSLIT:Pmaru sama.;
#GENRE:POP;
#CREDIT:;
#MUSIC:Dead or Like.ogg;
#BANNER:Dead or Like.png;
#BACKGROUND:Dead or Like-bg.png;
#CDTITLE:;
#SAMPLESTART:38.470;
#SAMPLELENGTH:12.308;
#SELECTABLE:YES;
#OFFSET:1.530;
#BPMS:0.000=156.000;
#STOPS:;
#LASTBEATHINT:1.305179;
#BGCHANGES:6.250=Dead or Like.avi=1.000=0=0=0=StretchNoLoop====,
99999.000=-nosongbg-=1.000=0=0=0=StretchNoLoop====
;
#FGCHANGES:;

//--------------- dance-single - ----------------
#NOTES:
     dance-single:
     :
     Medium:
     10:
     0.489504,0.511843,0.401613,0.093995,0.025635,401,354,47,11,0,0,0.489504,0.511843,0.401613,0.093995,0.025635,401,354,47,11,0,0:
0000
0000
0000
0000
,
0000
0000
0000
0000
,
0000
0000
0000
0000
,
0000
0000
0000
0000
,
0000
0000
0000
0000
,
0000
0000
0000
0000
,
0001
0000
0010
0000
0001
1000
0000
0100
,
0000
1000
0001
0000
0000
1000
0010
0100
,
0000
0001
1000
0001
1000
0001
0010
0100
,
0000
1000
0001
1000
0001
0100
0010
0000
,
0110
0000
1001
0000
1000
0010
0100
0000
,
0100
0000
0001
1000
0100
0000
0010
0000
,
0011
0000
1100
0000
1000
0010
0100
0000
,
0001
0100
1000
0100
0002
0000
2000
3003
,
0110
0000
1001
0000
0001
0010
0100
0000
,
1000
0001
0010
0000
0100
0000
1000
0010
,
0100
0100
0010
0010
,
1000
0100
0001
0100
1000
0000
1000
0010
,
0100
0000
0001
0000
1000
0100
0000
0010
,
0000
0100
0000
1000
0010
0000
0001
0010
,
0000
0000
1000
0000
1000
0001
0000
0010
,
0000
0010
0000
0100
1000
0000
0110
0000
,
0001
0000
0001
0000
0010
0100
0000
0010
,
0000
0010
0000
0001
1000
0000
0101
0000
,
0000
0000
1000
0000
1000
0010
0000
0100
,
0000
0100
0000
0100
0001
1000
0000
0000
,
1100
0000
0011
0000
0010
0001
1000
0000
,
0101
0000
1010
0000
0010
1000
0001
0000
,
0110
0000
0110
0000
1000
0010
0001
0000
,
0010
0000
1000
0100
0000
0100
1000
0000
,
1010
0000
0101
0000
0100
0001
0010
0000
,
0011
0000
1100
0000
0100
1000
0001
0000
,
1010
0000
0011
0000
0001
1000
0000
1100
,
0000
0100
1000
0010
0100
0001
1000
0000
,
0010
0000
0010
0000
0100
0000
0100
0001
,
1000
0000
1000
0000
0001
0000
0001
0010
,
0100
0000
0100
0000
1000
0000
1000
0010
,
0200
0302
0023
0230
,
1300
0000
0001
0100
0010
0000
0010
0100
,
0000
0001
0010
0100
1000
0000
1000
0001
,
0000
0100
0010
0100
0010
0000
1000
0010
,
0000
0010
0100
0000
0110
0000
1001
0000
,
0011
0000
1100
0000
1000
0010
0100
0001
,
0000
1000
0100
1000
0100
0000
0100
0010
,
0000
0001
0010
0100
1000
0000
1000
0001
,
0000
0001
1000
0001
0100
0100
0010
0000
,
0110
0000
0000
0000
1000
0000
0010
0000
0100
0000
0000
0100
0000
0000
0001
0000
,
0000
0000
0001
0000
0010
0000
0100
0000
1000
0000
0000
1000
0000
0000
0010
0000
,
0000
0010
0100
0000
0001
0000
1000
0000
,
1000
0001
0010
0000
0010
0100
1000
0001
,
0000
0000
0000
0000
,
1100
0000
0101
0000
0001
0100
1000
0000
,
1100
0000
0101
0000
0001
0010
1000
0000
,
0010
0001
0100
0000
0010
1000
0100
0000
,
0020
0000
0032
0000
1003
0010
0000
0000
,
1010
0000
0011
0000
0001
0010
1000
0000
,
1010
0000
0011
0000
0001
0100
0010
0000
,
0110
0000
0110
0000
0001
1000
0000
0011
,
0000
0001
0010
0100
2000
0000
3020
0000
,
0130
0000
0000
0000
0110
0000
0000
0000
0010
0000
0000
1000
0000
0000
0001
0000
,
0000
1000
0100
0001
0100
0000
1000
0001
,
0100
0000
0000
0000
0110
0000
0000
0000
1000
0000
0000
0001
0000
0000
0100
0000
,
0000
0010
1000
0100
0020
0000
0130
0000
,
1100
0000
0000
0000
0011
0000
0000
0000
0010
0000
0000
0100
0000
0000
0010
0000
,
0000
0001
1000
0000
1000
0010
0000
0100
,
0001
0000
0000
0000
1001
0000
0000
0000
1000
0000
0000
0010
0000
0000
0100
0000
,
0000
0100
0001
1000
0100
0000
1100
0000
,
0010
0000
1001
0000
0001
0100
0000
1000
,
0000
0100
0000
0001
0010
0100
1000
0100
,
0010
0000
0010
0000
0001
1000
0000
0010
,
0000
0100
0001
1000
0001
1000
0100
0000
,
0010
0000
0110
0000
1000
0010
0000
0100
,
0000
0001
0000
0001
0010
0100
1000
0010
,
0100
0000
0101
0000
0001
1000
0000
0010
,
0000
0010
0000
0100
0001
1000
0000
1100
;

//--------------- dance-single - ----------------
#NOTES:
     dance-single:
     :
     Hard:
     14:
     0.62012,0.70496,0.435793,0.478518,0.170899,508,457,51,56,0,0,0.62012,0.70496,0.435793,0.478518,0.170899,508,457,51,56,0,0:
0000
0000
0000
0000
,
0000
0000
0000
0000
,
0000
0000
0000
0000
,
0000
0000
0000
0000
,
0000
0000
0000
0000
,
0000
0000
0000
0000
,
1100
0000
0101
0000
0001
1000
0000
1000
,
0000
0010
0100
0000
0000
0001
1000
0100
,
0000
0000
0100
0000
0100
0000
0100
0000
0100
0000
0100
1000
0001
0000
0100
0000
,
0000
0000
0110
0000
0001
0000
0110
0000
1000
0000
0100
0001
1000
0000
0100
0000
,
0110
0000
0000
0000
1001
0000
0000
0000
0001
0000
1000
0100
1000
0000
0010
0000
,
0100
0001
0100
1000
0200
0010
0310
1000
,
1100
0000
0000
0000
0011
0000
0000
0000
1000
0000
0001
0100
0001
0000
0010
0000
,
0100
1000
0010
0100
0002
0000
1003
0000
,
0101
0000
0000
0000
1010
0000
0000
0000
0001
0000
0010
0100
0010
0000
0001
0000
,
1000
0010
0001
0010
1000
0000
1000
0100
,
0010
0000
0001
0000
0011
0000
0000
0000
1001
0000
0000
1000
0010
0000
0100
0000
,
0010
0000
1000
0000
0100
0000
0010
0000
0100
0000
0000
1000
0001
0000
0100
0000
,
1000
0000
1000
0100
0001
1000
0000
1100
,
0000
0011
0000
0001
0010
1000
0010
0100
,
0000
0000
0100
1000
0001
0100
0000
0101
,
0000
1100
0000
1000
0001
0100
0000
0100
,
0001
0000
0010
0100
1000
0001
0000
0101
,
0000
1100
0000
1000
0001
0100
0001
0010
,
0000
0000
0100
0000
1000
0001
0000
0110
,
0000
1001
0000
1000
0010
0100
0000
0000
,
0110
0000
0000
0000
1001
0000
0001
0000
1000
0000
0001
0100
0001
0000
1000
0100
,
1000
0000
0010
0100
0001
1000
0100
0010
,
0002
0000
0000
0000
0103
0000
0010
0100
0010
0000
0100
0010
0100
0000
0001
0000
,
2000
0000
3001
0010
0100
0020
0000
0130
,
0110
0000
0000
0000
1001
0000
1000
0000
0010
0000
1000
0100
1000
0000
0001
0100
,
0001
0000
0010
0100
0010
0001
1000
0010
,
0101
0000
1100
0000
1001
0010
0000
0110
,
0000
0000
0001
0010
0100
0000
1000
0010
0100
0000
0001
0000
1000
0000
0000
0000
,
1000
0000
0100
0000
1000
0000
0001
0000
1000
0000
0010
0100
1000
0000
0100
0000
,
0001
0000
0100
0000
0001
0000
1000
0000
0001
0000
0010
0100
0001
0000
0100
0000
,
1000
0000
1100
0000
0000
0000
0101
0000
0000
0000
0001
1000
0100
0000
0010
0000
,
0001
0100
1000
0100
0001
0010
0100
1000
,
0001
0000
0000
0000
0000
0000
1000
0000
0000
0010
0000
0000
0100
0000
0000
0000
0000
0100
0000
0000
0000
0002
0000
0000
,
0000
0000
0000
1003
0000
0000
0100
0000
0000
1000
0000
0000
0001
0000
0000
0000
0000
0001
0000
0000
0000
0200
0000
0000
,
0000
0310
1000
0100
0001
1000
0010
0100
,
0000
0100
1000
0010
0100
1000
0100
0001
,
0020
0000
0000
0000
0000
0000
0130
0000
0000
1000
0000
0000
0002
0000
0000
0000
0000
0100
0000
0000
0000
0203
0000
0000
,
0000
0000
0000
0301
0000
0000
0010
0000
0000
0100
0000
0000
2000
0000
0000
0000
0000
0010
0000
0000
0000
3200
0000
0000
,
0000
0310
0001
1000
0001
0010
0001
1000
,
0000
0101
1000
1100
0001
0100
0110
0000
,
0001
0000
0000
0000
0000
0000
1000
0000
0000
0100
0000
0000
1100
0000
0000
0000
0000
0011
0000
0000
0000
1100
0000
0000
,
0000
0000
0000
1000
0000
0000
0010
0000
0000
0100
0000
0000
0101
0000
0000
0000
0000
1010
0000
0000
0000
0101
0000
0000
,
0000
0001
0010
1000
0010
0001
1000
0010
,
0000
0010
0100
1000
0100
0001
0010
0200
,
0000
0000
0010
0310
,
0001
0000
1000
0010
0200
0000
1000
0000
0302
0000
0010
0000
1003
0000
0001
0010
,
0200
0001
2300
0010
3001
0010
0100
1000
,
1001
0000
0001
0100
0001
0000
0100
0010
0100
0000
1000
0100
1000
0000
0100
0000
,
0002
0000
1003
0100
0010
0002
0000
1003
,
0010
0000
1000
0100
0020
0000
1000
0000
0032
0000
0100
0000
1003
0000
0001
0100
,
0020
0001
2030
0100
3001
0010
0100
1000
,
1100
0000
0101
0000
1001
0010
0000
0110
,
0000
0000
0001
0100
1000
0000
0100
0000
0001
0000
1000
0000
0200
0000
0000
0000
,
0320
0000
0000
0000
0000
0000
0032
0000
0000
0000
0000
0000
1000
0000
0000
0000
0000
1000
0000
0000
0000
0203
0000
0000
,
0000
0301
0010
1000
0010
0002
0000
2003
,
0010
0000
0000
0000
0000
0000
3020
0000
0000
0000
0000
0000
0100
0000
0000
0000
0000
0100
0000
0000
0000
2030
0000
0000
,
0000
0000
3001
0010
0100
0000
0010
0000
0001
0000
1000
0010
0200
0000
0000
0000
,
0001
0000
0000
0000
0000
0000
0302
0000
0000
0000
0000
0000
1000
0000
0000
0000
0000
1000
0000
0000
0000
0203
0000
0000
,
0000
0310
1000
0001
0010
0200
0000
1000
,
1300
0000
0000
0000
0000
0000
0101
0000
0000
0000
0000
0000
1100
0000
0000
0000
0000
0110
0000
0000
0000
1001
0000
0000
,
0000
0001
0100
1000
0001
0010
2000
0000
,
3001
0010
0002
0000
1003
0200
0000
0310
,
0000
0000
0010
0000
0001
0000
1000
0001
0020
0000
0230
0000
2300
0000
3002
0000
,
0103
0000
0110
0000
2000
3002
0000
0103
,
0000
0200
0302
2000
3003
1001
0100
0000
,
1100
0000
0020
0000
0031
2000
0000
0010
,
0000
0000
3010
0000
0100
0000
0001
1000
0200
0000
0320
0000
0032
0000
2003
0000
,
3010
0000
0110
0000
0001
2000
0000
0100
,
0000
3100
0010
0001
1000
0010
2000
0002
,
3003
0000
0000
0000
;

//--------------- dance-single - ----------------
#NOTES:
     dance-single:
     :
     Challenge:
     17:
     0.897221,0.927716,0.734867,0.495608,0.679325,735,649,86,58,0,0,0.897221,0.927716,0.734867,0.495608,0.679325,735,649,86,58,0,0:
0000
0000
0000
0000
,
0000
0000
0000
0000
,
0000
0000
0000
0000
,
0000
0000
0000
0000
,
0000
0000
0000
0000
,
0000
0000
0000
0000
,
1100
0000
0101
0000
1001
0010
0100
0010
,
0000
0000
0000
1000
0000
0000
0001
0000
0000
0000
0000
0000
0001
0000
0000
1000
0100
1000
0100
0000
0000
1000
0000
0000
,
0001
0000
0000
0100
0000
0000
0110
0000
0000
0010
0000
0000
0110
0000
0000
0100
0000
0001
0010
0000
0000
0100
0000
0000
,
1000
0000
0000
0001
0000
0100
0010
0000
0010
0100
0000
0100
0010
0000
0000
0100
0000
0001
1000
0000
0000
0100
0000
0000
,
1100
0000
0000
0000
0011
0000
0000
0001
1000
0000
0001
0010
1000
0000
0001
0000
,
0100
1000
0001
1000
0020
0100
0130
0001
,
0101
0000
0000
0000
1010
0000
0000
0000
0001
0000
1000
0010
0001
0000
0010
0000
,
1000
0000
0001
0010
0100
0000
1000
0001
0100
0000
1020
0000
0230
0000
0301
0000
,
1001
0000
0000
0000
0110
0000
0000
0000
0101
0000
0100
0001
0010
0000
0100
0000
,
0001
0000
0100
0000
1000
0000
0010
0000
0001
0000
0010
0000
0110
0000
1000
0010
,
0100
0000
0001
0000
0101
0000
0000
0000
1001
0000
0000
0001
0010
0000
0100
1000
,
0010
0000
1000
0000
0100
0000
0001
0000
1000
0000
0000
0001
0100
0000
1000
0000
,
1100
0000
1000
0101
0010
0100
0000
1010
,
0010
0000
0000
0100
0000
0001
0000
0000
1000
0100
0000
0000
0010
0000
0000
0001
0000
0000
0100
0000
0000
0011
0000
0000
,
1000
0000
0001
1100
0010
0100
0000
0011
,
1000
0000
0000
0010
0000
0100
0000
0000
0001
1000
0000
0000
0100
0000
0000
0020
0000
0000
0000
0000
0000
0130
0000
0000
,
0110
0000
0000
0000
0000
0000
0010
0000
0000
0101
0000
0000
1000
0000
0000
0010
0000
0100
0000
0000
0001
1000
0000
0000
,
0010
0000
0000
0100
0000
0001
0000
0000
0000
1000
0000
0100
0010
0000
0000
0100
0000
0000
1000
0000
0000
0011
0000
0000
,
0100
0000
0001
1010
0100
0010
0000
1001
,
0001
0000
0000
1000
0000
0010
0000
0000
0000
0110
0000
0000
0100
0000
0000
1001
0000
0000
0000
0000
0000
0000
0000
0000
,
1001
0000
0000
0000
0000
0000
0110
0000
0000
0001
0000
1000
0100
0000
0000
0100
0000
1000
0010
0000
0000
0100
0000
0001
,
1000
0000
0000
0000
0000
0000
1001
0000
0000
1000
0000
0000
0010
0000
0000
0100
0000
0001
0010
0000
0000
0010
0000
0001
,
1000
0000
0000
0000
0000
0000
1001
0000
0000
0100
0000
0010
0100
0000
0000
0100
0000
0100
0010
0000
0000
0100
0000
0000
,
0120
0000
0000
0000
0000
0000
0130
0000
0000
0001
0000
1000
0001
0000
0000
2001
0000
0000
0100
0000
0000
3100
0000
0000
,
0110
0000
0000
0000
0000
0000
1001
0000
0000
0001
0000
0100
0010
0000
0000
0010
0000
1000
0001
0000
0000
0010
0000
0010
,
0100
0000
0000
0000
0000
0000
1100
0000
0000
0001
0000
0000
1000
0000
0000
0010
0000
0100
0010
0000
0000
1000
0000
0000
,
0021
0130
1020
0130
0021
0130
0000
0120
,
0000
0000
0000
0031
0000
0100
1000
0000
0000
0100
0000
0001
1000
0000
0000
0100
0000
0000
0010
0000
0000
0100
0000
1000
,
0001
0000
0000
0100
0000
0000
0001
0000
0000
1000
0000
0000
0001
0000
0000
0010
0000
0100
0001
0000
0000
0100
0000
0000
,
1000
0000
0000
0100
0000
0000
1000
0000
0000
0001
0000
0000
1000
0000
0000
0010
0000
0100
1000
0000
0000
0100
0000
0000
,
0010
0000
0000
0101
0000
0000
0010
0000
0000
1100
0000
0000
0010
0000
0000
0101
0000
0001
0010
0000
0000
0100
0000
0000
,
2100
0000
0000
0000
0000
0000
3020
0000
0000
0230
0000
0000
0302
0000
0000
0023
0000
0000
0130
0000
1000
0001
0000
0000
,
0110
0000
0000
1000
0000
0000
0010
0000
0000
0100
0000
0000
0001
0000
0000
0010
0000
0100
1000
0000
1000
0002
0000
0000
,
0000
0000
0000
1003
0000
0000
0110
0000
0000
0001
0000
0000
0010
0000
0000
0100
0000
0010
0001
0000
0001
0200
0000
0000
,
0000
0000
0000
0310
0000
0000
1000
0000
0000
0010
0000
0000
0001
0000
0000
0010
0000
1000
0001
0000
0000
0201
0000
0000
,
0000
0000
0000
0310
0000
1000
0100
0000
0010
1000
0000
0001
0100
0000
0010
0001
0000
1000
0010
0000
0000
0100
0000
0000
,
1001
0000
0000
1000
0000
0000
0010
0000
0000
0100
0000
0001
0010
0000
0000
0010
0000
0100
0000
0000
1000
0002
0000
0000
,
0000
0000
0000
0103
0000
0000
0010
0000
0000
1000
0000
0100
0010
0000
0000
0010
0000
0001
0000
0000
1000
0020
0000
0000
,
0000
0000
0000
0130
0000
0010
0100
0000
0000
0010
0000
0100
0010
0000
0000
0100
0000
0010
0100
0000
0000
0110
0000
0000
,
0000
0000
0000
0101
0000
0001
1000
0000
0000
1100
0000
1000
0001
0000
0000
0100
0000
0000
0110
0000
0000
0000
0000
0000
,
0001
0000
0000
1000
0000
0010
0100
0000
0001
1000
0000
0000
1010
0000
0000
0000
0000
0101
0000
0000
0000
1001
0000
0000
,
1000
0000
0000
0001
0000
0100
0010
0000
1000
0001
0000
0000
0011
0000
0000
0000
0000
1100
0000
0000
0000
1001
0000
0000
,
0100
0110
0001
1001
0010
0110
1000
1001
,
0001
0000
1000
0010
0000
0010
0001
0000
1000
0100
0000
0100
0001
0000
0000
1000
0000
0001
0010
0000
0010
0200
0000
0000
,
0000
0000
0000
0000
0000
0000
0000
0000
0000
0000
0000
0000
0310
0000
0000
0001
0000
0100
0010
0000
0000
0100
0000
0000
,
1001
0000
0000
1000
0000
0010
0100
0000
0000
0001
0000
0010
0100
0000
0000
1000
0000
0100
0001
0000
0100
1000
0000
0010
,
0100
0000
0000
0001
0000
0010
0100
0000
0000
1000
0000
0010
0100
0000
0000
0001
0000
0100
1000
0000
0100
0001
0000
0000
,
0110
0000
0000
0010
0000
1000
0001
0000
0000
0010
0000
0001
1000
0000
0010
0100
0000
0100
0010
0000
0000
0100
0000
0000
,
0110
0000
0000
0000
0000
0000
1010
0000
0000
1000
0000
0010
0100
0000
0000
0001
0000
0000
1000
0000
0000
0100
0000
0000
,
0110
0000
0000
0001
0000
0100
0010
0000
0000
1000
0000
0100
0010
0000
0001
0100
0000
1000
0100
0000
0001
0010
0000
0000
,
0110
0000
0000
1000
0000
0100
0010
0000
0000
0001
0000
0100
0010
0000
0000
1000
0000
0100
0001
0000
0100
1000
0000
0000
,
1020
0130
0021
0130
1020
0130
0001
1001
,
0000
0000
0000
1000
0000
0100
0010
0000
0000
0100
0000
0000
1000
0000
0000
0001
0000
0100
0010
0000
0000
0100
0000
0000
,
0110
0000
0000
0000
0000
0000
0110
0000
0000
0000
0000
0000
1010
0000
0000
0100
0000
0001
0010
0000
0000
0100
0000
0000
,
1000
0001
1000
0001
0000
0000
0100
0000
0000
0010
0000
0000
1000
0000
0000
0001
0000
0010
0100
0000
0000
1000
0000
0000
,
1100
0000
0000
0000
0000
0000
1100
0000
0000
0000
0000
0000
1001
0000
0000
0001
0000
1000
0010
0000
0000
0100
0000
0000
,
0001
1000
0001
1000
0000
0010
0100
0000
0000
0001
0000
0000
1000
0100
0010
0001
0000
0000
1000
0010
1000
0010
0100
0001
,
0010
0000
0000
0000
0000
0000
0110
0000
0000
1000
0000
0000
0001
0000
0000
0100
0000
0010
0100
0000
0000
0110
0000
0000
,
0001
1000
0001
1000
0000
0000
0010
0000
0000
0100
0000
0000
0001
0000
0000
1000
0000
0100
0010
0000
0000
0100
0000
0000
,
1000
0100
1000
0001
0000
0000
0101
0000
0000
0100
0000
0000
0110
0000
0000
0010
0000
1000
0001
0000
0000
0011
0000
0000
,
0010
0100
1000
0002
0000
0000
2003
0000
0000
3200
0000
0000
0320
0000
0000
0031
0000
1000
0010
0000
0000
0100
0000
0000
,
0001
0010
0100
1000
0000
0000
0020
0000
0000
0000
0000
1030
0002
0000
0000
2003
0000
0000
0100
0000
0000
3002
0000
0000
,
0013
0100
0010
0002
0000
0000
0203
0000
0000
0310
1000
0001
2000
0000
0000
3020
0000
0000
0230
0000
0000
0302
0000
0000
,
0013
0100
1000
0020
0000
0000
0100
0000
0000
0130
0000
0001
2000
0000
0000
3020
0000
0000
1000
0000
0000
0230
0000
0000
,
0301
0010
0100
0020
0000
0000
0032
0000
0000
0203
0000
0000
0302
0000
0000
2003
0000
3010
0200
0000
0000
0301
1000
0010
,
0100
0010
1000
0001
0000
0000
0020
0000
0000
0100
0000
0000
0230
0000
0000
2300
0000
3010
0200
0000
0000
0302
0000
0000
,
0013
0100
1000
0020
0000
0000
0230
0000
0000
0301
0010
0100
2000
0000
0000
3020
0000
0130
0002
0000
0000
0023
0000
0000
,
0130
1000
0100
0020
0000
0000
0230
0000
0000
1000
0000
0000
2300
0000
0000
3002
0000
0103
0010
0000
0000
0020
0000
0000
,
0130
1000
0001
0020
0000
0000
0001
0000
0000
0230
0000
0000
1300
0000
0010
0100
0000
0001
1000
0000
0010
0100
0000
0000
;
