#TITLE:誰彼スクランブル;
#SUBTITLE:;
#ARTIST:halca;
#TITLETRANSLIT:DareKareScramble;
#SUBTITLETRANSLIT:;
#ARTISTTRANSLIT:halca;
#GENRE:Anime;
#CREDIT:;
#BANNER:DareKareScramble.png;
#BACKGROUND:DareKareScramble-bg.png;
#LYRICSPATH:;
#CDTITLE:;
#MUSIC:DareKareScramble.ogg;
#OFFSET:1.078000;
#SAMPLESTART:58.922001;
#SAMPLELENGTH:13.600000;
#LASTBEATHINT:0.195000;
#SELECTABLE:YES;
#BPMS:0.000000=150.000000
;
#STOPS:68.000000=0.200000,
68.500000=0.200000
;
#BGCHANGES:2.375=DareKareScramble.avi=1.000=0=0=0=====,
99999=-nosongbg-=1.000=0=0=0 // don't automatically add -songbackground-
;
#KEYSOUNDS:;
#ATTACKS:;

//---------------dance-single - ----------------
#NOTES:
     dance-single:
     :
     Medium:
     12:
     0.628090,0.677814,0.544027,0.410796,0.194295,396.000000,347.000000,49.000000,37.000000,0.000000,0.000000,0.628090,0.677814,0.544027,0.410796,0.194295,396.000000,347.000000,49.000000,37.000000,0.000000,0.000000:
0000
0000
0000
0000
,
0000
0000
0000
0000
,
0001
1000
0000
1000
0010
0000
1000
0001
0000
0001
0010
0000
0100
0000
1000
0000
,
1100
0000
0000
0011
0000
0000
0101
0000
0000
1010
0000
0000
1001
0000
0000
0000
,
0001
0100
0010
0100
0001
0010
1000
0010
,
0001
0000
1000
0000
0010
0100
0000
0210
0000
0000
0000
0000
0301
0000
0000
0000
,
1000
0100
0001
0000
0001
0100
1000
0000
,
0001
0100
1000
0200
0000
0001
0301
0000
,
0011
0000
0000
0000
0101
0000
0000
0000
1100
0000
0000
1010
0000
0000
0000
0110
,
0000
1000
0001
0000
0010
0000
0100
0000
2000
0000
0000
3020
0000
0000
0000
0000
,
0130
0001
0010
0100
0010
0001
1000
0000
,
0010
0100
0010
0001
0010
1000
0100
0000
,
0010
0001
1000
0000
0010
1000
0001
0000
,
0011
1100
0110
0110
,
0001
0010
0001
0010
0100
1000
1100
0000
,
1000
0010
1000
0010
0100
0001
0101
0000
,
0001
0010
0100
0000
1000
0010
0100
0000
,
2002
3003
0000
0000
0000
0000
0000
0000
0000
0000
0000
0000
0000
0000
0000
0000
0000
0000
0000
0000
0000
0000
0000
0000
2002
3003
0000
0000
0000
0000
0000
0000
0000
0000
0000
0000
0000
0000
0000
0000
0000
0000
0000
0000
0000
0000
0000
0000
0001
0000
0000
0000
0000
0000
0000
0000
0000
0000
0000
0000
0000
0000
0000
0000
0000
0000
0000
0000
0000
0000
0000
0000
0000
0000
0000
0000
0000
0000
0000
0000
0000
0000
0000
0000
0000
0000
0000
0000
0000
0000
0000
0000
0000
0000
0000
0000
1000
0000
0000
0000
0000
0000
0000
0000
0000
0000
0000
0000
0000
0000
0000
0000
0000
0000
0000
0000
0000
0000
0000
0000
0000
0000
0000
0000
0000
0000
0000
0000
0000
0000
0000
0000
0000
0000
0000
0000
0000
0000
0000
0000
0000
0000
0000
0000
0001
0000
0000
0000
0000
0000
0000
0000
0000
0000
0000
0000
0000
0000
0000
0000
0000
0000
0000
0000
0000
0000
0000
0000
0100
0000
0000
0000
0000
0000
0000
0000
0000
0000
0000
0000
0000
0000
0000
0000
0000
0000
0000
0000
0000
0000
0000
0000
,
1000
0100
0001
0010
0100
0000
0010
0001
,
0100
0010
1000
0001
0010
0100
1000
0010
,
0001
0010
1000
0100
0010
0000
0001
0010
,
0100
1000
0001
0001
0100
0100
0020
0000
,
2030
0000
0000
0000
3001
0000
0010
0000
0100
0000
0000
0000
1100
0000
0000
1001
,
0000
0000
0000
0000
0101
0000
0000
1001
0000
0000
1000
0000
0020
0000
0000
0000
,
0230
0000
0302
0000
0010
0013
0000
1001
,
1001
0000
1001
0000
1001
0000
2000
0000
0000
3002
0000
0000
0013
0000
0100
0000
,
1000
0100
0010
0100
1000
0100
0010
0001
,
0010
0000
0100
0000
0010
0000
0002
0000
0000
0203
0000
0000
0301
0000
0100
0000
,
0010
0100
0001
0100
1000
0100
0001
0101
,
0000
1100
0000
0101
0000
1100
1000
0001
,
1000
0010
0100
0001
0010
0000
0010
0100
,
1000
0001
0100
1000
0100
0000
0100
0001
,
1000
0000
0000
0000
1000
0000
0100
0000
0010
0000
0100
0000
2000
0000
0000
3020
,
0000
0230
0000
0301
0010
0100
2000
0000
,
0000
0000
0000
3002
,
0203
0320
1030
0101
,
0000
0000
1100
0000
0000
0000
0000
0000
0001
0100
0001
0100
0001
0000
0010
0000
,
0000
0100
0000
0000
1000
0000
0020
0000
0000
0000
0130
0000
0001
0000
1000
0000
,
0001
0000
1000
0100
0000
1000
0100
0000
0010
0000
0001
0000
2000
0000
3200
0000
,
0320
0032
1003
0110
1001
0000
1000
0010
,
1000
0000
0001
0100
0000
0001
0100
0000
0010
0000
1000
0000
0020
0000
0000
0000
,
0230
0000
0302
0000
0023
0000
0130
1000
,
0010
0001
1000
0100
0001
0000
1000
0100
,
0001
1000
0010
0001
1000
0000
0001
0100
,
0001
0100
0000
0010
1000
1100
0000
0011
,
0000
0101
0000
0010
1000
0000
1000
0001
,
0100
0000
0010
1000
0000
0001
0010
0000
0100
0000
1000
0000
0001
0000
0100
0000
,
1000
0100
0010
0110
1001
0000
0001
1000
,
0010
0000
0100
0001
0000
1000
0001
0000
0010
0000
0100
0000
2000
0000
0000
0000
,
3002
0000
2003
0000
3002
0000
0103
0010
,
0100
0000
0010
0000
1001
0000
0010
0000
0100
0000
0010
0000
1001
0000
0000
1001
,
0000
0100
0010
0000
1001
0000
0001
0100
,
0010
0000
0010
1000
0001
0000
0001
0010
,
0100
0000
0000
0000
0100
0000
1000
0000
0001
0000
0100
0000
0001
0010
0000
0010
,
0100
0000
1000
0010
0000
0010
0100
0000
0001
0000
1000
0000
1100
0000
0000
0011
,
0000
0000
0101
0000
0000
1010
0000
0000
1001
0000
0000
0000
0000
0000
0000
0000
;

//---------------dance-single - ----------------
#NOTES:
     dance-single:
     :
     Hard:
     16:
     0.945307,0.924291,0.488514,0.111026,1.132465,596.000000,552.000000,44.000000,10.000000,0.000000,0.000000,0.945307,0.924291,0.488514,0.111026,1.132465,596.000000,552.000000,44.000000,10.000000,0.000000,0.000000:
0000
0000
0000
0000
,
0000
0000
0000
0000
,
0001
0100
0000
0001
0010
0000
0100
1000
0000
0001
0100
0000
0010
0100
0001
0010
,
1000
0000
0000
1010
0000
0000
0011
0000
0000
0101
0000
0000
0001
0100
0001
0100
,
1000
0000
0100
0000
0001
0010
0000
0100
0000
1000
0001
0000
0100
0000
1000
0000
,
0100
0000
0001
0010
0100
0010
0001
1000
0000
0000
0010
0000
0100
0001
1000
0100
,
0010
0000
0001
1000
0000
0010
0000
0100
0000
0100
0001
0000
0010
0100
1000
0000
,
0001
0000
0100
0000
1000
0100
0002
0000
0000
1003
0100
1000
0100
1000
0100
1000
,
0010
0000
0100
0000
0101
0000
0000
0000
0011
0000
0000
1100
0000
0000
0000
1001
,
0000
0001
0100
0000
0010
0000
0100
0001
0010
0100
1000
0020
0000
0000
0030
0000
,
0110
1000
0001
0010
1100
0000
1000
0001
,
0101
1000
1100
0001
0010
0100
1000
0001
,
0110
0000
0100
0010
1001
0000
0001
0010
,
1100
0000
0000
0000
0011
0000
0000
0000
0001
1000
0000
1000
0010
0100
0010
0100
,
0001
0000
1000
0000
0001
0000
0010
0100
0010
0000
0100
0000
1001
0000
1000
0010
,
0100
1000
0100
0001
0010
0100
1001
0001
,
0010
0000
0100
0000
0010
0000
0001
1000
0001
0000
0100
0000
0010
1000
0100
0010
,
0002
0003
0000
0000
0000
0000
0000
0000
0000
0000
0000
0000
0000
0000
0000
0000
0000
0000
0000
0000
0000
0000
0000
0000
2000
3000
0000
0000
0000
0000
0000
0000
0000
0000
0000
0000
0000
0000
0000
0000
0000
0000
0000
0000
0000
0000
0000
0000
0001
0000
0000
0000
0000
0000
0000
0000
0000
0000
0000
0000
0100
0000
0000
0000
0000
0000
0000
0000
0000
0000
0000
0000
0000
0000
0000
0000
0000
0000
0000
0000
0000
0000
0000
0000
0100
0000
0000
0000
0000
0000
0000
0000
0000
0000
0000
0000
0000
0000
0000
0000
0000
0000
0000
0000
0000
0000
0000
0000
0100
0000
0000
0000
0000
0000
0000
0000
0000
0000
0000
0000
0010
0000
0000
0000
0000
0000
0000
0000
0000
0000
0000
0000
1000
0000
0000
0000
0000
0000
0000
0000
0000
0000
0000
0000
0001
0000
0000
0000
0000
0000
0000
0000
0000
0000
0000
0000
0000
0000
0000
0000
0000
0000
0000
0000
0000
0000
0000
0000
0010
0000
0000
0000
0000
0000
0000
0000
0000
0000
0000
0000
0000
0000
0000
0000
0000
0000
0000
0000
0000
0000
0000
0000
,
0100
1000
0001
0010
0000
0010
0200
0000
1000
0000
1300
0001
0100
0001
0010
0100
,
1000
0100
1000
0001
0100
0010
0100
0000
0010
0000
1001
0000
1000
0000
0010
0000
,
0100
0001
1000
0100
0000
0100
0010
0000
0010
0001
1000
0001
1000
0010
0000
0100
,
0001
1000
0000
0100
0000
0010
0100
0000
1000
0010
1000
0010
0200
0000
0301
0000
,
0020
0000
0000
0000
0130
0000
1000
0000
2002
0000
3003
0000
1001
0000
0100
0010
,
0000
0010
0100
0000
1010
0000
0010
1000
0000
1000
0001
0000
0001
0010
0100
2000
,
0000
0010
3010
0000
0101
0101
0000
1001
,
1001
0000
1001
0000
0001
0010
0100
1000
0001
0010
0100
1000
0010
0000
0100
0000
,
0010
1000
0100
1000
0010
1000
0100
0000
0010
0001
0100
0001
0010
0001
0100
0010
,
0100
0001
0100
1000
0100
0001
0010
0000
0100
1000
0000
1000
0001
0000
0100
0000
,
1000
0100
0010
0100
1000
0100
0001
0010
0100
0010
0001
0010
0100
0000
1100
0000
,
1000
0000
0101
0000
0100
0000
1001
0000
1000
0000
0001
0010
0100
0000
1000
0000
,
0001
0100
0010
0100
0001
0010
0100
0000
1000
0010
0100
0010
1000
0100
1000
0100
,
0001
1000
0010
1000
0010
0001
0100
0000
1000
0000
0100
0000
0001
0000
0010
0000
,
0100
0000
0000
1000
0000
0000
0100
0000
0000
1000
0000
0000
0100
0000
0000
0010
0000
0000
0001
0000
0000
0000
0000
0000
1000
0000
0000
0001
0000
0000
0100
0000
0010
0000
0100
0000
0010
0000
0000
0000
0000
0000
1000
0000
0000
0100
0000
0000
,
0000
0010
0100
0000
1000
0000
0001
0000
0100
0010
0100
0010
1000
0000
0000
0000
,
0000
0000
0000
0011
,
1100
0000
0000
0000
1010
0000
0000
0000
0101
0000
0000
0000
0001
0100
0000
0000
,
0000
0000
1000
0100
0000
0000
0000
0000
0001
1000
0001
1000
0001
0000
1001
0000
,
0000
0000
0000
0110
0000
0000
0000
0000
0000
0000
0000
0000
1001
0000
0000
0000
0000
0000
1000
0000
0100
0000
1000
0000
0100
0000
0000
0000
0000
0000
0010
0000
0000
0000
0000
0000
0011
0000
0000
0000
0000
0000
1000
0000
0000
0000
0000
0000
,
0001
0100
0001
0100
0000
0001
1000
0000
1000
0100
0010
0000
0001
0000
0100
0000
,
0010
1000
0100
1000
0001
0000
1000
0000
0010
0100
0010
0100
0001
0000
0010
0000
,
0100
1000
0001
0100
0000
0100
0010
0000
0010
1000
0100
0000
0010
0001
0000
0001
,
0100
1000
0100
0010
0000
0100
0001
1000
0100
1000
0100
0010
0001
0000
0100
0000
,
1000
0100
0010
1000
0000
1000
0001
0000
0001
0010
0100
0000
0001
0000
0100
0000
,
0010
0001
0100
0010
0000
0010
1000
0000
1000
0100
0010
0000
0100
0000
1000
0000
,
0001
0100
0001
0100
1000
0100
0001
0000
0010
0000
1100
0000
0000
0000
0110
0000
,
0000
0000
0011
0000
0000
0001
0100
0001
0100
0001
0100
0001
1000
0000
0100
0000
,
0010
0001
0100
0010
0000
1000
0001
0000
0010
0100
0010
0000
0001
0000
1000
0000
,
0001
0100
0010
0001
0000
1000
0100
0000
0100
0001
0010
0000
1000
0000
0010
0000
,
0100
1000
0100
1000
0000
1000
0001
0000
0001
0100
0010
0000
0100
0001
0000
1000
,
0100
0010
0100
1000
0000
0001
0100
0001
0100
0001
0100
0001
0010
0000
0100
1000
,
0100
1000
0100
1000
0010
0000
0100
0001
0100
0001
0100
0001
0010
0000
0010
1000
,
0000
0000
0000
0001
0000
0000
0100
0000
0000
0000
0000
0000
0100
0000
1000
0000
0100
0000
1000
0000
0100
0000
1000
0000
0001
0000
0000
0000
0000
0000
0000
0000
0000
0000
0000
0000
1000
0000
0000
0000
0000
0000
0010
0000
0000
0000
0000
0000
,
0100
0000
0001
0010
1000
0000
0010
0000
0001
0000
1000
0010
0001
0000
0010
0000
,
1000
0000
0001
0010
1000
0000
0001
0000
0100
0000
1000
0000
0001
0010
0000
0100
,
0010
0000
0000
0000
0000
0000
0001
0000
0000
1000
0000
0000
0000
0000
0000
0001
0000
0000
0100
0000
0010
0000
1000
0000
0010
0000
0000
1000
0000
0000
0010
0000
0000
1000
0000
0000
0001
0000
0000
0000
0000
0000
0000
0000
0000
0011
0000
0000
,
0000
0000
1100
0000
0000
0110
0000
0000
1001
0000
0000
0000
0000
0000
0000
0000
;

//---------------dance-single - ----------------
#NOTES:
     dance-single:
     :
     Challenge:
     18:
     1.175289,1.078340,0.732772,0.210949,1.615428,741.000000,675.000000,66.000000,19.000000,0.000000,0.000000,1.175289,1.078340,0.732772,0.210949,1.615428,741.000000,675.000000,66.000000,19.000000,0.000000,0.000000:
// measure 0
0000
0000
0000
0000
,  // measure 1
0001
0010
0100
0010
0001
0010
0100
1000
0010
0100
0010
1000
0010
0100
0010
1000
0001
0010
0100
0000
0000
0000
0000
0000
,  // measure 2
1000
0100
0000
0001
0100
0000
1000
0010
0000
0001
0010
0000
0010
1000
0100
0010
,  // measure 3
0001
0000
0001
0100
0000
0100
0010
0000
0010
1000
0000
0000
0001
0010
0001
0010
,  // measure 4
0100
0000
0010
0000
0001
1000
0000
1010
0000
1000
0010
0000
0100
0000
0001
0000
,  // measure 5
0010
0000
0100
1000
0100
1000
0001
0100
0000
0100
0010
0000
0010
1000
0001
0010
,  // measure 6
0100
0000
0001
0100
0000
0010
0000
0110
0000
0100
1000
0000
1000
0010
0001
0010
,  // measure 7
1000
0001
0010
1000
0001
0100
1000
0000
0000
0001
0100
0001
0100
0001
0010
0100
,  // measure 8
1000
0000
0001
0000
1100
0010
0000
1000
0101
0010
0000
0101
1000
0000
0001
1100
,  // measure 9
0000
0110
0110
0000
0101
0000
0101
1000
0010
0100
0001
0020
0000
0000
0000
0000
,  // measure 10
0130
0000
1000
0000
0001
0010
0100
1000
0010
0000
0100
0000
1000
0100
0001
0010
,  // measure 11
0100
0000
1000
0000
0110
0000
0001
0000
1000
0010
0100
0001
0010
0100
1000
0001
,  // measure 12
0100
0000
0010
1000
0000
1000
0001
0000
0010
0000
0100
0000
0010
0000
0001
0000
,  // measure 13
1100
0000
1000
0000
0010
0000
0100
0000
0001
1000
0000
1000
0100
0010
0001
0100
,  // measure 14
0010
0000
1000
0000
0010
0000
1000
0001
0010
0000
0100
0000
0110
0000
0010
0001
,  // measure 15
1000
0000
0001
0000
0100
0000
1000
0100
0001
0000
0010
0000
1100
0000
1000
0000
,  // measure 16
0001
0000
0100
0000
0110
0000
1000
0001
0010
0000
1000
0000
0001
0100
1000
0010
,  // measure 17
0220
0330
0000
0000
0000
0000
0000
0000
0000
0000
0000
0000
0000
0000
0000
0000
0000
0000
0000
0000
0000
0000
0000
0000
2002
3003
0000
0000
0000
0000
0000
0000
0000
0000
0000
0000
0000
0000
0000
0000
0000
0000
0000
0000
0000
0000
0000
0000
0001
0000
0000
0000
0000
0000
0000
0000
0000
0000
0000
0000
1000
0000
0000
0000
0000
0000
0000
0000
0000
0000
0000
0000
0000
0000
0000
0000
0000
0000
0000
0000
0000
0000
0000
0000
1000
0000
0000
0000
0000
0000
0000
0000
0000
0000
0000
0000
0000
0000
0000
0000
0000
0000
0000
0000
0000
0000
0000
0000
1000
0000
0000
0000
0000
0000
0000
0000
0000
0000
0000
0000
0001
0000
0000
0000
0000
0000
0000
0000
0000
0000
0000
0000
0100
0000
0000
0000
0000
0000
0000
0000
0000
0000
0000
0000
0010
0000
0000
0000
0000
0000
0000
0000
0000
0000
0000
0000
0000
0000
0000
0000
0000
0000
0000
0000
0000
0000
0000
0000
0110
0000
0000
0000
0000
0000
0000
0000
0000
0000
0000
0000
0000
0000
0000
0000
0000
0000
0000
0000
0000
0000
0000
0000
,  // measure 18
0010
1000
0001
0010
0000
0010
0100
0000
1000
0001
0100
0010
0100
0001
0010
0100
,  // measure 19
1000
0010
0100
0010
1000
0001
0010
0100
1000
0001
0010
0100
1000
0000
1100
0000
,  // measure 20
1000
0100
0010
0001
0000
0001
0100
0000
0010
1000
0100
0010
0001
1000
0010
0100
,  // measure 21
0010
1000
0100
0010
0000
0010
0001
0100
0010
0001
1000
0100
0020
0000
1030
0000
,  // measure 22
2100
0000
3100
0000
0011
0000
1100
0000
2001
0000
3001
0000
0011
0000
0100
1000
,  // measure 23
0000
1000
0001
0000
0101
0000
0010
1000
0000
1000
0100
0010
0001
1000
0010
0001
,  // measure 24
0000
1000
0100
0001
1000
0100
0010
0000
0100
0000
0110
0000
0000
0000
1001
0000
,  // measure 25
1001
0000
1001
0000
1001
0001
0010
0100
1000
0001
0010
0100
1000
0010
0100
0010
,  // measure 26
1000
0010
0001
0010
1000
0100
0010
0100
1000
0100
0001
0100
1000
0100
0010
0001
,  // measure 27
1000
0010
0001
1000
0100
0001
1000
0000
1000
0100
0000
0001
0100
1000
0100
0010
,  // measure 28
0001
0100
0010
0001
0010
0100
0001
1000
0100
0010
0001
1000
0100
0100
0002
1000
,  // measure 29
0103
0100
0020
1000
0130
0100
0002
1000
0103
0100
0020
1030
0100
0000
0011
0000
,  // measure 30
0001
0100
0010
1000
0100
0010
1000
0010
0001
0010
0100
1000
0001
0100
1000
0100
,  // measure 31
0001
0100
1000
0100
0001
0010
1000
0010
0001
0010
1000
0010
0001
0000
1100
0000
,  // measure 32
1000
0000
0000
0010
0000
0000
0100
0000
0000
1000
0000
0000
0100
0000
0000
0010
0000
0000
1000
0000
0000
0100
0000
0000
0001
0000
0000
1000
0000
0000
0010
0000
0001
0000
0100
0000
1000
0000
0000
0000
0000
0000
0100
0000
0000
0010
0000
0000
,  // measure 33
0000
1000
0100
0000
0011
0000
0010
0100
1000
0001
0100
0010
1000
0000
0000
0000
,  // measure 34
0000
0000
0000
0000
0000
0000
1002
0013
,  // measure 35
2100
0000
3010
0000
0210
0000
0301
0000
0001
0010
0100
1000
1100
1100
0000
0000
,  // measure 36
0000
0000
0101
0101
0000
0000
0000
0000
0101
0001
1000
0100
1100
0000
0101
0000
,  // measure 37
0000
0000
0000
1001
0000
0000
0000
0000
0000
0000
0000
0000
1100
0000
0000
0000
0000
0000
1000
0000
0100
0000
0010
0000
1001
0000
0000
0000
0000
0000
0100
0000
0000
0000
0000
0000
1010
0000
0000
1000
0000
0000
0100
0000
0000
1000
0000
0000
,  // measure 38
0010
1000
0100
0100
0001
0100
0001
0010
0001
0100
0100
1000
0001
0010
0100
0100
,  // measure 39
0010
0100
0100
1000
0001
0000
1010
0000
0101
0000
1001
0000
1010
1000
0100
1000
,  // measure 40
0010
1000
0100
0100
0001
0010
0001
0100
0001
1000
0100
0100
0002
0100
0100
0103
,  // measure 41
0020
0100
0100
0130
2000
0100
0100
3100
0002
0100
0100
0103
1000
0000
0100
0000
,  // measure 42
0001
0010
1000
0010
0100
1000
0010
0100
0001
0100
1000
0100
0110
0000
0010
0000
,  // measure 43
0100
0001
0010
1000
0010
0100
0010
0001
1000
0100
0010
0001
0011
0000
0010
0001
,  // measure 44
0100
0000
1000
0100
0001
0000
1000
0100
0010
0000
0110
0000
0000
0000
1010
0000
,  // measure 45
0000
0000
0101
0000
0000
0001
1000
0100
0010
0100
0001
1000
0010
0001
0100
1000
,  // measure 46
0100
0001
0010
0001
1000
0100
0001
0100
1000
0010
1000
0001
0010
1000
0010
0001
,  // measure 47
0100
0001
1000
0010
0001
0010
1000
0000
0110
0000
0101
0000
0001
0010
0100
1000
,  // measure 48
0001
0100
1000
0100
0001
1000
0100
0010
0001
1000
0100
0001
0100
1000
0001
1000
,  // measure 49
0011
0000
1100
0001
0010
0001
0100
0001
0010
0001
0100
0001
1010
0000
0001
1000
,  // measure 50
0001
1000
0001
0100
1000
0000
0100
0001
0100
0001
0010
1000
0010
0000
0010
0001
,  // measure 51
0000
0000
0000
0001
0000
0000
1000
0000
0000
0000
0000
0000
0100
0000
1000
0000
0010
0000
0100
0000
0001
0000
0010
0000
0100
0000
0000
0000
0000
0000
1000
0000
0000
0000
0000
0000
0011
0000
0000
0000
0000
0000
1100
0000
0000
0000
0000
0000
,  // measure 52
0001
0010
0000
0010
0100
0000
1010
0000
0101
0000
1000
0010
0100
0000
0001
0000
,  // measure 53
1100
0000
0001
1000
0100
0000
0100
0010
0000
0010
0001
0000
1000
0010
0000
0100
,  // measure 54
1000
0000
0000
0000
0000
0000
0001
0000
0000
0010
0000
0000
0000
0000
0000
1000
0000
0000
0100
0000
0010
0000
0001
0000
1000
0000
0100
0000
0010
0000
0001
0000
1000
0000
0100
0000
0010
0000
0000
0000
0000
0000
0010
0000
0000
0001
0000
0000
,  // measure 55
0000
0001
1000
0000
1000
0010
0000
0010
0100
0000
0000
0000
0000
0000
0000
0000
;
