#TITLE:ダンスロボットダンス;
#SUBTITLE:;
#ARTIST:ナユタン星人;
#TITLETRANSLIT:Dance Robot Dance;
#SUBTITLETRANSLIT:;
#ARTISTTRANSLIT:NayutalieN;
#GENRE:POP;
#CREDIT:;
#MUSIC:Dance Robot Dance.ogg;
#BANNER:Dance Robot Dance.png;
#BACKGROUND:Dance Robot Dance-bg.png;
#CDTITLE:;
#SAMPLESTART:97.290;
#SAMPLELENGTH:10.105;
#SELECTABLE:YES;
#OFFSET:-0.025;
#BPMS:0.000=190.000
,178.500=95.000
,210.500=190.000
;
#STOPS:178.000=0.474
,338.000=1.105
;
#BGCHANGES:2.500=Dance Robot Dance.avi=1.000=0=0=0=StretchNoLoop====,
99999.000=-nosongbg-=1.000=0=0=0=StretchNoLoop====
;
#FGCHANGES:;

//--------------- dance-single - ----------------
#NOTES:
     dance-single:
     :
     Hard:
     14:
     0,0,0,0,0:
0000
0000
0000
0000
,
1000
0100
0010
0002
0000
1000
0000
0103
,
0001
0100
0010
2000
0000
0001
0000
3001
,
0100
0001
1000
0020
0000
1000
0000
0130
,
0001
0010
0011
0000
1010
0000
0011
0000
,
0001
0100
0010
1000
0000
1000
0100
0010
,
0001
1000
0001
1000
0000
1000
0010
0100
,
0001
1000
0001
0010
0000
0010
0001
0100
,
1000
0000
0100
0000
0001
0000
0010
0100
0010
0100
0010
0100
0010
0100
0010
0100
,
0010
0001
1000
1010
0000
0101
0000
1010
,
1000
0001
0010
0011
0000
1100
0000
0011
,
0001
0100
0010
0110
0000
1001
0000
0110
,
0100
0001
1000
1001
0000
0110
0000
1001
,
0010
0100
0001
0011
0000
0101
0000
1100
,
1000
0100
0010
0110
0000
1100
0000
1010
,
0100
0001
0010
1010
0000
0011
0000
1001
,
2000
0000
0010
0000
3010
0000
0100
0001
0100
0000
0010
0100
0010
0000
1000
0010
,
1000
0000
0001
1000
0001
1000
0200
1000
,
0000
0001
0000
1000
0000
1300
0100
0010
,
0100
1000
0001
0100
0010
0100
0001
1001
,
0000
1010
0000
0101
0000
1001
0100
0000
,
1001
0000
1000
0100
1000
0000
0001
0200
,
0000
1000
0000
0001
0000
0310
1000
0010
,
0100
0001
0010
0100
1000
0010
0100
0002
,
0000
0013
0100
0010
0100
0000
1001
1001
,
1000
0100
0010
0001
0000
1001
0000
0001
,
0100
0010
1000
0001
0000
0110
0000
0010
,
1000
0100
0010
0001
0000
1001
0000
0001
,
0010
0000
0100
0000
0010
0000
0100
1000
0100
0000
0010
0100
0010
0000
0100
1000
,
0100
0010
0001
1000
0010
0100
0001
2000
,
0000
0100
0000
0001
0000
3010
0100
0001
,
1000
0010
0100
0010
1000
0000
0010
1010
,
0000
0110
0000
0101
0100
0001
1000
0001
,
1010
0100
0001
0010
0100
0000
1000
0002
,
0000
0100
0000
0103
0001
1000
0100
0010
,
0100
1000
0010
1000
0100
0010
0001
1000
,
0110
0000
1010
0000
0101
0000
0001
1000
,
0020
0100
0031
0010
2001
0100
3010
0001
,
0020
0130
1001
0001
0200
0010
1300
0100
,
0020
0031
2001
0010
3200
1300
1002
0100
,
0023
0130
1002
0010
0203
1000
0301
0010
,
2000
0010
3001
0100
1002
0100
0013
0001
,
2000
3100
1001
0010
0002
1000
0013
0100
,
2000
0100
3002
1000
0023
1000
0230
1300
,
1001
0010
1001
0100
1001
0002
0203
0320
,
2030
3200
0320
0032
0203
0302
0023
0230
,
2300
0000
3001
0100
1000
0100
0002
0000
2003
0000
3002
0000
0023
0000
0230
0000
,
2300
3020
0230
0302
2003
3002
0203
0320
,
0000
0000
1030
0100
0001
0100
2000
0000
3002
0000
0203
0000
0320
0000
0230
0000
,
0320
2030
3002
2003
3002
0203
0320
2030
,
3002
0000
2003
0000
3001
0010
0100
0010
0000
0110
0000
0000
1001
0000
1000
0010
,
0000
0101
0000
0000
0002
0000
0203
0000
0320
0000
0230
0000
0302
0000
2003
0000
,
0000
3100
0010
0100
0010
0001
1000
0001
2000
0000
3001
0000
0100
0000
0001
0000
,
0100
0010
1000
0100
1000
0100
0001
0100
,
0001
0100
1000
0010
1000
0010
0100
0001
,
0100
0001
0010
0100
1000
0020
0000
2030
,
0000
3020
0000
0032
0000
0013
1000
0010
,
1000
0100
0001
0100
0001
0100
1000
0010
,
1000
0010
0001
0010
0001
0010
1000
0100
,
0001
0000
0100
0000
0001
0000
0100
0000
1000
0000
0010
0000
0100
0001
0100
0000
,
0010
1000
0010
0000
0100
0001
0100
0000
0010
1000
0010
0000
0100
0000
0001
0000
,
1000
0001
0100
0001
1000
0100
1000
0001
,
1000
0100
1000
0010
0001
1000
0100
0001
,
0010
1000
0001
0100
1000
0010
0100
1000
,
0001
0010
0100
1000
0100
0001
0000
0001
,
0010
0100
0010
1000
0010
0100
0000
0100
,
0010
1001
0000
0110
0000
1001
0100
0010
,
0000
0110
1000
0001
0000
1001
0001
0010
,
0100
1000
0001
0000
0100
0001
1000
0000
0001
0000
1000
0000
0010
0000
1000
0000
,
0001
0010
0001
1000
0010
1000
0100
0001
,
0100
1000
0010
0100
0000
0001
0100
0001
,
1000
0100
1000
0001
0100
0001
0010
0100
,
1000
0010
0001
0010
0000
1000
0100
1000
,
0001
0100
0001
1000
0100
1000
0001
0010
,
1000
0010
0001
0100
0000
0001
0100
0001
,
1000
0100
1000
0001
0100
0001
0010
0100
,
1000
0100
1000
0100
0010
0011
1000
0001
,
1100
0000
0011
0000
1100
0001
1100
0000
,
0011
0000
1100
0000
0011
1000
0001
1000
,
0011
0000
1100
0000
0011
1000
0011
0000
,
1100
0000
0011
0000
1100
0001
1000
0001
,
1010
0000
0101
0000
1010
0001
1010
0000
,
0101
0000
1010
0000
0101
1000
0001
1000
,
0101
0000
1010
0000
0101
1000
0101
0000
,
1010
0000
0101
0000
2010
3001
0000
0000
;

//--------------- dance-single - ----------------
#NOTES:
     dance-single:
     :
     Challenge:
     17:
     0.914767,1.056993,0.616189,0.016654,0.337239,769,695,74,2,0,0,0.914767,1.056993,0.616189,0.016654,0.337239,769,695,74,2,0,0:
0000
0000
0000
0000
,
0001
0100
0010
0100
0000
0110
0000
0100
,
0001
0010
0100
1000
0000
1100
0000
1000
,
0001
0100
0010
1000
0000
1010
0000
0001
,
1000
0010
0101
0001
1010
1000
0110
0010
,
0100
0000
0001
0000
1000
0000
1100
0000
0000
0000
1001
0000
0001
0000
1000
0010
,
0100
0000
0001
0000
1000
0000
1010
0000
0000
0000
1001
0000
0010
0000
0100
0001
,
1000
0000
0100
0000
0010
0000
0011
0000
0000
0000
1100
0000
1000
0000
0001
0100
,
0001
0000
1000
0000
0100
0000
0010
0001
0000
0001
0010
0100
0010
0001
0010
0100
,
0010
0001
0010
0110
0000
1100
0000
0101
,
0100
0001
0010
0110
0000
1100
0000
0011
,
0001
0100
0010
1010
0000
0110
0000
0101
,
0001
0000
0100
0000
0001
0000
1001
0000
0000
0000
1100
0000
1000
0100
1000
0100
,
0010
0001
0010
1100
0000
0101
0000
1010
,
0100
0001
0010
0110
0000
1001
0000
1100
,
0100
0010
0001
0011
0000
1010
0000
1001
,
2000
0000
0010
0000
3010
0000
0100
0001
0100
0000
0010
1000
0010
1000
0100
0010
,
0011
0000
0010
0001
0100
0010
0200
1000
,
0000
0000
0001
0000
0000
0000
1300
0000
0000
0000
1000
0000
0100
0000
0001
0010
,
0100
1000
0100
0010
0100
0001
0100
1100
,
1000
0000
0000
0101
0000
0000
0001
0000
0000
1001
0000
0000
1000
0000
0000
0001
0100
0001
0100
0000
0000
0010
0000
0000
,
0100
0001
0010
1000
0010
0100
0001
0100
,
0001
0000
0100
0000
1000
0000
0010
0000
0100
0000
0010
0000
1000
0000
0010
0100
,
0010
0001
0010
1000
0100
0010
0001
0010
,
0100
0000
0010
0001
0010
0000
0100
0000
1000
0000
0001
0010
0001
0000
1000
0000
,
0100
0010
0001
1001
0000
1010
0000
0101
,
0100
0001
1000
1010
0000
0110
0000
1001
,
0001
0100
0010
1010
0000
0101
0000
0011
,
0010
0000
0100
0000
0010
0000
0100
1000
0100
0000
0010
0100
1000
0001
1000
0100
,
0010
0000
0100
0000
1000
0000
0001
0100
0000
0010
0100
0000
1000
0000
0100
0000
,
0001
0000
0010
0000
0100
0000
0010
0000
0001
0010
0100
0000
0010
0000
0100
0010
,
0001
0000
1000
0000
0001
0000
0010
0100
0000
1000
0100
0000
0010
0000
0011
0000
,
0000
0000
0000
0000
0000
0000
0110
0000
0000
0000
0000
0000
0000
0000
0000
0000
0000
0000
1100
0000
0000
0000
0000
0000
0100
0000
0000
0000
0000
0000
1000
0000
0100
0000
1000
0000
0100
0000
0000
0010
0000
0000
0001
0000
0000
0000
0000
0000
,
1001
0000
0001
0000
0100
0000
0010
0000
1000
0010
0000
0100
0010
0000
0001
0000
,
0010
0000
1000
0000
0100
0000
0010
0000
0100
1000
0010
0000
0100
0000
0010
1000
,
0100
0000
0010
0000
0001
0000
0010
0100
0000
0001
0100
0000
0100
1000
0010
0100
,
0110
0000
1010
0000
0101
0000
0001
1000
,
0010
0000
0100
0001
0100
0000
0010
0000
1000
0000
0100
0010
0100
0000
1000
0000
,
0010
0000
0100
0001
1000
0000
0010
0000
0100
0000
0001
1000
0001
0000
0100
0000
,
0010
0000
0100
0001
1000
0000
0010
0000
0100
0000
0010
0100
0001
0000
1000
0000
,
0010
0000
0000
0100
0000
0000
1001
0000
0000
0010
0000
0000
0100
0000
0000
0001
0100
0001
0100
0000
0000
0010
0000
0000
,
1000
0000
0100
0010
0100
0000
1000
0000
0001
0000
0100
0010
0100
0000
0001
0000
,
1000
0000
0100
0010
0001
0000
1000
0000
0001
0000
1000
0010
1000
0000
0100
0000
,
1000
0000
0100
0010
0001
0000
1000
0000
0010
0000
1000
0010
0100
0010
1000
0010
,
0100
0000
0010
0000
1001
0000
0100
0000
1001
0000
0001
1000
0001
0100
0020
0000
,
0230
0000
0301
1000
0001
0010
0200
0000
0320
0000
0031
0100
0010
0100
0002
0000
,
2003
0000
3001
0010
0100
0010
0002
0000
2003
0000
3010
0100
0010
1000
0020
0000
,
2030
0000
3010
0100
0001
0010
0200
0000
0320
0000
0130
1000
0010
0100
0020
0000
,
0230
0000
0301
1000
0001
0010
0200
0000
2300
0000
3001
0010
0100
0010
0002
0000
,
2003
0000
3010
0100
0001
0100
0020
0000
2030
0000
3001
0010
0100
1000
0002
0000
,
2003
0000
3001
0100
0010
1000
0001
0010
0000
0011
0000
0001
1000
0000
1000
0010
,
0000
0110
0000
0100
0001
0010
0200
0000
2300
0000
3002
0000
0203
0000
0302
0000
,
0003
0000
1000
0000
0100
0000
1000
0000
0100
0000
0010
0000
0001
0000
0100
0010
0200
0000
0000
0000
0301
0000
0000
0000
0010
0000
0000
0000
0100
0000
0000
0000
,
0001
0100
1000
0010
1000
0100
0001
1000
,
0010
0001
0100
0010
0001
0010
1000
0100
,
0010
0001
0010
0100
1000
0010
0100
1000
,
0001
0000
0010
0000
0100
0000
0001
0010
0100
0001
1000
0000
0010
0000
0001
0000
,
1000
0100
0010
1000
0001
0100
1000
0001
,
1000
0010
0001
0010
0100
0001
0010
1000
,
0010
0000
0100
0000
0001
0000
0100
0000
1000
0000
0100
0000
0010
0001
0100
0000
,
1000
0100
0010
0100
1000
0100
0001
0100
0010
0100
0001
0000
0010
0000
0110
0000
,
1000
0001
0100
1010
0001
0010
0100
1100
,
0010
0001
1000
0110
0001
0100
0001
1010
,
0100
0001
0010
1100
0001
0110
1000
0101
,
0001
0000
0010
0000
0100
0000
1000
0001
0100
1000
0001
0000
0010
0000
1000
0000
,
0100
0010
0100
1000
0010
0101
1000
0001
,
0010
0001
1000
0100
0010
1001
0001
0010
,
0100
1000
0010
0000
0100
0000
0010
0000
0100
0001
0010
0000
0100
0000
0010
0000
,
0100
0000
0000
1000
0000
0000
0001
0000
0000
0000
0000
0000
1000
0000
0010
0000
0100
0000
0001
0000
0000
1000
0000
0000
0001
0000
0000
0100
0000
0000
0002
0000
0000
0000
0000
0000
1003
0000
0000
0010
0000
0000
2000
0000
0000
0000
0000
0000
,
3001
0010
0002
0000
1003
0010
2000
0000
3001
0010
0002
0000
1003
0000
2010
0000
,
3010
0000
0012
0000
0013
0000
2010
0000
3010
0000
1002
0000
1003
0100
2000
0000
,
3001
0100
0002
0000
1003
0100
2000
0000
3001
0100
0002
0000
1003
0000
2100
0000
,
3100
0000
0102
0000
0103
0000
2100
0000
3100
0010
0002
0000
1003
0010
2000
0000
,
3001
0010
0002
0000
1003
0010
2000
0000
3001
0010
0002
0000
1003
0000
2010
0000
,
3010
0000
0012
0000
0013
0000
2010
0000
3010
0000
1002
0000
1003
0100
2000
0000
,
3001
0100
0002
0000
1003
0100
2000
0000
3001
0100
0002
0000
1003
0000
2100
0000
,
3100
0000
0102
0000
0103
0000
1000
0010
0100
0000
0011
0000
1000
0000
0001
0000
,
1100
0000
0011
0000
1100
0101
1100
0000
,
0011
0000
1010
0000
0101
1000
0001
1000
,
0011
0000
1100
0000
0011
1010
0011
0000
,
1100
0000
0000
0000
0101
0000
0001
0100
1000
0100
0001
0000
1000
0000
0001
0000
,
1010
0010
0101
0100
1010
0101
1010
0100
,
0101
0010
1100
0010
0011
1000
0001
1000
,
0011
0100
1010
0100
0101
1010
0101
0010
,
1010
0100
0011
0100
2010
3001
0000
0000
;
