#TITLE:ダダダダ天使 -Full song-;
#SUBTITLE:;
#ARTIST:ナナヲアカリ;
#TITLETRANSLIT:Dadadada Angel -Full song-;
#SUBTITLETRANSLIT:;
#ARTISTTRANSLIT:Nanawo Akari;
#GENRE:POP;
#CREDIT:;
#MUSIC:Dadadada Angel -Full song-.ogg;
#BANNER:Dadadada Angel -Full song-.png;
#BACKGROUND:Dadadada Angel -Full song--bg.png;
#CDTITLE:;
#SAMPLESTART:61.500;
#SAMPLELENGTH:11.333;
#SELECTABLE:YES;
#OFFSET:0.487;
#BPMS:0.000=180.000
,442.000=45.000
,450.000=90.000
,458.000=180.000
;
#STOPS:184.000=0.333
,439.000=0.333
,470.000=0.667
,567.000=1.333
;
#BGCHANGES:1.750=Dadadada Angel -Full song-.avi=1.000=0=0=0=StretchNoLoop====,
99999.000=-nosongbg-=1.000=0=0=0=StretchNoLoop====
;
#FGCHANGES:;

//--------------- dance-single - ----------------
#NOTES:
     dance-single:
     :
     Hard:
     12:
     0,0,0,0,0:
0000
0000
0000
0000
,
0100
0000
1001
0000
0001
0010
0000
0100
,
1000
0001
1000
0010
0100
0000
1001
0000
,
1000
0100
0010
0100
0000
1000
0001
1000
,
0000
0010
1000
0100
1000
0010
0110
0000
,
0100
0001
1000
0001
0000
0010
0100
0010
,
0000
0100
1000
0010
0100
0001
1001
0000
,
0001
0100
0010
0100
0000
0001
1000
0001
,
0000
0010
0001
0100
0001
0010
0110
0000
,
0100
1000
0001
1000
0000
0010
0100
0010
,
0000
0100
0001
0010
0100
1000
1001
0000
,
0001
0020
0000
0100
0000
0001
0000
0230
,
0000
1300
0010
1000
0010
0100
0001
0100
,
1000
0200
0000
0010
0000
1000
0000
0320
,
0000
1030
0100
0010
0001
0010
0100
1000
,
0010
0200
0000
1000
0000
0010
0000
2300
,
0000
3100
0001
0100
0001
0010
0100
1000
,
0001
0020
0000
1000
0000
0001
0000
0230
,
0000
0301
0100
1000
0010
0100
1000
0100
,
0001
0010
0100
0010
0000
0100
1000
0100
,
0000
1000
0010
0100
0001
0100
1001
0000
,
1000
0100
0010
0100
0000
0010
0001
0010
,
0000
0100
1000
0010
0100
0010
1001
0000
,
1000
0001
0000
0101
0000
1010
0000
1001
,
0000
0001
0010
0100
0010
0001
1000
0010
,
0100
0001
0000
0011
0000
1100
0000
1001
,
0000
0001
0100
0010
1000
0010
0100
0001
,
1000
0100
0000
1100
0000
0011
0000
0110
,
0000
0100
1000
0001
0100
0010
0110
0000
,
1000
0001
0000
0110
0000
0110
0000
1001
,
0000
0001
0100
1000
0001
0010
0100
1000
,
0200
0000
0302
0010
0013
0000
1001
0001
,
0020
0000
0230
1000
1300
0000
0001
0100
,
0002
0203
2300
3200
,
0302
0023
0130
1001
,
1000
0100
0010
0100
1000
0001
0100
0010
,
0200
0000
0302
0010
0023
0000
0130
0000
,
1001
0100
1001
0010
,
0001
1000
0001
0000
1000
0001
1000
0000
,
0011
0000
0001
0100
0010
0100
1000
0001
,
0010
0110
1010
0110
,
1001
0001
0100
0000
1001
1000
0100
0000
,
0110
0000
1001
0000
0110
0000
0100
0001
,
0100
0000
0001
0010
0001
0000
0010
1000
,
0010
0000
0200
0000
2300
0000
3020
0100
,
0130
0001
1000
0001
0000
0110
0000
0001
,
1000
0000
1100
0000
0011
0000
0100
1000
,
0000
0101
0000
1100
0000
0101
0000
1000
,
0001
1000
0001
0100
1000
0100
0010
0000
,
0110
0000
1001
0000
0000
0011
0000
0100
,
1000
0020
0000
0030
1001
0000
1000
0100
,
0001
0000
0100
1000
0010
0000
0100
0001
,
0010
0000
1000
0010
0002
0000
1003
0000
,
1010
0000
0101
0000
0000
2001
0000
3001
,
0010
0100
1000
0000
0110
0000
0100
0001
,
0000
1100
0000
0101
0000
1100
0000
0001
,
1000
0001
1000
0100
0001
0100
0010
0000
,
0110
0000
0000
0000
1001
0000
0000
0000
0000
0000
1000
0000
0110
0000
0000
0001
,
0000
0100
1001
0000
1001
0000
0001
0100
,
1000
0000
0100
0001
0010
0000
0100
1000
,
0010
0000
0001
0010
2000
0000
3001
0000
,
0011
0000
1100
0000
0000
1000
0001
1000
,
0010
0200
0000
0300
1001
0000
1100
0000
,
1010
0000
0101
0000
0011
0000
0001
0100
,
1000
0100
0002
0000
0013
0000
0101
0000
,
0011
0000
1100
0000
1010
0000
1000
0100
,
0001
0100
2000
0000
3010
0100
0110
0000
,
1001
0000
0110
0000
1001
0000
0001
0100
,
0010
1000
0002
0000
1003
0000
0110
0000
,
0110
0000
1000
0001
0000
0001
0010
0100
,
1000
0001
0100
0000
1001
0000
0001
0100
,
0010
0100
0000
0001
1000
0001
0000
0010
,
0001
0100
0001
0010
0110
0000
0100
1000
,
0001
1000
0000
0010
0100
0010
0000
0100
,
0001
0010
0100
1000
1001
0000
1000
0100
,
0010
0100
0000
1000
0001
1000
0000
0010
,
1000
0100
1000
0010
0110
0000
0100
0001
,
1000
0001
0000
0010
0100
0010
0000
0100
,
1000
0010
0100
0001
1001
0000
0001
0100
,
0001
0100
0020
0000
2030
0000
3001
0010
,
0200
0000
0310
0000
0110
1000
0001
0100
,
0010
0100
0002
0000
0013
0100
1000
0020
,
0032
2003
3200
0302
0013
0100
1000
0001
,
0020
0000
1030
0020
0000
0031
0100
0001
,
1000
0100
1000
0000
0011
0000
1100
0000
,
1010
1000
0001
0010
0100
1000
0001
0200
,
2300
3002
0023
1030
1001
0000
0001
0010
,
1000
0010
0100
0010
0001
0010
1000
0010
,
0100
0010
0001
0010
1000
0010
0100
0010
,
1000
0010
0001
0010
1001
0000
0010
1000
,
0100
0001
0100
1000
0010
0001
1000
0100
,
0010
0100
0001
0100
0010
0100
0001
0100
,
1000
0100
0001
0100
0010
0100
0001
0100
,
1000
0100
0001
0100
1001
0000
0100
0001
,
0010
1000
0010
0001
0100
1000
0200
0000
,
0301
1000
0001
1000
0010
0100
0001
2000
,
0000
3001
0020
0030
0110
0001
2000
0000
,
3002
0203
0320
2030
,
3002
0000
0023
0030
0110
0000
0100
1000
,
0100
1000
0001
0010
0001
0010
1100
1100
,
0101
0101
1001
0000
0000
0100
0010
0000
,
1010
0000
0100
0000
0101
0000
0100
0010
,
0100
0010
0110
0000
1010
0000
0001
1000
,
0100
0010
0001
1000
0001
1000
0010
0100
,
0010
0100
0001
0000
1010
0000
0110
0000
,
0101
0011
1100
1001
,
0110
0000
1001
0000
0100
0001
1000
0000
,
0001
0010
0100
0000
0010
0001
1000
0000
,
0010
0100
0001
0000
1000
0100
0010
0001
,
1000
0001
0000
0110
0000
1000
0001
0000
,
0002
0000
0000
0000
0000
0000
0000
0000
2003
0000
0000
0000
0000
0000
0000
0000
3001
0100
0000
0001
0000
1000
0000
0001
0000
1000
0100
1000
0001
0100
0001
1000
,
0001
0000
0000
0000
0000
0000
0000
1000
0000
0001
0010
0100
0000
0000
0000
0000
0100
0000
1000
0001
1000
0000
0001
0100
0010
0000
1000
0001
1000
0000
0001
0010
,
0000
0010
0100
0000
0000
0000
0000
1000
0000
0001
0100
0010
0100
0000
0000
0000
0010
0000
1000
0000
0000
0000
0100
0000
0000
0000
0001
0000
0000
0000
0010
0000
,
0000
1000
0100
0001
0010
1000
0100
0001
0010
0000
0010
0000
0100
0000
0100
0000
,
1000
0000
0000
0001
0000
0000
1000
0000
0001
0000
0000
0000
1001
0000
0000
0000
2000
0000
0000
0000
0000
0000
0000
0000
3200
0000
0000
0000
0000
0000
0000
0000
,
0320
0032
2003
3200
,
0320
0000
0032
0000
1003
0010
1000
0010
,
0100
0001
0100
0001
1000
0001
1000
0000
,
0010
1000
0000
0011
0000
1010
0000
0011
,
0000
1000
0001
1000
0001
0010
1000
0010
,
0100
0000
0110
0000
1001
0000
0000
0101
,
0000
0010
1000
0200
0000
0300
1001
0000
,
1000
0010
0001
0000
0010
1000
0100
0000
,
0010
0001
0100
0000
1000
0100
0002
0000
,
1003
0000
1100
0000
0011
0000
0000
2001
,
0000
3001
0100
0010
1000
0000
0110
0000
,
0010
1000
0000
0011
0000
1010
0000
0011
,
0000
1000
0001
1000
0001
0010
1000
0010
,
0100
0000
0110
0000
1001
0000
0000
0001
,
0110
0000
0000
1000
0000
0000
0010
0000
1001
0000
0000
0000
1001
0000
0000
0000
,
1000
0010
0001
0000
0010
1000
0100
0000
,
0010
0001
0100
0000
1000
0100
0002
0000
,
1003
0000
1100
0000
0011
0000
0000
0001
,
1000
0001
0100
0020
0000
0030
1001
0000
,
0011
0101
1010
1100
,
1000
0010
0001
0010
2000
0000
3100
0000
,
1010
1100
0011
0101
,
0001
0010
1000
0010
0002
0000
0103
0010
,
0110
1001
0110
1001
,
1000
0010
0100
0001
2000
0000
3001
0000
,
0110
0000
0110
0000
0001
1000
0000
1000
,
0100
0010
0001
1000
0010
0000
1001
0100
,
0100
0100
0100
0100
0100
0000
1001
0000
,
0001
0010
0100
0010
0000
0001
1000
0001
,
0000
0100
0001
1000
0001
0100
0110
0000
,
0010
1000
0001
1000
0000
0100
0010
0100
,
0000
0010
0001
1000
0010
0100
1001
0000
,
1000
0010
0100
0010
0000
1000
0001
1000
,
0000
0100
1000
0001
0100
0001
0110
0000
,
0010
1000
0001
1000
0000
0100
0010
0100
,
0000
0010
0001
0010
0100
1000
2002
0000
,
0000
0000
0000
0000
,
3003
0000
0000
0000
;

//--------------- dance-single - ----------------
#NOTES:
     dance-single:
     :
     Challenge:
     17:
     0.421467,0.331391,0,0,0,645,645,0,0,0,0,0.421467,0.331391,0,0,0,645,645,0,0,0,0:
0000
0000
0000
0000
,
1100
0000
0101
0000
1000
0001
0000
0001
,
0010
0100
0010
0100
1001
0000
1001
0000
,
1000
0000
0001
0100
0001
0000
1000
0000
0000
0000
1000
0000
0010
0000
0100
0000
,
0000
0000
0100
0000
0001
0000
1000
0100
1000
0000
0010
0000
0110
0000
0000
0000
,
0100
0000
0001
1000
0001
0000
0010
0000
0000
0000
0010
0000
0100
0000
0010
0000
,
0000
0000
0010
0000
1000
0000
0010
0001
0010
0000
0100
0000
1000
0010
1000
0010
,
0100
0000
0100
0001
1000
0000
0010
0000
0000
0000
0010
0000
0100
0000
0001
0000
,
0000
0000
0001
0000
1000
0000
0100
0010
0100
0000
1000
0000
1010
0000
0000
0000
,
0010
0000
0100
0001
0100
0000
0010
0000
0000
0000
0010
0000
1000
0000
0100
0000
,
0010
0000
0100
0000
1000
0000
0001
0010
0001
0000
0100
0010
0100
0001
1000
0001
,
0010
0210
0000
0001
0000
1000
0000
0320
,
0000
0000
0031
1000
0001
0000
0100
0000
1000
0100
0010
0000
1000
0000
0100
0000
,
0010
0120
0000
1000
0000
0001
0000
0230
,
0000
0000
1300
0000
0100
0000
0010
0000
0001
0010
0100
0000
0010
0001
0010
0100
,
1000
0002
0000
1000
0000
0100
0000
0023
,
0000
0000
0130
1000
0010
0000
0100
0000
0010
1000
0001
0000
0010
0000
0100
0000
,
0010
0011
0000
1001
0000
0110
0100
0010
,
1000
0000
0001
0000
0100
0000
0010
1000
0010
0000
0100
0010
0100
0010
1000
0010
,
0100
0000
0100
0001
1000
0000
0100
0000
0000
0000
0100
0000
1000
0000
0001
0000
,
0000
0000
0001
0000
0010
0000
0100
1000
0010
0000
0100
0000
0110
0000
0000
0000
,
0001
0000
1000
0100
0010
0000
0001
0000
0000
0000
0001
0000
0010
0000
0100
0000
,
0000
0000
0100
0000
1000
0000
0010
0100
0010
0000
1000
0001
1000
0001
0010
0100
,
1000
0100
0010
1000
0000
1000
0010
0001
,
0000
0000
0001
0100
0010
0000
0100
0001
0010
0000
0100
0000
1000
0000
0100
0000
,
0010
0000
0010
0000
0100
0000
1001
0000
0000
0000
1000
0100
0010
0000
1000
0010
,
0100
0000
1000
0000
0010
0000
0100
0000
0001
0000
0100
0010
0100
0001
0010
0001
,
0100
0010
1000
0010
0000
0100
0001
0010
,
0000
0100
1000
0001
1100
0110
1100
0000
,
1000
0101
0000
1010
0000
0110
1000
0001
,
0000
0000
0001
0000
1000
0000
0100
1000
0100
0000
0010
0001
0010
0001
0010
0100
,
1000
0000
2000
0010
3010
0100
0001
0100
,
0002
0000
0010
0013
0100
0000
1010
0100
,
0002
2003
3200
0320
,
0032
0000
0200
0000
2300
3003
1001
0000
,
0001
0100
1000
0100
0010
1000
0100
0001
,
0200
0000
2300
0010
3020
0000
0230
0000
,
0302
0000
2003
0010
3020
0000
0230
0000
,
0301
1000
0001
0000
0010
0100
0010
0000
,
1001
0000
0000
0000
0001
0000
1000
0100
1000
0000
0100
0000
0010
0000
0001
1000
,
0001
0000
0110
0000
0100
0001
0101
0000
,
0110
1000
0010
0000
0110
0001
0010
0000
,
1000
0000
0100
0000
0010
0000
0100
0000
1000
0000
0001
0000
0100
0010
0100
0010
,
1000
0000
1000
0100
0110
0000
0001
0100
,
0110
0000
0010
0000
0100
0000
0001
0000
1000
0000
0001
0000
1000
0100
1000
0100
,
0020
0100
0100
0130
0000
0110
0000
1000
,
1001
0000
0001
1000
0110
0000
0100
1010
,
0000
0101
0000
1010
0000
0101
0000
1010
,
0101
0000
1010
0000
0101
0000
0001
0000
0010
0000
0100
0000
1000
0000
0100
0010
,
0100
0000
0110
1000
1000
0002
0000
0103
,
0010
0000
0110
0000
0000
0000
1001
0000
1000
0100
0010
0001
1000
0000
0010
0000
,
0100
0001
0010
0000
1000
0000
0010
0000
0100
1000
0010
0000
0001
0000
0010
0000
,
1000
0100
0010
0000
1000
0000
0010
0001
0100
0000
0010
0100
0010
0000
0110
0000
,
1000
0010
0102
0010
0013
1001
0000
1001
,
1000
0000
0100
0010
0100
0000
1000
0000
0010
0100
0010
1000
0001
0000
0011
0000
,
0000
1100
0000
0011
0000
1100
0000
0011
,
1100
0000
0011
0000
1100
0000
1000
0000
0100
0000
0010
0001
0010
0000
0100
0000
,
1100
0000
0000
0000
2001
0000
0010
0000
3010
0000
0100
0000
1010
0000
0000
1100
,
0000
0000
0101
0000
0011
0000
0001
0010
0100
1000
0001
0010
0100
0000
1000
0100
,
0010
0000
1000
0000
0001
0000
0100
1000
0010
0000
0100
0000
1010
0000
0010
0000
,
0110
0000
0000
0000
0101
0000
0001
0000
0011
0000
0000
0000
0001
0000
1000
0100
,
1000
0100
0201
0010
0310
1000
0010
1000
,
0100
0000
0110
0000
0010
0001
0100
0000
0010
1000
0001
0100
0010
0000
0010
1000
,
0010
0000
0010
0100
0010
0000
0010
0001
0010
0000
0010
1000
0100
0010
0001
0010
,
0100
0010
1000
0010
0001
0000
0100
0000
0010
0000
1000
0010
0100
0000
0100
0001
,
0100
0000
0100
0010
0100
0000
0100
1000
0100
0000
0100
0001
0010
0100
1000
0100
,
0010
0100
0001
0100
0010
0000
0100
0000
1000
0010
1000
0010
0001
0000
0010
0000
,
0110
0000
0110
1000
0001
0000
0110
0001
,
0100
0100
1000
0001
0110
0000
1100
0000
,
0101
0000
1010
1100
0000
0101
1000
1100
,
0001
0000
0100
0000
1001
0000
0000
0000
0110
0000
0000
0000
0001
0000
1000
0100
,
1000
0001
0000
0001
0010
0100
0000
0100
,
1000
0000
0001
0100
0001
0000
0010
0000
0110
0000
0000
0000
0100
0000
1000
0001
,
1000
0010
0000
0010
0100
0010
0000
0010
,
0001
0000
0010
1000
0010
0000
0100
0000
0001
0010
0001
0010
0100
0000
0100
1000
,
0001
0010
0000
0010
0100
1000
0000
1000
,
0001
0000
0100
0010
0100
0000
0001
0000
0011
0000
0000
0000
0010
0000
0100
1000
,
0100
0010
0000
0010
0001
0100
0010
0100
,
0001
0000
1000
0010
1000
0000
0100
0010
0100
1000
0001
1000
0010
0000
0100
0000
,
0010
0100
0001
1000
0002
0000
1003
0100
,
0020
0000
0000
0000
0031
0100
0000
0000
0010
0000
1000
0000
0010
0000
0100
0000
,
0010
0001
0110
0000
0110
1000
0100
0020
,
0032
0000
2003
0000
3200
0010
0302
0000
2003
0010
3100
0010
1000
0000
0100
0000
,
1002
0000
1003
0010
0000
0010
0100
0001
,
1000
0000
0100
0000
0001
0000
0100
0010
1001
0000
0000
0000
0011
0000
0000
0000
,
1010
0000
0100
0000
0001
0100
0010
0000
1000
0000
0001
0000
1002
0000
1003
0000
,
0012
0000
0013
0000
2100
0000
3100
0000
2001
0000
3001
0000
1000
0100
1000
0100
,
0010
0000
0001
0000
0010
0000
0001
0000
0000
0000
1000
0000
0001
0000
0000
0000
0100
0000
0010
0000
0000
1000
0000
0000
0100
0000
0000
0000
0000
0000
0010
0000
0000
0000
0000
0000
0001
0000
0000
0100
0000
0000
0001
0000
0000
0100
0000
0000
,
0010
0000
0000
0000
0000
0000
0000
0000
0000
1000
0000
0000
0000
0000
0000
0100
0000
0000
0000
0000
1000
0000
0000
0000
0100
0000
0000
0000
0010
0000
0000
0000
0000
0000
0000
0000
0000
0000
0000
0000
0100
0000
0000
0000
1000
0000
0000
0000
0000
0000
0000
0000
0000
0000
0000
0000
0010
0000
0000
0000
0000
0000
0000
0000
0000
0000
0000
0000
0100
0000
0000
0000
0000
0000
0000
0000
0000
0000
0001
0000
0000
0000
0000
0000
0010
0000
0000
0000
0000
0000
0001
0000
0000
0000
0000
0000
,
0010
0000
0100
0000
1000
0100
0010
0100
1000
0000
0000
0000
1001
0000
0001
0010
,
0100
0000
0010
0100
1000
0000
0001
0100
0010
0100
1000
0000
1000
0100
0010
0000
,
0100
0000
0000
0001
0000
0000
0010
0000
0000
0100
0000
0000
1000
0000
0000
0100
0000
0000
0010
0000
0000
0100
0000
0000
1000
0000
0000
0100
0000
0010
0000
0100
0000
0010
0000
0000
0001
0000
0000
0010
0000
0000
0001
0000
0000
0000
0000
0000
,
0100
0000
0000
0010
0000
0000
0100
0000
0000
0010
0000
0000
1000
0000
0000
0100
0000
0000
0010
0000
0000
0000
0000
0001
0000
0100
0000
0001
0000
0100
0000
0000
0000
0000
0000
0000
0010
0000
0000
0000
0000
0000
1000
0000
0000
0001
0000
0000
,
0000
0001
0000
0001
0010
0100
1000
0100
0010
0000
0000
0000
1001
0000
1000
0010
,
0100
0000
0010
0100
0001
0000
1000
0100
0010
0100
0001
0000
0100
0000
1000
0000
,
0010
0100
0010
0100
0101
0010
1010
1000
,
0000
1000
1001
0000
0001
0010
0200
0000
,
2300
3200
0302
0203
,
0320
0000
1030
0000
0110
0000
0100
1000
,
0010
0001
1000
0100
0001
0010
1100
0011
,
1010
0101
0110
0000
1001
0100
0010
0000
,
1010
0000
0100
0001
0101
0000
0100
0001
,
0010
0001
0100
0010
1010
0000
0010
1000
,
0100
0001
1000
0010
0001
0010
1000
0010
,
0001
0000
0100
0000
1000
0000
0000
0000
1000
0000
0100
0000
0001
0000
0000
0010
,
0200
0000
2300
0001
3002
0000
2003
0010
,
3010
0000
0000
0000
1001
0000
0010
0000
0100
0000
0001
0010
0001
0000
1000
0000
,
0100
0000
0010
0001
0010
0000
0100
0000
1000
0000
0010
1000
0010
0000
0100
0000
,
0001
0100
0010
0100
0010
1000
0200
0010
,
0010
0310
0000
0110
0000
0100
1001
0000
,
0002
0000
0000
0000
0000
0000
0000
0000
2003
0000
0000
0000
0000
0000
0000
0000
3010
0100
0000
0101
0000
1010
0000
1001
0000
1000
0100
1000
0100
0010
0100
1000
,
0001
0000
0000
0000
0000
0000
0000
1001
0000
0001
0100
0010
0000
0000
0000
0000
0100
0000
0001
1000
0001
0000
0001
0010
0100
0000
0100
0010
0100
0000
1000
0001
,
0000
0001
1000
0000
0000
0000
0000
0010
0100
0010
1000
0001
1000
0000
0000
0000
0001
0000
0100
0000
0000
0000
1000
0000
0000
0000
0010
0000
0000
0000
0001
0000
,
0000
1000
0100
0001
0010
1000
0001
0100
1000
0000
0010
0000
0100
0000
0001
0000
,
1010
0000
0000
0110
0000
0000
0001
0000
1001
0000
0000
0000
1001
0000
1000
0100
1000
0000
0000
0000
0100
0000
0010
0000
0100
0000
0000
0000
0010
0000
0001
0000
,
0010
0000
0001
1000
0001
0000
1000
0010
1000
0000
0010
0100
0010
0000
0100
0001
,
0100
0000
0010
1000
0010
0000
0100
0001
0010
0000
0100
1000
0010
0000
0100
0001
,
1000
0000
0100
1000
0001
0000
1000
0010
0001
0000
0010
0000
1001
0000
0000
0000
,
0001
0101
0000
1100
0000
0101
0000
1100
,
0000
0101
1100
0101
1100
1000
0010
0100
,
0001
0000
0010
0001
0100
0000
0010
0000
0110
0000
0000
0000
1010
0000
0010
0000
,
0110
0000
0100
0000
0101
0000
1001
0000
0000
0000
1000
0000
0001
0010
0001
0010
,
0100
0000
1000
0010
0100
0000
0001
0000
1000
0000
0001
0010
0100
0000
1000
0000
,
0001
0000
0100
0001
1000
0000
0100
0000
1000
0000
0010
1000
0100
0000
0001
0000
,
0100
1100
0001
1000
0101
0010
0010
1001
,
0000
0000
0001
0000
1000
0000
0010
0100
0010
0000
0100
0000
0010
1000
0010
0001
,
0010
1010
0000
0011
0000
1010
0000
0011
,
0000
0000
1010
0000
0011
0000
1010
0000
0011
0000
0001
0000
0010
0000
0100
1000
,
0010
0100
0110
0000
1001
0100
0100
0101
,
1001
0000
0000
0011
0000
0000
1100
0000
1000
0000
0001
0100
0010
0100
1000
0100
,
0001
0000
1000
0100
0001
0000
0100
0000
1000
0000
0001
0100
1000
0000
0100
0000
,
0110
0010
1001
0000
1001
0100
0110
0000
,
1001
0000
0010
0100
0010
0000
0100
0000
0101
0000
0010
0000
0010
0000
1100
0000
,
0100
0000
0010
0000
0011
0000
1001
0000
0001
0100
0010
0000
1000
0100
0010
0100
,
1000
0000
1000
0100
1000
0000
1000
0001
1000
0000
1000
0010
1000
0000
1000
0001
,
0010
0100
0010
0001
1000
0010
0100
0010
0001
0000
0010
0000
1001
0000
0000
0000
,
0001
0000
0001
0100
0001
0000
0001
1000
0001
0000
0001
0010
0001
0000
0001
1000
,
0010
0100
0010
1000
0001
0010
0100
0010
1000
0000
0010
0000
0001
0100
0010
0100
,
1000
0100
0110
0000
0110
0010
1001
0000
,
0011
0001
0011
0010
0110
1000
1001
0000
,
0101
0000
1100
0000
0011
0101
0000
1100
,
0001
0101
1000
0100
0110
0000
1001
1001
,
1001
1001
1001
1001
1001
0000
1001
0000
,
0001
0000
0100
0010
1000
0000
1001
0000
0000
0000
0001
0000
0010
0000
0110
0000
,
0000
0000
0100
0000
1000
0000
0001
0010
0001
0000
0010
0000
1010
0000
0000
0000
,
1000
0000
0010
0100
0010
0000
0011
0000
0000
0000
1000
0000
0100
0000
0011
0000
,
0000
0000
0010
0000
0001
0000
1000
0100
1000
0000
0010
0000
0100
0001
0100
0010
,
0001
0000
0010
1000
0100
0000
0110
0000
0000
0000
0010
0000
0001
0000
1001
0000
,
0000
0000
1000
0000
0100
0000
0010
0001
1000
0000
0010
0000
0101
0000
0000
0000
,
0001
0000
1000
0010
0100
0000
0101
0000
0000
0000
0001
0000
0010
0000
0100
0000
,
1100
0000
0100
0000
0010
0000
1000
0000
0010
0001
0100
0010
2000
0000
0000
0000
,
00M0
0000
00M0
0000
0M0M
0000
00MM
0000
0000
0000
000M
00M0
0M00
0000
0M0M
0000
,
3000
0000
0000
0000
;
