#TITLE:DEAD BEATS;
#SUBTITLE:;
#ARTIST:Mori Calliope;
#TITLETRANSLIT:DEAD BEATS;
#SUBTITLETRANSLIT:;
#ARTISTTRANSLIT:Mori Calliope;
#GENRE:POP;
#CREDIT:;
#MUSIC:DEAD BEATS.ogg;
#BANNER:DEAD BEATS.png;
#BACKGROUND:DEAD BEATS-bg.png;
#CDTITLE:;
#SAMPLESTART:52.210;
#SAMPLELENGTH:13.400;
#SELECTABLE:YES;
#OFFSET:-0.027;
#BPMS:0.000=150.000;
#STOPS:18.000=0.400;
#BGCHANGES:1.000=DEAD BEATS.avi=1.000=0=0=0=StretchNoLoop====,
99999.000=-nosongbg-=1.000=0=0=0=StretchNoLoop====
;
#FGCHANGES:;

//--------------- dance-single - ----------------
#NOTES:
     dance-single:
     :
     Medium:
     13:
     0,0,0,0,0:
0000
0000
0000
0000
,
1100
0000
0000
1000
0000
0000
0100
0000
1000
0000
0000
0001
0000
0000
0100
0000
,
0110
0000
0000
0010
0000
0000
0100
0000
0001
0000
0000
0100
0000
0000
0010
0000
,
1010
0000
0000
1000
0000
0000
0001
0000
0100
0000
0000
0001
0000
0000
0010
0000
,
0011
0000
0000
0001
0000
0000
1000
0000
2002
3003
0000
0000
1010
0000
0000
0000
,
0101
0000
0010
1000
0001
0000
0011
0000
,
1100
0000
0010
0001
1000
0000
1100
0000
,
1010
0000
0100
0001
1000
0000
0101
0000
,
0011
0000
0100
1000
0002
0000
1003
0001
,
0100
0000
0010
1000
0100
0010
0001
1000
,
0010
0000
0100
0001
0010
0100
1000
0001
,
1000
0000
0010
1000
0001
1000
0100
0010
,
0001
0000
0010
0001
1000
0000
1010
0000
,
0101
1100
0110
0011
,
1100
1010
0101
0110
,
1100
1001
0101
0011
,
0110
0000
0000
0000
1100
0000
0000
0000
1000
0000
0001
0000
0100
0000
0000
1000
,
0000
0000
0100
0000
0000
0001
0000
0010
0100
0000
1000
0000
0010
0000
1000
0010
,
0000
0100
0001
0000
0010
0000
0100
1000
0100
0000
1000
0000
0001
1000
0001
0000
,
0010
0100
0010
0100
0000
1000
0000
0100
0010
0000
0001
0000
0100
0000
0001
1000
,
0000
0001
1000
0000
0010
0100
0000
0000
1001
0000
0000
0000
0100
0000
0010
0000
,
1000
0000
0100
0010
0000
0001
0000
0010
0100
0000
1000
0000
0001
0000
1000
0000
,
0100
0000
0010
0000
0100
0000
1000
0010
0000
1000
0010
0000
0100
0000
0001
0000
,
1000
0000
0001
0000
0100
0000
0001
1000
0001
0000
0010
0000
0100
0010
0100
0000
,
0010
0100
0010
0000
0001
0000
1000
0010
0000
0010
0100
0000
0001
0000
1000
0010
,
1000
0000
0100
0000
0010
0000
0001
0100
0000
0001
0100
0000
0010
0000
1000
0000
,
0001
0000
0000
0010
0100
0000
0100
1000
0000
0000
0001
0000
1000
0000
0001
0000
,
0100
0000
0010
0100
0000
0010
0000
0000
1000
0001
1000
0000
0001
0000
0100
0000
,
0001
0000
0010
0000
0100
1000
0100
0000
0010
0000
0001
0000
1000
0000
0100
0000
,
0010
0000
0001
1000
0000
0010
0000
0100
0000
0001
0010
0000
0010
0000
0100
0000
,
1000
0000
0001
0000
0010
0000
0100
1000
0000
1000
0100
0000
0010
0000
0001
0000
,
1000
0010
0100
0001
1000
0010
1000
0100
,
0001
0100
1000
0010
1000
0001
2002
0000
,
0000
3003
0001
0010
0100
1000
0001
1000
,
0001
1000
0020
0000
0230
0000
0302
1003
,
0100
0000
0001
0000
0100
0000
1000
0001
0000
0001
0000
0000
0100
0000
0001
0000
,
1000
0010
0100
0001
0010
0100
1000
0001
,
0100
0000
0000
0000
0010
0000
0000
0000
2010
0000
0000
0000
0000
0000
0000
0001
0000
0000
0000
3001
0000
0000
0000
0000
1000
0000
0000
0000
0010
0000
0000
0000
,
0100
0001
1000
0010
0100
0001
0010
0100
,
1000
0100
1000
0000
0100
0010
0100
0000
0010
0000
0100
1000
0100
0000
0010
0000
,
0001
0000
1000
0000
0010
0000
0100
0001
0100
0000
0010
0000
0220
0000
0000
0000
,
0000
0330
1000
0010
0100
0001
0100
0010
,
1000
0001
2000
0000
3002
0000
0013
0100
,
1000
0000
0100
0000
0001
0000
0100
1000
0000
1000
0001
0000
0100
0000
1000
0000
,
0100
0001
1000
0100
1000
0100
0010
0100
,
1000
0000
0100
0000
0001
0000
0000
0100
0000
0000
1000
0000
0001
0000
0100
0000
,
0010
0000
0100
0000
0001
0000
1000
0000
0010
0000
0100
0010
0100
0000
0001
0000
,
0010
1000
0000
1000
0010
0001
0000
0001
,
0100
1000
0100
0001
1000
0100
1000
0100
,
2000
0000
0000
0000
0001
0000
0001
0000
0001
0000
3001
0000
1001
0000
0000
0110
,
0000
1002
0000
0000
1003
1000
0001
0100
,
1000
0100
0010
1000
0100
0001
2000
0000
,
0010
3020
0000
0031
0001
0100
1000
0100
,
1000
0100
0001
0010
1000
0010
1000
0010
,
0001
1000
0001
0100
0020
0000
1030
0100
,
0010
0000
0100
0000
2000
0000
0000
0000
3010
0000
0000
0000
0100
0000
0000
0001
,
0000
0100
1000
0100
0001
0010
0100
0001
,
0100
1000
0001
0100
1000
0000
1000
0100
,
0010
0100
0001
0010
0100
0000
0100
1000
,
0001
0100
0010
0100
0010
0000
0010
1000
,
0001
0100
0010
0001
0010
0000
0010
1000
,
0100
0001
1000
0010
0001
0000
0001
0100
,
1000
0001
1000
0100
0001
0000
0001
0010
,
0100
0010
1000
0010
0001
0000
0001
0010
,
1000
0010
0001
0100
1000
0001
0020
0000
,
2030
0000
3001
0100
0002
0000
2003
0000
,
3002
0000
1003
0100
2000
0000
3200
0000
,
0320
0000
0000
0000
0000
0000
0000
0000
0000
0000
0000
0000
0000
0000
0000
0000
0000
0000
0000
0000
0000
0130
0000
0000
0000
0000
0000
0000
0000
0000
0000
0000
0000
0000
0010
0000
0000
0000
0000
0000
0000
0000
0000
0000
0000
0000
0200
0000
0000
0000
0000
0000
0000
0000
0000
0000
0000
0000
0000
0000
0000
0000
0000
0000
0000
0000
0000
0000
0000
0000
0320
0000
0000
0000
0000
0000
0000
0000
0000
0000
0000
0000
0000
0000
0000
0000
0000
0000
0000
0000
0000
0000
0000
0000
0230
0000
,
0000
0000
0000
0000
0000
0000
0000
0000
0000
0000
0000
0310
0000
0000
0000
0000
0100
0000
0000
0000
0000
0000
0020
0000
0000
0000
0000
0000
0000
0000
0000
0000
0000
0000
0000
0000
0000
0000
0000
0000
0000
0000
0000
0000
0000
0000
0000
0000
,
0000
0000
0000
0000
0000
0000
0000
0000
0000
0000
0000
0000
0000
0000
0000
0000
0000
0000
0000
0000
0000
0000
0000
0000
0000
0000
0000
0000
0230
0000
0000
0000
0000
0000
0000
0000
0000
0000
0000
0000
0000
0000
0000
0000
0000
0000
0000
1300
,
0000
0000
0000
0000
0000
0000
0001
0000
0000
0000
0000
0000
0000
1000
0000
0000
0000
0000
0010
0000
0000
0000
0200
0000
0000
0000
0000
0000
0000
0000
0000
0000
0000
0000
0000
0000
0000
0301
0000
0000
0000
0000
1000
0000
0000
0000
0000
0000
,
0000
0000
0020
0000
0000
0000
0000
0000
0000
0000
0000
0000
0000
0000
1030
0000
0000
0000
0000
0000
0000
0100
0000
0000
0000
0010
0000
0000
0000
0000
0001
0000
0000
0000
0000
0000
0000
0000
0000
0000
0200
0000
0000
0000
0000
0000
0000
0000
,
0000
0000
0000
0000
0000
0000
0000
0000
0000
0000
0301
0000
0000
0000
0000
0000
1000
0000
0000
0000
0002
0000
0000
0000
0000
0000
0000
0000
0000
0000
0000
0000
0000
0000
0000
0000
0000
0000
0000
1003
0000
0000
0000
0000
0000
0000
0100
0000
,
0000
0000
0000
0020
0000
0000
0000
0000
0000
0000
0000
0000
0000
0000
0000
0000
0000
0000
0030
0000
0000
0001
0000
1000
;

//--------------- dance-single - ----------------
#NOTES:
     dance-single:
     :
     Hard:
     15:
     0,0,0,0,0:
0000
0000
0000
0000
,
1001
0000
1000
0100
0000
0000
1100
0000
0011
0000
0000
1001
0000
0000
0110
0000
,
1001
0000
0001
0100
0000
0000
0101
0000
1010
0000
0000
1001
0000
0000
0110
0000
,
1001
0000
1000
0010
0000
0000
1010
0000
0101
0000
0000
1001
0000
0000
0110
0000
,
1001
0000
0100
0010
0000
0000
0110
0000
2002
3003
0000
0000
1001
0000
0001
0000
,
0101
0000
1010
1000
1100
0000
0101
0001
,
1001
0000
0101
0100
0110
0000
1100
1000
,
1010
0000
0101
0001
1001
0000
1100
0100
,
0110
0000
0000
0000
1001
0000
0000
0100
0020
0000
0000
0030
1001
0000
0001
0000
,
0100
0010
2010
3200
0320
0031
0011
0010
,
0100
1000
2100
3020
0230
0301
0101
1000
,
0010
0100
0021
0230
2300
3001
0110
1000
,
0001
0010
1200
2300
3020
0031
1010
0100
,
0001
0010
1100
0010
1001
0001
0110
0001
,
1000
0001
1010
0100
0011
0001
1100
1000
,
0100
0001
0101
1000
1010
0001
0011
0010
,
1000
0000
0100
0000
0110
0000
0001
0000
1000
0000
0001
0010
0100
0000
1000
0010
,
0000
0100
0001
0100
0001
0010
0000
0100
1000
0100
0010
0100
1000
0001
1000
0010
,
0000
0100
0001
1000
0000
0001
0010
0000
0100
0000
1000
0000
0001
1000
0001
1000
,
0010
0100
0010
0100
0000
1000
0000
0100
0001
0000
0010
0000
0100
1000
0100
1000
,
0001
0000
0100
0000
0001
0000
0100
0000
0000
0010
0000
0000
0000
1000
0000
0000
0001
0000
0000
1000
0000
0000
0000
0000
0100
0000
0000
0000
0010
0000
0001
0000
,
1000
0001
0100
0010
0000
1000
0000
0100
0010
0000
0001
1000
0001
0000
0100
0000
,
1000
0000
0100
0001
0010
0000
0100
1000
0000
0001
1000
0000
0100
0000
0001
0000
,
0100
0000
0000
0000
1000
0000
0010
0000
1000
0000
0000
0001
0000
0000
0100
0000
0010
0000
0000
0000
1000
0000
0000
0000
0001
0000
1000
0000
0001
0000
1000
0000
,
0010
0100
0010
0100
0001
0000
0001
0010
0001
0010
0100
1000
0100
0010
0001
1000
,
0010
0000
0010
0100
0001
0000
0001
1000
0000
0010
1000
0000
1000
0100
0000
1000
,
0001
0000
0000
0010
0000
0000
0100
0000
1000
0000
0000
0000
0001
0000
0010
0000
0000
0000
0010
0000
0100
0000
0000
0000
1000
0000
0000
0000
0001
0000
0000
0000
,
0100
0000
0000
0000
1000
0000
0100
0000
0000
0000
0100
0000
0000
0001
0000
0000
0010
0000
0100
0000
0010
0000
0100
0000
1000
0000
0100
0000
1000
0000
0000
0000
,
0100
0000
0010
0001
1000
0001
1000
0000
0010
1000
0100
0010
0100
0000
0100
1000
,
0001
0000
0000
0000
0000
0000
0100
0000
0000
0000
0000
0000
0001
0000
0000
0000
0000
0000
1000
0000
0000
0000
0000
0000
0100
0000
0000
0000
0000
0000
0000
0000
0000
1000
0000
0000
0000
0000
0000
0000
0000
0000
0001
0000
0000
0000
0000
0000
0010
0000
0000
0000
0000
0000
0001
0000
0000
0000
0000
0000
0000
0000
0000
0000
0000
0000
0000
0000
0000
0000
0000
0000
1000
0000
0000
0000
0001
0000
0000
0000
1000
0000
0000
0000
0001
0000
0000
0000
0000
0000
0100
0000
0000
0000
0000
0000
,
0010
0000
1000
0000
0001
0000
0100
1000
0000
1000
0100
0001
0010
0000
0010
0100
,
0000
0100
1000
0001
0010
0001
1000
0100
0010
0000
0010
0001
1000
0001
0100
0010
,
0100
0000
0010
1000
0001
0000
0010
0001
1000
0000
0001
0000
2001
0000
0100
0000
,
0001
0100
3002
0010
0023
0100
0230
0001
,
0302
0000
1000
0000
2003
0000
0010
0000
3020
0000
0001
0000
0032
0000
1003
0010
,
0100
0000
0001
0100
0010
0000
1000
0001
0000
0010
0001
0010
0200
0000
0010
0000
,
0320
1000
2030
0010
3020
0001
0032
0103
,
0010
0000
0000
0000
1000
0000
0000
0000
2010
0000
0000
0000
0000
0000
0000
0001
0000
0000
0000
3001
0000
0000
0000
0000
0002
0000
0000
0000
0010
0000
0000
0000
,
0023
0000
0100
0000
0230
0000
1000
0000
2300
0000
0010
0000
3020
0000
1030
0001
,
0100
0010
0100
0001
0100
0010
1000
0000
0001
1000
0100
1000
0100
0000
0010
0000
,
0010
0000
0000
0001
0000
0000
1000
0000
0010
0000
0000
0000
0010
0000
0100
0000
0001
0000
0000
0000
1000
0000
0000
0000
0002
0000
0000
0000
0100
0000
0000
0000
,
1000
0100
1003
0011
0110
1100
1001
0100
,
0110
0010
0011
0001
1010
1000
0010
1000
,
0100
0000
0010
0000
0001
1000
0100
0010
0000
0010
0001
0000
0110
0000
1000
0000
,
0110
0001
1001
0100
1001
0100
0010
1100
,
0110
0000
1100
0000
0011
0000
0000
0110
0000
0000
1001
0000
0001
0000
0100
0000
,
0010
0000
0100
0000
0001
0000
1000
0000
0100
0000
1000
0100
0010
0000
2100
0000
,
0010
3001
0000
0102
0010
1003
0000
0120
,
0100
1030
1000
0001
1001
0110
1001
0100
,
0012
0000
0000
0000
0100
0000
0100
0000
0100
0000
0103
0000
1001
0000
0000
1010
,
0000
0101
0000
0000
1000
1000
0110
0001
,
1010
0100
0101
0001
1001
0010
1100
0000
,
0011
0011
0000
1001
0001
0100
1001
0100
,
1010
0100
0101
0010
1001
0010
1100
1000
,
1001
0001
0101
0001
1001
0000
1000
0100
,
0011
0000
0100
0000
1000
0000
0000
0000
0011
0000
0000
0000
1001
0000
0000
0020
,
0000
0000
0130
0001
1000
0000
0010
0000
0100
0001
1000
0010
0100
0000
0001
0000
,
0100
1000
0100
0010
1000
0100
0001
1000
,
0010
0100
1000
0001
0100
0010
0100
0001
,
1000
0100
0010
0001
0100
1000
0001
0010
,
0100
1000
0001
1000
0100
0010
0001
0010
,
1000
0100
0010
0100
1000
0001
0010
1000
,
0010
0001
1000
0100
0010
0100
1000
0010
,
0001
0010
1000
0001
0100
1000
0100
0010
,
0001
0000
0010
0000
1000
0000
0100
0000
0001
0100
1000
0001
0011
0000
0000
0000
,
1100
0000
1000
0100
1100
0000
1010
0000
,
0101
0000
0001
0100
0101
0000
0110
0000
,
1001
0000
0000
0000
0000
0000
0000
0000
0000
0000
0000
0000
0000
0000
0000
0000
0000
0000
0000
0000
0000
1000
0000
0000
0000
0000
0000
0000
0000
0000
0000
0000
0000
0000
0100
0000
0000
0000
0000
0000
0000
0000
0000
0000
0000
0000
1100
0000
0000
0000
0000
0000
0000
0000
0000
0000
0000
0000
0000
0000
0000
0000
0000
0000
0000
0000
0000
0000
0000
0000
1001
0000
0000
0000
0000
0000
0000
0000
0000
0000
0000
0000
0000
0000
0000
0000
0000
0000
0000
0000
0000
0000
0000
0000
0110
0000
,
0000
0000
0000
0000
0000
0000
0000
0000
0000
0000
0000
0001
0000
0000
0000
0000
0100
0000
0000
0000
0000
0000
0101
0000
0000
0000
0000
0000
0000
0000
0000
0000
0000
0000
0000
0000
0000
0000
0000
0000
0000
0000
0000
0000
0000
0000
0000
0000
,
0000
0000
0000
0000
0000
0000
0000
0000
0000
0000
0000
0000
0000
0000
0000
0000
0000
0000
0000
0000
0000
0000
0000
0000
0000
0000
0000
0000
0010
0000
0000
0000
0000
0000
0000
0000
0000
0000
0000
0000
0000
0000
0000
0000
0000
0000
0000
1000
,
0000
0000
0000
0000
0000
0000
0001
0000
0000
0000
0000
0000
0000
0010
0000
0000
0000
0000
0100
0000
0000
0000
1000
0000
0000
0000
0000
0000
0000
0000
0000
0000
0000
0000
0000
0000
0000
1000
0000
0000
0000
0000
0010
0000
0000
0000
0000
0000
,
0000
0000
0110
0000
0000
0000
0000
0000
0000
0000
0000
0000
0000
0000
1001
0000
0000
0000
0000
0000
0000
0001
0000
0000
0000
0100
0000
0000
0000
0000
0010
0000
0000
0000
0000
0000
0000
0000
0000
0000
1010
0000
0000
0000
0000
0000
0000
0000
,
0000
0000
0000
0000
0000
0000
0000
0000
0000
0000
0001
0000
0000
0100
0000
0000
0010
0000
0000
0000
0100
0000
0000
0000
0000
0000
0000
0000
0000
0000
0000
0000
0000
0000
0000
0000
0000
0000
0000
1001
0000
0000
0000
0000
0000
0000
0100
0000
,
0000
1000
0000
0000
0000
0000
0020
0000
0000
0000
0000
0000
0000
0000
0000
0000
0000
0000
0000
0000
0000
0000
0000
0000
0000
0000
0000
0000
0000
0000
0000
0000
0000
0000
0000
0000
0030
0000
0000
0000
0000
0000
1000
0000
0000
0000
0001
0000
;

//--------------- dance-single - ----------------
#NOTES:
     dance-single:
     :
     Challenge:
     18:
     1.078926,1.1701,0.924284,0.24148,1.382262,907,796,111,29,19,1,1.078926,1.1701,0.924284,0.24148,1.382262,907,796,111,29,19,1:
0000
0000
0000
0000
,
1001
0000
0001
0100
0001
0000
1000
0000
1001
0000
0000
0011
0000
0000
1100
0000
,
1001
0000
1000
0100
1000
0000
0001
0000
1001
0000
0000
0001
0100
0000
0010
0000
,
1001
0000
0001
0010
0001
0000
1000
0000
1001
0000
0000
1010
0000
0000
0101
0000
,
1001
0000
0010
0100
0010
0000
0100
0000
2002
3003
0000
0000
1001
0000
0001
0010
,
0100
0000
0010
0000
1100
0000
1000
0000
1010
0000
0000
0000
1001
0000
1000
0010
,
0100
0000
0010
0000
0101
0000
0100
0001
1000
0000
0100
0000
0110
0000
0001
1000
,
0001
0000
0010
0000
0101
0000
0001
0000
1001
0000
0000
0000
1100
0000
0100
0010
,
0001
0000
1000
0000
0101
0000
0000
0100
0020
0000
0000
0030
1001
0000
0010
1000
,
0100
0000
0010
0000
0012
0000
0203
0000
0320
0000
0130
0000
1010
0000
1000
0100
,
0010
0000
0001
0000
2100
0000
3020
0000
0230
0000
0310
0000
1010
0000
0100
0001
,
0010
0000
0100
0000
1020
0000
2030
0000
3200
0000
0301
0000
0101
0000
0001
0100
,
1000
0000
0010
0000
0201
0000
0302
0000
0023
0000
2030
0000
3110
0000
0100
1000
,
0010
0000
0100
0000
1001
0000
0001
0000
0011
0000
0001
0000
0101
0000
0100
0001
,
0010
0000
0100
0000
1001
0000
1000
0000
1100
0000
1000
0000
1010
0000
1000
0010
,
0001
0000
0010
0000
0110
0000
0010
0000
1010
0000
0010
0000
0011
0000
0001
0010
,
1000
0000
0100
0000
0110
0000
1000
0000
0001
0010
0001
0010
0100
0000
0010
1000
,
0000
0010
0001
0100
0010
1000
0000
1000
0010
0100
0010
0100
0001
1000
0001
0010
,
0000
0100
1000
0001
0000
0001
0010
0000
0110
0000
1100
0000
1000
0100
0010
0001
,
0100
0010
0100
0010
0000
1010
0000
0100
0001
0000
0011
0000
0001
0010
0100
0001
,
0100
0000
1000
0000
0010
0000
0100
0000
0000
0101
0000
0000
0000
0100
0000
0000
0001
0000
0000
1000
0000
0000
0000
0000
1100
0000
0000
0000
0100
0000
1000
0000
,
0001
1000
0100
0010
0000
0002
0000
0100
0103
0000
0010
1000
1010
0000
0011
0000
,
0101
0000
0100
0001
0010
0000
0010
0100
0000
0100
1000
0000
0110
0000
1001
0000
,
0110
0000
0000
0000
0100
0000
0001
0000
1000
0000
0000
0100
0000
0000
0010
0000
0001
0000
0000
0000
1001
0000
0000
0000
0100
0000
0001
0000
0010
0000
0100
0000
,
0010
0100
0001
0100
1000
0000
1000
0010
0001
0010
0100
1000
0100
0001
0010
0001
,
0100
0000
0100
1000
0001
0000
0001
0010
0000
0010
1000
0000
0010
0100
0000
0100
,
0001
0000
0000
1000
0000
0000
0010
0000
0100
0000
0000
0000
0001
0000
0010
0000
0000
0000
0001
0000
1000
0000
0000
0000
1100
0000
0000
0000
0011
0000
0000
0000
,
0110
0000
0000
0000
0100
0000
1000
0000
0000
0000
1000
0000
0000
0001
0000
0000
0100
0000
1000
0000
0001
0000
0010
0000
0100
0000
0001
0000
0010
0000
0000
0000
,
0110
0000
0010
0001
1000
0001
0100
0000
1001
0001
0100
0001
0010
0000
0100
1000
,
0010
0000
0000
0000
0000
0000
0100
0000
0000
0000
0000
0000
0001
0000
0000
0000
0000
0000
0010
0000
0000
0000
0000
0000
0100
0000
0000
0000
0000
0000
0000
0000
0000
1000
0000
0000
0000
0000
0000
0000
0000
0000
0010
0000
0000
0000
0000
0000
0100
0000
0000
0000
0000
0000
0010
0000
0000
0000
0000
0000
0000
0000
0000
0000
0000
0000
0000
0000
0000
0000
0000
0000
0100
0000
0000
0000
0001
0000
0000
0000
0100
0000
0000
0000
0010
0000
0000
0000
0000
0000
1000
0000
0000
0000
0000
0000
,
1010
0000
0110
0000
0101
0000
0001
0010
0000
0010
0001
0100
1000
0000
1000
0100
,
0000
0100
0001
0010
0100
1000
0010
0100
0010
0000
0010
1000
0001
1000
0001
0010
,
0100
0000
0000
0000
0000
0000
0010
0000
0000
0001
0000
0000
1000
0000
0000
0000
0000
0000
0001
0000
0000
0100
0000
0000
0010
0000
0000
0000
0000
0000
0010
0000
0000
1000
0000
0000
0001
0000
0100
0000
0001
0000
1000
0000
0001
0000
0100
0000
,
0001
0100
0001
1000
0001
0100
0001
0000
0000
0011
0000
0000
1001
0000
0000
1100
0000
0000
0011
0000
0000
0100
0000
0000
,
1001
0000
0000
0000
0000
0000
0001
0000
0000
0000
0000
0000
1000
0000
0100
0000
1000
0000
0001
0000
1000
0000
0100
0000
1000
0000
0100
0000
1000
0000
0001
0000
1000
0000
0100
0000
1000
0000
0000
0000
0000
0000
1000
0000
0000
0100
0000
0000
,
0010
0000
0001
0010
0100
0000
1000
0010
0000
0100
0001
0010
0110
0000
0100
0000
,
1100
0000
0000
1000
0000
0000
0001
0100
0010
0100
0001
1000
0100
1000
0001
0100
0010
0100
0001
0000
0000
0010
0000
0000
,
0100
0000
0000
0000
1000
0000
0000
0000
2010
0000
0000
0000
0000
0000
0000
0001
0000
0000
0000
3100
0000
0000
0000
0000
0011
0000
0000
0000
0010
0000
0000
0000
,
0110
0000
0000
0000
0000
0000
0100
0000
0000
0000
0000
0000
1000
0000
0100
0000
0010
0000
0100
0000
1000
0000
0001
0000
0100
0000
0001
0000
1000
0000
0100
0000
0010
0000
0100
0000
1000
0000
0000
0001
0000
0000
1000
0000
0000
0010
0000
0000
,
0100
0010
0001
0010
0100
0010
1000
0000
1000
0100
0010
0100
1000
0000
1100
0000
,
0011
0000
0000
0001
0000
0000
0100
0000
0010
0000
0000
0000
0010
0000
1000
0000
1001
0000
0000
0000
0001
0000
0000
0000
0011
0000
0000
0000
1001
0000
0000
0000
,
0001
0000
0100
0000
0001
0000
1000
0000
0100
0000
1000
0000
0100
0000
0000
0010
0000
0000
0001
0000
0000
0010
0000
0000
0100
0000
0000
0000
0000
0000
1000
0000
0000
0001
0000
0000
0100
0000
0000
0010
0000
0000
0100
0000
0000
0001
0000
0000
,
1000
0000
0000
0000
0000
0000
0010
0000
0000
0100
0000
0000
0001
0000
0010
0000
0001
0000
0010
0000
0100
0000
1000
0000
0010
0000
1000
0000
0010
0000
0100
0000
0001
0000
1000
0000
0010
0000
0000
0000
0000
0000
0100
0000
0000
0001
0000
0000
,
1000
0000
0010
0000
0100
0000
0010
0000
1000
0000
0100
0000
0010
0000
0000
1000
0000
0000
0010
0000
0000
0100
0000
0000
1000
0000
0000
0001
0000
0000
1000
0000
0000
0010
0000
0000
0100
0000
0000
0010
0000
0000
1000
0000
0000
0100
0000
0000
,
0010
0000
0000
0100
0000
0000
1000
0010
1000
0010
0100
0001
0010
0001
0010
0100
1000
0010
0100
0000
0000
0101
0000
0000
,
0110
0000
1010
0000
1001
0000
0000
0110
0000
0000
1001
0000
1000
0000
0100
0000
,
1000
0000
0100
0000
0010
0001
0100
0010
0001
0000
0001
0010
0100
0000
0110
0000
,
0011
1010
0000
1010
0110
0101
0000
0011
,
0110
0000
0000
1010
0000
0000
1000
0000
0000
0001
0000
0000
1000
0010
0000
1000
0001
0000
1000
0010
0000
0100
0000
0000
,
1020
0000
0000
0000
1000
0000
0100
0000
0001
0000
0130
0000
1010
0000
0000
1001
,
0000
0000
0000
0000
0000
0000
0001
0000
0100
0000
0000
0000
0110
0000
0000
0000
0000
0000
0000
0000
0000
0000
0000
0000
1000
0000
0000
0100
0000
0000
0000
0000
0000
0000
1000
0000
0010
0000
0000
0000
0100
0000
0001
0000
0000
0000
1000
0000
,
0001
0000
0001
0010
0000
0100
1000
0000
0001
1000
0000
0001
0100
0000
0001
0010
0000
0100
1000
0010
0000
0000
0000
0000
,
0110
0000
0000
0110
0000
0000
0000
0000
0000
1001
0000
0000
0001
0000
0000
0100
0000
0100
0001
0000
1000
0001
0000
0001
,
0010
0000
0100
1000
0000
1000
0001
0000
0000
0100
0000
0000
0001
0000
0000
0010
0100
0000
2000
0000
0000
3002
0000
0000
,
0203
2300
3002
0013
0021
0000
1030
0100
,
0011
0000
0000
0000
0000
0000
0010
0000
0000
0000
0000
0000
0100
0000
2000
0000
0000
0000
0000
0000
0000
0000
0000
0000
0001
0000
0000
0000
0000
0000
0000
0000
0000
0000
0000
0000
0001
0000
0000
0000
0000
0000
0000
0000
0000
3010
0000
0000
,
0000
0000
0000
0000
0010
0000
1000
0000
0001
0000
0000
0000
0010
0000
0000
0000
0001
0100
0001
0000
1000
0010
1000
0000
0001
0000
0100
0000
0010
0000
1000
0000
,
0001
1000
0100
0010
0100
1000
0001
0100
0001
1000
0100
1000
0010
1000
0100
0010
,
0001
0100
0010
0100
0001
0100
0010
0100
1000
0100
0010
1000
0100
0010
0100
1000
,
0100
0010
1000
0010
0001
0100
0010
1000
0001
1000
0100
0001
0100
1000
0100
0010
,
1000
0010
0001
1000
0010
0100
1000
0100
0001
0010
0100
1000
0010
1000
0001
0100
,
0001
1000
0001
0010
0100
0010
0001
0100
0001
1000
0001
0100
1000
0001
0010
0100
,
0001
1000
0010
1000
0100
0010
0100
0001
0100
0010
1000
0010
0001
0100
0001
0010
,
0100
0010
0001
1000
0100
0001
1000
0010
0001
0100
0001
1000
0100
0010
1000
0010
,
0001
0000
1000
0000
0010
0000
0001
0000
0010
0000
0100
0000
1000
0000
0001
0000
0010
0100
0010
0000
1000
0001
1000
0000
1001
0000
0000
0000
0000
0000
0000
0000
,
0011
0000
1000
0100
1001
0000
1010
0000
,
0101
0000
0001
0100
1001
0000
0011
0000
,
1100
0000
0000
0000
0000
0000
0000
0000
0000
0000
0000
0000
0000
0000
0000
0000
0000
0000
0000
0000
0000
1000
0000
0000
0000
0000
0000
0000
0000
0000
0000
0000
0000
0000
0100
0000
0000
0000
0000
0000
0000
0000
0000
0000
0000
0000
0011
0000
0000
0000
0000
0000
0000
0000
0000
0000
0000
0000
0000
0000
0000
0000
0000
0000
0000
0000
0000
0000
0000
0000
1001
0000
0000
0000
0000
0000
0000
0000
0000
0000
0000
0000
0000
0000
0000
0000
0000
0000
0000
0000
0000
0000
0000
0000
0110
0000
,
M000
0000
0000
0000
0000
0000
M000
0000
0000
0000
0000
0001
M000
0000
0000
0000
0100
M000
0000
0000
0000
0000
M11M
0000
0000
0000
0000
0000
0000
0000
0000
M00M
0000
0000
0000
0000
0000
0000
0000
0000
0000
0000
0000
M000
0000
0000
000M
0000
,
0000
0000
0000
0000
0000
0000
0000
M000
0000
0000
0000
0000
000M
0000
0000
M000
0000
0000
0000
000M
0000
0000
0000
0000
M000
0000
000M
0000
0010
0000
0100
0000
0000
0000
0000
0000
0000
0000
0000
0000
0000
0000
0000
0000
0000
0000
0000
0001
,
0000
0000
0000
0000
0000
0000
1000
0000
0000
0000
0000
0000
0000
0010
0000
0000
0000
0000
0100
0000
0000
0000
0001
0000
0000
0000
0000
0000
0000
0000
0000
0000
0000
0000
0000
0000
0000
0001
0000
0000
0000
0000
1000
0000
0000
0000
0000
0000
,
0000
0000
1000
0000
0001
0000
0000
0000
0000
0000
0000
0000
0000
0000
1001
0000
0000
0000
0000
0000
0000
1000
0000
0000
0000
0010
0000
0000
0000
0000
0100
0000
0000
0000
0000
0000
0000
0000
0000
0000
0100
0000
0002
0000
0000
0000
0000
0000
,
0000
0000
0000
0000
0000
0000
0000
0000
0000
0000
1003
0000
0000
0100
0000
0000
0010
0000
0000
0000
0100
0000
0020
0000
0000
0000
0000
0000
0000
0000
0000
0000
0000
0000
0000
0000
0030
0000
0000
1001
0000
0000
0000
0000
0000
0000
0100
0000
,
0000
M001
0000
0000
0000
0000
M200
0000
0000
0000
0000
0000
0000
0000
0000
0000
0000
000M
0000
0000
0000
0000
0000
M00M
0000
0000
0000
0000
M00M
0000
0000
0000
0000
0000
M00M
0000
0000
0000
0000
0000
0000
0000
0310
0000
0000
0000
1001
0000
;
