#TITLE:CyberConnect ("CHAOS" Special);
#SUBTITLE:;
#ARTIST:Blacklolita;
#TITLETRANSLIT:;
#SUBTITLETRANSLIT:;
#ARTISTTRANSLIT:;
#GENRE:;
#CREDIT:;
#MUSIC:CyberConnect (CHAOS Special).ogg;
#BANNER:CyberConnect (CHAOS Special).png;
#BACKGROUND:CyberConnect (CHAOS Special)-bg.png;
#CDTITLE:;
#SAMPLESTART:79.600;
#SAMPLELENGTH:13.200;
#SELECTABLE:YES;
#OFFSET:0.000;
#BPMS:0.000=150.000
,36.000=75.000
,36.250=150.000
,36.750=75.000
,37.000=150.000
,37.500=75.000
,37.750=150.000
,38.250=75.000
,38.500=150.000
,46.500=75.000
,46.750=150.000
,54.250=75.000
,54.500=150.000
,66.500=75.000
,66.750=150.000
,67.250=75.000
,67.500=150.000
,69.000=75.000
,69.500=150.000
,81.000=75.000
,81.500=300.000
,85.500=75.000
,86.000=150.000
,106.000=75.000
,107.000=150.000
,109.000=75.000
,110.000=150.000
,111.000=75.000
,111.500=150.000
,113.500=75.000
,114.500=150.000
,115.500=75.000
,116.000=150.000
,117.000=75.000
,117.500=150.000
,118.500=75.000
,119.000=150.000
,121.000=75.000
,122.000=150.000
,126.000=75.000
,140.000=37.500
,141.000=150.000
,169.000=37.500
,169.500=75.000
,170.500=150.000
,173.500=75.000
,174.000=150.000
,175.250=75.000
,176.125=150.000
,177.375=75.000
,177.750=150.000
,179.000=75.000
,180.000=150.000
,185.000=75.000
,185.500=150.000
,186.750=75.000
,187.625=150.000
,188.875=75.000
,189.250=150.000
,190.500=75.000
,191.500=150.000
,201.500=75.000
,201.875=150.000
,203.125=75.000
,203.500=150.000
,204.750=75.000
,205.750=150.000
,215.750=75.000
,216.125=150.000
,217.375=75.000
,217.750=150.000
,219.000=75.000
,220.500=37.500
,220.750=150.000
,221.750=75.000
,222.000=150.000
,223.000=75.000
,223.250=150.000
,223.750=75.000
,224.000=150.000
,225.000=75.000
,225.250=150.000
,226.250=75.000
,226.500=150.000
,227.000=75.000
,227.250=150.000
,228.250=75.000
,228.500=150.000
,229.500=75.000
,229.750=150.000
,230.250=75.000
,232.500=150.000
,239.500=75.000
,240.000=150.000
,244.000=75.000
,244.250=150.000
,244.750=75.000
,245.000=150.000
;
#STOPS:76.500=0.100
,76.750=0.100
,93.000=0.100
,93.250=0.100
,101.500=0.200
,102.000=0.200
,104.000=0.200
,170.500=0.100
,171.000=0.100
,171.500=0.100
,172.000=0.100
,174.000=0.100
,174.500=0.100
,175.000=0.100
,182.000=0.100
,182.500=0.100
,183.000=0.100
,183.500=0.100
,185.500=0.100
,186.000=0.100
,186.500=0.100
;
#BGCHANGES:;
#FGCHANGES:;

//--------------- dance-single - ----------------
#NOTES:
     dance-single:
     :
     Hard:
     15:
     0,0,0,0,0:
0000
0000
0000
0000
,
0000
0000
0000
0000
,
0000
0000
0000
0000
,
0000
0000
0000
0000
,
0000
0000
0000
0000
,
0000
0000
0000
0000
,
0000
0000
0000
0000
,
0000
0000
0000
0000
,
0000
0000
0000
0000
,
2000
0000
3000
0002
0000
0003
2000
0000
3000
0002
0000
0003
0101
0000
0000
0000
,
0100
0000
0100
0010
0000
0010
1000
0000
1010
0000
0000
0000
0100
0001
0100
0001
,
1000
0000
1000
0010
0000
0100
0001
0000
1001
0000
0000
1100
0000
0000
0000
0100
,
0000
0100
0010
0000
0010
0001
0000
0011
0000
0000
0000
0010
0001
0010
0001
1000
,
0000
1000
0010
0000
0100
0001
0000
1001
0000
0000
0110
0000
0000
0000
0010
0000
,
0100
0010
0000
0010
0100
0000
0001
0000
1000
0000
1001
0000
0001
0000
1000
0000
,
0100
0010
0000
0010
0100
0000
1000
0000
0001
0000
1000
0100
1000
0000
0001
0010
,
0001
0000
0100
0001
0010
0100
1000
0010
0100
0001
2000
0000
3000
0002
0000
0003
,
2000
0000
0000
0000
3000
0000
0000
0000
1000
0100
0010
0001
1000
0000
0000
0000
0010
0000
1000
0000
0001
0000
0000
0000
0100
0000
0000
0000
0010
0000
0000
0000
,
0100
0001
1000
0000
0010
0000
0100
0000
0010
0100
0001
0000
0010
0000
0100
0000
,
0010
0000
0110
0011
0001
0000
0100
0001
1000
0000
0010
0000
0100
0000
0010
1000
,
0001
0100
0020
0130
0010
0100
0000
0001
,
1000
0000
0000
0000
0001
0000
0000
0000
0000
0000
0000
0000
0100
0010
0100
0010
1000
0000
0000
0000
0010
0000
1000
0000
0100
0000
0000
0000
0010
0000
0000
0000
,
0100
0000
1000
0001
0100
0000
0010
0000
0100
0000
0001
1000
0100
0000
0010
0000
,
0100
0000
0010
0000
1100
0101
0001
0000
0010
0000
1000
0000
0010
0000
0001
0000
,
0100
0000
1000
0000
0100
0000
0001
0100
0001
0000
1000
0010
1000
0000
0001
0010
,
0100
1000
0100
0010
0001
1000
0001
0000
1001
0000
0010
0000
1000
0000
0001
0000
,
1001
0000
0000
0000
1000
0000
0100
0000
0010
0000
0000
0000
0001
0000
0000
0000
0020
0000
0000
0000
0130
0010
0100
0010
0200
0000
0000
0000
0000
0000
0000
0000
,
0320
0000
0000
0000
0000
0000
0032
0000
0000
0103
0010
0100
0002
0000
0000
0000
0000
0000
0013
0100
0100
0010
0000
0001
,
0000
0100
0000
0010
0000
1000
0000
0100
0000
0010
0001
0010
0100
0010
0001
2000
0000
0000
0000
0000
0000
3001
0000
1000
,
1100
0000
0000
0000
0000
0000
0010
0000
0100
0101
0000
0000
0000
0000
0000
0010
0000
0100
0110
0000
0000
0000
0000
0000
,
1001
0000
0000
0000
0000
0000
0001
0100
0010
1000
0100
0010
0002
0000
0000
0000
0000
0000
0000
0000
0000
0000
0000
0000
,
2003
0000
3002
0000
,
0000
0023
0230
0000
,
2300
0000
0000
0000
0000
0000
0000
0000
3001
0100
0010
0000
1000
0001
0100
0000
,
0010
1000
0100
0000
1000
0001
0010
0000
0100
1000
0010
0000
0100
0001
0010
0000
,
0210
0000
0000
0000
0000
0000
0000
0000
0010
0000
0000
0001
0000
0000
1300
0000
2200
0000
0000
0000
0000
0000
0000
0000
0000
0000
0000
0000
0000
0000
0000
0000
3300
0000
0000
0000
0000
0000
0000
0000
0000
0000
0000
0000
0000
0000
0000
0000
0010
0000
0000
0000
0000
0000
0000
0000
0000
0000
0000
0000
0000
0000
0000
0000
,
0202
0000
0000
0000
0000
0000
0303
0000
0000
0001
0000
0010
,
0000
0000
0100
0000
0000
0000
2200
0000
0000
0000
0000
0000
3300
0000
0000
0000
0000
0000
1000
0000
0000
0100
0000
0000
,
0022
0000
0033
2002
,
0000
3003
0001
0100
0010
1000
0100
0001
,
0100
1000
0001
0100
1000
0100
0001
1000
,
0010
0000
0100
0000
0001
0010
0001
0000
0100
0010
0100
0000
0001
0010
0100
1000
,
0100
0000
0010
0000
0001
0000
1000
0000
0002
1000
1000
1000
1003
0001
1000
0000
0001
1000
0010
0100
0001
0000
0000
0000
1100
0000
0000
0000
0011
0000
0000
0000
,
1100
0000
0011
0000
0100
0000
0002
0000
0103
0000
1010
0000
0101
0010
1000
0100
,
0000
1000
0000
0100
0000
1000
0000
0100
0000
0010
0000
0001
0000
0000
1000
0000
0100
0000
1000
0000
0100
0000
0010
0000
0001
0000
0000
1000
0000
0000
0001
0000
,
1000
0100
1000
0000
0001
0010
0001
0000
0100
0000
0011
0000
1100
0000
0011
0000
,
1100
0000
0000
0000
0010
0000
0000
0000
0002
0000
0000
0000
0100
0000
0000
0000
1013
0000
0000
0000
0101
0000
0010
0000
1000
0000
0100
0000
0000
1000
0000
0100
,
0000
1000
0000
0100
0000
0010
0000
0001
0000
0000
1000
0000
0100
0000
1000
0000
0100
0000
0010
0000
0001
0000
0000
0010
0000
0000
0100
0000
1000
0000
0100
0000
,
1000
0100
0010
0001
0010
0001
0100
0000
0010
1000
0100
0000
0010
0001
0100
0000
,
0001
1000
0100
0000
1000
0001
0200
0000
0000
0000
0310
0000
1000
0100
0010
0000
,
0001
0000
0100
0000
0010
0000
0000
0000
1000
0000
0100
0000
0020
0000
0000
0031
0000
0100
0000
0001
0000
0010
0000
0001
0000
0100
0000
0000
0010
0000
1000
0000
,
0100
0000
1000
0000
0010
0000
1000
0000
0000
0010
0000
0000
0100
0000
0001
0000
0010
0000
0001
0000
0010
0000
0100
0000
1000
0000
0100
0000
1000
0000
0010
0000
,
0000
0100
0001
0010
0000
0100
1000
0010
0000
1000
0001
0010
0000
0001
1000
0020
,
0000
0000
0000
0130
0000
0001
0010
0100
0000
1000
0010
0100
0000
0001
0010
0100
,
0000
1000
0000
0010
0000
1000
0000
0100
0000
1000
0000
0010
0000
0000
0100
0000
0001
0000
0010
0000
0001
0000
0100
0000
0002
0000
0000
0000
0000
0000
0000
0000
,
1003
0000
0000
0000
0220
0330
1000
0000
0000
0000
0000
0000
0000
0000
1000
0000
1100
0000
0000
0000
0000
0000
0000
0000
0001
0000
0011
0000
0000
0000
0010
0000
,
0110
0000
0000
0000
1000
1001
0000
0000
0000
1000
1010
0000
0010
0110
0000
0000
,
0000
0000
0100
0000
0110
0000
0000
0000
0000
0000
0000
0000
0001
0000
0010
0000
0000
0000
0100
0000
0010
0000
0001
1000
0100
0000
0010
0001
0000
1000
0100
0000
,
0020
0030
0100
0000
0100
0000
1000
0000
1000
0000
0001
0000
0001
0000
0100
0000
,
0100
0000
0010
0000
0010
0000
1000
0000
1000
0000
0001
0000
0001
0000
2002
3003
,
1010
0000
0001
0101
0000
0010
0110
1000
,
0001
0000
0100
0000
0000
0000
0010
0100
0010
0000
0000
0000
1000
0000
0001
0000
1000
0000
0000
0000
0010
0000
0000
0000
0100
0000
0010
0000
0000
0000
0000
0000
;

//--------------- dance-single - ----------------
#NOTES:
     dance-single:
     :
     Edit:
     17:
     0,0,0,0,0:
0000
0000
0000
0000
,
0000
0000
0000
0000
,
0001
0100
0001
0100
0010
1000
0100
0010
0001
1000
0001
1000
0010
0100
0001
0010
,
0100
1000
0100
1000
0001
0010
0100
1000
0001
0100
0001
0100
0010
1000
0001
0100
,
0001
0010
0001
0010
0100
1000
0001
0100
0010
1000
0010
1000
0001
0010
0100
1000
,
0010
0100
0010
0100
0001
1000
0010
0100
0001
0010
0001
0010
0100
1000
0001
0100
,
0010
1000
0010
1000
0001
0100
0010
1000
0001
0010
0001
0010
0100
1000
0100
0010
,
0001
1000
0001
1000
0010
0100
0001
0010
0100
1000
0100
1000
0010
0100
0001
1000
,
0001
0010
0001
0010
0100
1000
0100
0010
0001
1000
0001
1000
0010
0100
0001
1000
,
0010
0000
0200
0000
0000
0000
0310
1000
0002
0000
0000
0000
0013
0100
1000
0000
0100
0000
0010
0000
0001
0000
1000
0000
2010
0000
0000
0000
0000
0000
0000
0000
,
3001
0000
0000
0000
0010
0000
0100
0000
0000
0000
0100
0000
1000
0000
0000
0000
1100
0000
0000
0000
0000
0000
0000
0000
1000
0010
1000
0000
0010
0000
0100
0000
,
0001
0000
0001
0010
0000
0100
1000
0000
1001
0000
0001
0201
0000
0000
0000
0310
,
0000
0000
0010
0000
1000
0000
0000
0000
1000
0000
0001
0000
0000
0000
0011
0000
0000
0000
0000
0000
0000
0000
0010
0100
0010
0000
0001
0000
1000
0000
0010
0000
,
0000
0010
0100
0000
0100
0001
0000
1001
0000
1000
1200
0000
0000
0000
0310
0000
,
0010
0001
0000
0001
1000
0000
0010
0000
0100
0000
0001
0010
0001
0010
0100
0000
,
0100
1000
0000
1000
0010
0000
0100
0000
0101
0000
0001
0010
0100
0010
0001
1000
,
0100
0010
0001
1000
0010
0100
0010
1000
0001
0100
0010
2000
0000
3010
0200
0000
,
0301
0000
0010
0000
0100
0000
1000
0000
0001
0100
0001
0100
0020
0000
0000
0000
1030
0000
0001
0000
1000
0000
0000
0000
0001
0000
0010
0000
0001
0000
0000
0000
,
1000
0001
1000
0000
0010
0100
0010
0000
0100
0001
0100
0000
0010
0100
0010
0000
,
1000
0100
1100
0011
1100
0000
0100
1000
0001
0000
0010
0100
0010
0000
0100
1000
,
0001
0000
0100
0010
0200
0000
0301
0000
1000
0000
0001
0000
1000
0000
0001
0000
,
0010
0000
0000
0000
0100
0000
0000
0000
1000
0000
0000
0000
0100
0010
0100
0010
0001
0000
0000
0000
1000
0000
0010
0000
1000
0000
0000
0000
0010
0000
0100
0000
,
0010
0000
1000
0010
1000
0000
0001
0010
0001
0000
0010
0100
0010
0000
0001
0010
,
0001
0000
0010
0100
0110
1001
0110
0000
0010
0100
0010
0000
1000
0001
1000
0000
,
0001
1000
0001
0000
0010
0000
0100
1000
0100
0010
0100
0001
1000
0010
0001
0010
,
0100
1000
0001
0100
0010
1000
0001
0000
1001
0000
0101
0000
0001
0100
0010
0000
,
0110
0000
0000
0000
0100
0000
0001
0000
1000
0000
0000
0000
1100
0000
0000
0000
0102
0000
0000
0000
1003
0100
1000
0100
0020
0000
0000
0000
0000
0000
0000
0000
,
0230
0000
0000
0000
0000
0000
2300
0000
0000
3001
0100
0010
0200
0000
0000
0000
0000
0000
0310
1000
0001
0010
0000
0100
,
0000
0010
0000
0100
0000
0010
0000
0001
0000
0100
0010
1000
0010
0100
0010
2000
0000
0000
0000
0000
0000
3001
0000
0010
,
0200
0000
0000
0000
0000
0000
1300
0001
0100
0020
0000
0000
0000
0000
0000
0130
0000
0001
0101
0000
0000
0000
0000
0000
,
1010
0000
0000
0000
0000
0000
0100
0001
1000
0001
0010
0100
2000
0000
0000
0000
0000
0000
0000
0000
0000
0000
0000
0000
,
3200
0000
0000
1300
0001
1000
0002
0000
0000
0000
0000
0000
,
2003
3020
0230
0000
,
0302
0000
0203
0000
,
0000
0302
0023
0000
,
0230
0000
0000
0000
0000
0000
0000
0000
0010
0000
0000
0310
0001
1000
0100
0010
0002
0000
0000
0000
0000
0000
0000
0000
0000
0000
0000
0000
0000
0000
0000
0000
0000
0000
0000
0000
0000
0000
0000
0000
0000
0000
0000
0000
0000
0000
0000
0000
1003
0000
0000
0000
0000
0000
0000
0000
0000
0000
0000
0000
0000
0000
0000
0000
,
2100
0000
0000
0000
0000
0000
0000
0000
0000
3001
0000
0100
,
0000
0000
0010
0000
0000
0000
0210
0000
0000
0000
0000
0000
0000
0000
0000
0000
0000
0000
0310
0000
0000
1000
0000
0000
,
0002
0000
0000
0023
,
0000
0000
0130
0100
0010
0001
1000
0001
,
0100
0010
0110
0100
1000
0001
0010
1000
,
0100
0000
0010
0000
0001
0100
0001
0010
0100
1000
0001
1000
0100
0010
0001
1000
,
0001
0000
0100
0000
0010
0000
1000
0000
0002
0100
0100
0100
0103
0010
1000
0000
1000
0100
0010
0001
0011
0000
0000
0000
1100
0000
0000
0000
0011
0000
0000
0000
,
1100
0000
1000
0000
0010
0000
0220
0330
0101
0000
1010
0000
0101
0002
0000
2003
,
0000
3100
0000
0010
0000
0100
0000
0010
0000
0001
0000
2000
0000
0000
3010
0000
0100
0000
0010
0000
0100
0000
0001
0000
2000
0000
0000
0000
3002
0000
0000
0000
,
1003
0100
0010
0001
1000
0010
0100
0001
0101
0000
1010
0000
0101
0000
1010
0000
,
1000
0000
0000
0000
0100
0000
0000
0000
0220
0000
0330
0000
0011
0000
0000
0000
1100
0000
0000
0000
0011
0000
0002
0000
0000
0000
2003
0000
0000
3010
0000
0100
,
0000
0010
0000
0100
0000
0001
0000
2000
0000
0000
3100
0000
0010
0000
0100
0000
0010
0000
0001
0000
2000
0000
0000
0000
3002
0000
0000
0000
1003
0000
0010
0000
,
0100
0001
1000
0100
0010
0001
1000
0000
0001
0100
0000
0010
0100
0000
0001
0010
,
0000
0100
1000
0001
0100
0010
0210
0000
0000
0000
0302
0000
1003
0100
0000
0010
,
0100
0000
0000
0000
0001
0000
0100
0000
1000
0000
0010
0000
0200
0000
0000
0301
0000
0010
0000
0001
0000
0010
0000
0100
0000
2000
0000
0000
3001
0000
0100
0000
,
0001
0100
0010
2000
0000
3002
0000
0103
0010
0100
1000
0100
0001
0010
0100
1000
,
0000
0001
0100
0000
0100
0010
0000
0010
1000
0000
1000
0100
0010
0001
0100
0120
,
0000
0000
0000
2030
0000
3001
0010
0000
0010
0100
0000
0100
1000
0001
0100
0020
,
0000
1030
0000
0010
0000
1000
0000
0010
0000
0100
0000
0002
0000
0000
1003
0000
0100
0000
1000
0000
0100
0000
0010
0000
0002
0000
0000
0000
0000
0000
0000
0000
,
0023
0000
0230
1300
0000
0000
0000
1000
1001
0000
0000
0000
0001
0101
0000
0100
,
0110
0000
0000
0000
0010
1010
0000
0000
0000
1000
1001
0000
0001
0011
0000
0000
,
0000
0000
0010
0000
0110
0000
0000
0000
0000
0000
0000
0000
0100
0000
1100
0000
0000
0000
1000
0000
0001
0100
0001
0100
0010
0000
1000
0001
0000
0010
0100
0000
,
1000
0010
0100
0001
1000
0000
0000
0000
0100
0000
0000
0000
0001
0000
0000
0000
0100
0000
0000
0000
0110
0000
0000
0000
0010
0000
0000
0000
0001
0000
0000
0000
,
1000
1010
0010
0100
0001
1001
1000
0020
,
0130
0001
0010
0001
0100
0010
1000
0100
1000
0010
0100
0001
0010
0100
1000
0010
,
0100
0001
0010
0000
0000
0000
0100
1000
0010
0000
0000
0000
0100
0000
0001
0000
1000
0000
0001
0000
1000
0000
0000
0000
0010
0000
0100
0000
0000
0000
0000
0000
;
