#TITLE:†吸tie Ladies†;
#SUBTITLE:;
#ARTIST:ソフィー・トワイライト 天野灯 夏木ひなた エリー;
#TITLETRANSLIT:Cutie ladies;
#SUBTITLETRANSLIT:;
#ARTISTTRANSLIT:Sophie Twilight;
#GENRE:ANIME;
#CREDIT:;
#MUSIC:Cutie Ladies.ogg;
#BANNER:Cutie Ladies.png;
#BACKGROUND:Cutie Ladies-bg.png;
#CDTITLE:;
#SAMPLESTART:47.924;
#SAMPLELENGTH:13.448;
#SELECTABLE:YES;
#OFFSET:1.100;
#BPMS:0.000=145.000;
#STOPS:56.000=2.897
,57.000=1.448
;
#LASTBEATHINT:0.276517;
#BGCHANGES:2.500=Cutie Ladies.avi=1.000=0=0=0=StretchNoLoop====,
99999.000=-nosongbg-=1.000=0=0=0=StretchNoLoop====
;
#FGCHANGES:;

//--------------- dance-single - ----------------
#NOTES:
     dance-single:
     :
     Hard:
     11:
     0,0,0,0,0:
0000
0000
0000
0000
,
0000
0000
0000
0000
,
1000
1000
2000
0000
0100
0000
3100
0000
,
0001
0001
0002
0000
0100
0000
0103
0000
,
1000
1000
2000
0000
0100
0000
3100
0000
,
0001
0000
0001
0000
0002
0000
0000
0000
1003
0000
0000
0001
0000
1001
0000
0000
,
0001
0000
1000
0000
0001
0000
0100
0000
0020
0000
0000
1000
0000
0000
0100
0000
,
1030
0000
0001
0000
1000
0000
0100
0000
2000
0000
0000
0001
0000
0000
0100
0000
,
3002
0023
0230
2300
,
3010
0000
1000
0000
0100
0000
0000
0110
0000
0110
0000
0010
0002
0000
0000
0000
,
1003
0000
0001
0000
0000
0100
0000
0000
0100
0000
0000
0010
0000
0000
0010
0000
,
1000
0000
0100
0000
0000
1000
0000
0000
0001
0000
0000
0001
0000
0000
0001
0000
,
0010
0000
0100
0000
0000
0100
0000
0000
1000
0000
0000
1000
0000
0000
0001
0000
,
0100
0000
0000
0001
0000
1000
0000
1001
0000
0000
1000
0000
0010
0000
0100
0000
,
0002
0003
1000
0000
2000
3000
0010
0000
0010
0000
0010
0000
0000
0010
0000
0000
,
0100
1001
0000
0001
0010
0100
1000
0100
,
0000
1000
0000
0000
0001
0000
0100
0000
0000
0010
0000
0000
1000
0000
0000
0100
,
0000
0000
0010
0000
0100
0000
1000
0000
0000
0001
0000
0000
0100
0000
1000
0000
,
0000
0100
0000
0000
0001
0000
0010
0000
0100
0000
1000
0000
0000
1100
0000
0000
,
1000
0001
1000
0001
0000
0010
0001
0100
,
0000
0010
1000
0100
0000
0010
0001
2000
,
0000
3001
0000
1001
0000
0001
1000
0010
,
0000
0100
0001
0010
0000
0100
1000
0002
,
0000
0000
1003
0000
0000
0000
1000
0000
0100
0000
1000
0000
0000
0011
0000
0000
,
0100
0000
1000
0000
0000
0000
0001
0000
0100
0000
0001
0000
0000
1010
0000
0000
,
0100
0001
0000
0101
0000
1010
0000
1100
,
0000
0011
0000
1001
0000
0000
0000
0000
,
0001
0100
0001
1000
0000
2100
0000
0001
,
0000
3001
0000
0000
0101
0000
0000
0000
0100
0000
0001
0000
1000
0000
0100
0000
,
0000
0110
0000
0000
0010
0000
0001
0000
0100
0000
1000
0000
0100
0000
0001
0000
,
1000
0100
0010
0100
0001
0100
1000
0001
,
0000
0110
0000
1001
0000
0102
0000
1000
,
0000
1003
0000
0000
1100
0000
0000
0000
0100
0000
1000
0000
0001
0000
0100
0000
,
0000
0110
0000
0000
0010
0000
1000
0000
0100
0000
0001
0000
0100
0000
1000
0000
,
0001
0100
0010
0100
1000
0100
0001
1000
,
0000
1001
0000
1010
0000
0100
0001
0010
,
0000
0100
1000
0001
0000
0100
0001
1000
,
0000
0100
0000
0000
0010
0000
0011
0000
0000
0000
0011
0000
0000
0000
1100
0000
,
0000
1100
0000
1001
0000
1001
0000
0110
,
0000
1001
0000
0100
0100
0100
1000
0100
,
0000
1000
0000
0000
0001
0000
0100
0000
0100
0000
0100
0000
0001
0000
1000
0000
,
0000
0001
0000
0000
1000
0000
0100
0000
0100
0000
0100
0000
1000
0000
0100
0000
,
0000
1000
0000
0000
0001
0000
0100
0000
0100
0000
0100
0000
0001
0000
1000
0000
,
0000
0010
0000
1001
0000
0000
1100
0000
1100
0000
1100
0000
0100
0000
1000
0000
,
0000
0001
0000
0000
0100
0000
0101
0000
0101
0000
0101
0000
0001
0000
1000
0000
,
0000
0100
0000
0000
0010
0000
0200
0000
0000
0000
2300
0000
0000
0000
3002
0000
,
0000
0000
0203
0000
0000
0000
0310
0000
1000
0000
1001
0000
0000
0011
0000
0011
,
0000
0001
1000
0000
0100
0000
1100
0000
1000
0000
0001
0000
1000
0000
0001
0000
,
0100
0000
0010
0000
0100
0000
0220
0000
0000
0000
0330
0000
0000
0010
0000
0010
,
0000
0010
0100
0000
0220
0000
0000
0000
0000
0000
0000
0000
0000
0000
0000
0000
,
0000
0000
0330
1001
0000
0000
0000
0000
;

//--------------- dance-single - ----------------
#NOTES:
     dance-single:
     :
     Challenge:
     15:
     0.083235,0.070494,0,0.131919,0,53,53,0,12,0,0,0.083235,0.070494,0,0.131919,0,53,53,0,12,0,0:
0000
0000
0000
0000
,
0000
0000
0000
0000
,
1100
1100
2100
0000
0001
0000
3001
0000
,
0101
0101
0102
0000
1000
0000
1003
0000
,
1010
1010
2010
0000
0001
0000
3001
0000
,
0011
0000
0011
0000
0012
0000
0000
0000
1003
0000
1000
0010
0000
0110
0000
0000
,
1001
0000
1001
0000
1001
0000
0100
0000
0011
0000
0000
1100
0000
0000
0011
0000
,
1001
0000
1001
0000
1001
0000
0100
0000
1010
0000
0000
0101
0000
0000
1010
0000
,
0110
0001
0110
1000
1001
0100
1001
0010
,
0110
0000
0110
0000
0100
0001
0000
1001
0000
1001
0000
0001
0010
0100
1000
0100
,
0010
0000
0001
0000
0010
0001
0000
0010
0001
0000
0010
0100
0000
0010
0100
0000
,
1000
0000
0001
0000
1000
0010
0000
1000
0010
0000
0100
0010
0000
0100
0010
0000
,
0100
0000
0010
0000
1000
0010
0000
1000
0001
0000
0001
0100
0000
0001
1000
0000
,
0010
0000
0001
0010
0000
1000
0000
1001
0000
0000
1001
0000
0001
0010
0100
1000
,
0001
0000
0011
0000
1001
0000
1001
0000
1001
0000
1000
0010
0000
0110
0000
0000
,
1001
0000
0001
0100
0001
0000
0010
0000
0100
0000
1000
0100
0000
0010
0100
0000
,
0001
0100
0000
1000
0100
0000
1000
0000
0010
0000
0001
0010
0000
0100
0010
0000
,
1000
0010
0000
0001
0010
0000
1000
0100
1000
0100
0001
0100
0001
1000
0010
1000
,
0010
0000
0001
0000
0100
0000
1000
0000
0100
0000
0001
0010
0000
1100
0000
0001
,
0010
0001
0010
0100
1000
0100
1000
0000
0000
1000
0010
0000
0001
0000
1000
0000
,
0000
1000
0100
0000
0001
0000
0010
0000
0000
1000
0010
0000
0001
0000
2000
0000
,
0001
0000
3001
0000
0000
0000
0001
0000
0000
0100
1000
0000
0001
0000
0010
0000
,
0000
1000
0100
0000
0001
0000
1000
0000
0000
0010
0001
0000
1000
0000
0001
0000
,
1000
0000
0010
0000
0100
0001
0100
0000
0100
0010
0000
1010
0000
0110
0000
0100
,
0001
0010
0100
0000
1000
0000
0010
0000
0100
0001
0000
0011
0000
1010
0000
1000
,
0100
0010
0001
0010
0100
0000
0101
0000
1000
0000
0011
0000
1000
0000
0101
0000
,
1000
0011
1000
1001
0000
0000
0000
1000
,
0001
0010
0100
0000
1000
0000
0011
0000
0000
0001
1000
0000
0010
0100
0010
0000
,
0001
0010
0000
0000
1000
0000
0000
0100
0010
0000
0001
0000
1000
0001
1000
0000
,
0001
0010
0000
0000
0001
0100
0010
0100
0001
0100
0010
0100
0001
0010
0100
0010
,
0001
0010
0100
0010
0001
0100
1000
0100
0001
0100
1000
0100
0001
0010
1000
0000
,
0010
0000
0001
0000
0100
0010
0100
0000
0000
0010
1000
0000
0100
0010
0100
0000
,
0001
0100
0000
0000
1000
0000
0010
0000
0100
0001
0100
0000
0010
0000
1000
0000
,
0001
1000
0000
0000
1000
0100
0010
0100
1000
0100
0010
0100
1000
0010
0100
0010
,
1000
0010
0100
0010
1000
0100
0001
0100
1000
0100
0001
0100
1000
0010
0001
0000
,
0010
0000
1000
0000
0100
0010
0100
0000
0000
1000
0100
0000
0100
0010
0001
0000
,
0000
0001
1000
0000
1000
0010
0100
0000
0000
0100
0001
0000
0001
0010
0100
0000
,
0100
1000
0000
1000
0010
0100
0001
0000
0001
0000
0001
0000
0001
0100
0010
0000
,
0010
0000
0010
0000
0010
0100
1000
0000
1000
0000
1000
0000
1000
0100
0001
0000
,
0010
0000
1001
0000
0010
0000
0011
0000
1010
0000
1100
0000
0100
0001
0010
0000
,
0010
1000
0000
1000
0100
0000
1010
0000
0011
0000
0101
0000
0100
1000
0010
0000
,
0010
0001
0000
0001
0100
0000
0101
0000
0011
0000
1010
0000
0010
1000
0100
0000
,
0100
0001
0000
0001
0010
0000
1100
0000
1010
0000
0011
0000
0010
0001
0100
0000
,
0100
1000
0000
1001
0000
0000
0110
0000
0110
0000
0110
0000
1000
0000
0001
0100
,
1000
0100
0001
0100
1000
0000
0110
0000
0110
0000
0110
0000
0001
0000
1000
0100
,
0001
0100
1000
0100
0001
0000
0110
0000
1000
0000
1100
0000
0001
0000
0101
0000
,
1000
0000
1100
0000
0110
0000
0110
0000
1001
0000
0001
0010
0000
1010
0000
1100
,
0000
0100
0001
0000
0010
0000
1001
0000
0100
1000
0010
0000
0100
0001
0010
0000
,
0100
1000
0010
0000
0100
0001
1000
0000
0000
0000
0000
0000
0000
1001
0000
1001
,
0000
0001
0010
0000
1100
0000
0001
0100
0001
0100
0001
0100
0001
0100
0001
0100
,
0001
0100
0001
0100
0001
0100
0002
0000
0000
0000
0000
0000
0003
0000
0000
0000
;
