#TITLE:キュートなカノジョ;
#SUBTITLE:;
#ARTIST:syudou;
#TITLETRANSLIT:Cute na Kanojo;
#SUBTITLETRANSLIT:;
#ARTISTTRANSLIT:syudou;
#GENRE:;
#CREDIT:;
#MUSIC:Cute na Kanojo.ogg;
#BANNER:Cute na Kanojo.png;
#BACKGROUND:Cute na Kanojo-bg.png;
#CDTITLE:;
#SAMPLESTART:16.579;
#SAMPLELENGTH:17.437;
#SELECTABLE:YES;
#OFFSET:1.233;
#BPMS:0.000=160.000
,44.000=80.000
,46.000=160.000
,154.000=80.000
,156.000=160.000
,260.000=80.000
,262.000=160.000
;
#STOPS:;
#LASTBEATHINT:0.621333;
#BGCHANGES:3.500=Cute na Kanojo.avi=1.000=0=0=0=StretchNoLoop====,
99999.000=-nosongbg-=1.000=0=0=0=StretchNoLoop====
;
#FGCHANGES:;

//--------------- dance-single - ----------------
#NOTES:
     dance-single:
     :
     Medium:
     12:
     0,0,0,0,0:
0000
0000
0000
0000
,
0000
0000
0000
0000
,
0001
0100
0010
0000
0110
0000
1000
0100
,
0010
0100
1000
0000
1001
0000
0001
1000
,
0100
0000
1100
0000
0011
0000
0001
0100
,
0110
0000
1001
0000
1001
0000
0100
0001
,
0010
0100
1000
0001
1000
0000
0010
1000
,
0100
0010
0001
0100
0010
0000
1000
0010
,
0100
0010
1000
0001
0100
0010
0100
0001
,
0000
1000
0100
0010
0000
0000
1001
0000
,
1000
0010
0100
0010
1000
0100
0010
0100
,
1000
0000
0000
0000
0000
0000
0000
2000
3001
0000
0000
0000
0100
0000
1000
0000
,
0000
0100
0001
0010
0100
0000
0010
0001
,
1000
0001
0100
0000
0100
0001
0010
0100
,
1000
0001
1000
0100
0000
0010
0001
0100
,
1000
0000
0110
0010
1000
0000
0100
0001
,
0000
0100
1000
0010
0100
0000
0010
1000
,
0001
1000
0100
0000
0100
1000
0010
0100
,
0001
1000
0001
0100
0000
0010
1000
0100
,
0001
0000
0110
0000
0001
1000
0001
1000
,
0010
0000
0100
0100
0002
0000
1000
0000
,
0013
0100
1000
0001
1000
0000
0010
0100
,
0010
0000
1000
1000
0000
0001
1000
0001
,
1000
0000
0000
1001
0000
0000
0001
0100
0001
0000
0100
0000
,
0010
0100
0010
0000
1000
0000
0010
1000
0010
0000
1000
0000
,
0100
1000
0100
1000
0010
1000
0010
0000
0100
0000
0001
0010
,
0001
0000
0010
0000
0100
0010
0100
0000
0000
0110
0000
0000
,
1001
0000
0000
0000
0000
0000
1000
0000
0000
0100
0000
0000
1000
0000
0100
0000
1000
0000
0000
0000
0100
0000
0000
0000
,
0010
0100
0010
0000
0001
0000
0010
0001
0010
0000
0001
0000
,
0100
0001
0100
0001
0010
0001
0010
0000
0100
0000
1000
0010
,
1000
0000
0010
0000
0100
0010
0100
0000
0000
0110
0000
0000
,
1001
0000
1000
0001
0100
0010
0010
0100
,
1000
1000
0100
0001
0001
0010
0100
1000
,
0100
0010
0001
1000
0000
1000
0010
0100
,
0010
0001
0010
0100
0000
0001
1000
0001
,
0000
0110
0000
0100
0001
1000
0001
0000
,
1001
0000
0001
0010
0100
1000
0001
1000
,
0000
1000
0001
0010
0100
1000
0001
0100
,
1000
0000
0100
0000
0001
0000
1000
0000
0001
0000
0000
0000
0000
0000
0000
0002
,
1003
0000
0100
0001
0000
0100
1000
0010
,
0100
0000
0010
1000
0001
1000
0100
0000
,
0100
1000
0010
0100
0001
1000
0001
0100
,
0000
0010
1000
0100
0001
0000
0110
0010
,
0001
0000
0100
1000
0000
0100
0001
0010
,
0100
0000
0010
0001
1000
0001
0100
0000
,
0100
0001
0010
0100
1000
0001
1000
0100
,
0000
0010
0001
0100
1000
0000
0110
0000
,
1000
0001
1000
0001
0010
0000
0100
0100
,
2000
0000
0001
0000
3010
0100
0001
1000
,
0001
0000
0010
0100
0010
0000
0001
0001
,
0010
0000
0001
1000
0000
0001
0100
0010
,
1000
0000
1000
0100
0010
0100
1000
0000
,
0011
0000
0001
0100
0000
0010
1000
0100
,
0000
0010
0001
0100
1000
0000
1000
0100
,
0001
0000
1000
0001
0000
1000
0100
0010
,
0001
0000
0001
0100
0010
0100
0001
0000
,
1010
0000
1000
0100
0000
0010
0001
0100
,
0000
0010
1000
0100
0001
0000
0001
0100
,
1000
0000
1000
0010
0000
0010
0100
0010
,
1000
0000
1000
0100
0001
0100
1000
0000
,
0001
0000
0100
0010
0000
0010
1000
0100
,
0000
0010
0001
0010
0001
0000
1000
0010
,
0100
0000
0010
1000
0001
0000
0010
0001
,
1000
0000
0100
1000
0100
1000
0010
0000
,
0100
0000
1000
0100
0001
0010
0100
1000
,
0002
0000
2003
0000
3002
0000
0003
2000
3001
0000
0000
0000
0100
0000
1000
0000
,
0000
0100
0001
0010
0110
0000
0100
1000
,
0001
1000
1010
0000
0010
1000
0100
0001
,
1000
0010
0001
1000
0000
1000
0010
0001
,
2000
3000
1001
0010
1000
0000
0100
0001
,
0000
0100
1000
0010
0110
0000
0100
0001
,
1000
0001
0011
0000
0010
0001
0100
1000
,
0001
0010
1000
0001
0000
0001
0010
1000
,
0002
0003
1001
0100
1000
0001
0100
1000
,
0100
1000
0100
0001
0010
0100
1000
0010
,
1000
0010
0001
1000
0001
0010
0100
1000
,
0001
0010
0100
1000
0100
0001
0010
0100
,
1000
0001
1001
0001
1000
0100
0001
0100
,
0001
0100
1000
0010
0100
0001
0010
0001
,
0010
1000
0001
1000
0010
0100
0001
1000
,
0010
0100
0001
0100
1000
0010
0100
0001
,
1000
0001
1001
0000
1100
0000
1000
0100
,
0001
0000
0001
0200
1000
0000
0001
0000
,
1300
0001
1000
0001
1000
0000
0001
0100
,
1000
0000
1000
0100
0000
0001
1000
0001
,
2000
3000
0000
0000
0000
0000
0000
0000
;

//--------------- dance-single - ----------------
#NOTES:
     dance-single:
     :
     Hard:
     15:
     0,0,0,0,0:
0000
0000
0000
0000
,
0000
0000
0000
0000
,
0001
0100
0001
0100
0020
0000
1030
0100
,
0010
0100
1000
0001
2000
0000
3010
0100
,
0001
1000
0001
0010
0100
1000
0010
0010
,
1001
0000
0110
0000
1001
0000
0100
0001
,
0020
0000
0130
1000
0002
0000
0103
0010
,
2000
0000
3001
0010
0200
0000
1300
0001
,
0010
0100
0010
0001
0010
0100
1000
0010
,
0000
0100
0001
1000
0000
0000
1001
0000
,
0001
0010
1000
0010
0001
0100
1000
0100
,
0001
0000
0000
0000
0000
0000
0000
2000
3001
0000
0001
1000
0100
0000
0010
0000
,
0010
0000
0001
1000
0010
0000
0100
0000
0010
0000
0010
1000
0100
0000
0010
0001
,
0100
0000
0010
0000
0100
0001
0010
0100
1000
0000
1000
0010
0100
0000
0001
0000
,
0001
0000
0010
0100
0010
0000
0100
0000
0100
0000
1000
0100
0010
0000
0001
0010
,
0200
0000
1000
0000
1300
0100
0010
0001
1000
0000
1000
0010
0100
0000
0001
0000
,
0001
0000
0100
0010
1000
0000
0001
0000
1000
0000
1000
0010
0100
0000
0010
0100
,
0001
0000
1000
0000
0100
0010
0001
1000
0100
0000
0100
1000
0010
0000
0100
0000
,
0100
0000
0010
1000
0100
0000
0010
0000
0010
0000
0001
0100
1000
0000
1000
0100
,
0002
0000
1000
0000
1003
0100
0010
0001
1000
0000
0100
0000
0010
0000
0010
0000
,
0001
1000
0001
0001
0200
0000
1000
0000
,
0301
1000
0100
0010
0100
0010
0001
0001
,
0010
0100
1000
2000
0000
0010
0010
0010
,
3010
0000
0000
0110
0000
0000
0001
0010
0001
0010
0100
1000
,
0010
0100
0010
1000
0100
0010
0100
0001
0100
1000
0001
0100
,
0010
0100
0001
0100
0010
0100
1000
0100
0001
1000
0001
1000
,
0100
0000
0010
0000
0100
0000
0010
0000
0001
0000
0100
0000
0001
0000
0000
1000
0000
0000
0100
0000
0000
1000
0000
0000
,
0001
0000
0000
0100
0000
0000
0010
0000
0000
0010
0000
0000
0100
0000
0001
0000
0100
0000
0010
0000
0100
0000
0001
0000
,
0010
0100
1000
0100
0001
0100
1000
0010
0100
0010
1000
0001
,
0100
0010
0001
0010
0100
0001
0010
0100
1000
0010
0100
0001
,
0100
1000
0100
0001
0010
0100
1000
0000
0000
0011
0000
0000
,
1100
0000
0000
0000
1000
0000
1000
0100
0010
0000
0100
1000
0100
0000
0010
0000
,
0100
1000
0100
0000
0001
0000
0100
1000
0100
0000
0010
0000
0001
0000
0010
0000
,
0100
1000
0001
0100
0000
0001
0100
0010
,
0100
0001
0010
0100
0000
1000
0001
1000
,
0000
0110
0000
0100
0001
1000
0001
0000
,
1001
0000
0001
0010
0100
1000
0001
0100
,
0000
0100
0001
0010
0100
1000
0010
0100
,
0001
0000
0100
0000
0010
0000
1000
0000
0001
0000
0000
0000
0000
0000
0000
0002
,
1003
0000
1000
0001
0100
0000
0010
0000
0010
0000
1000
0001
0010
0000
0100
0000
,
0010
0000
0010
0001
0100
0000
0010
1000
0100
0000
0010
0000
0100
1000
0010
0100
,
0001
0000
0001
0010
0100
0000
1000
0000
1000
0000
0010
0100
0010
0000
0100
0000
,
0100
0000
0001
0100
0010
0000
1000
0010
0200
0000
0001
0000
0301
0100
0010
1000
,
0001
0000
0001
0010
0100
0000
1000
0000
1000
0000
0100
0010
0001
0000
1000
0000
,
0001
0000
0001
0010
0100
0000
0010
0100
1000
0000
0001
0000
0100
0010
1000
0001
,
0100
0000
0100
0001
0010
0000
0100
0000
0100
0000
0010
0001
0100
0000
0010
0000
,
0010
0000
1000
0100
0001
0000
0001
0100
2000
0000
0001
0000
3001
0100
0010
1000
,
0001
0100
0010
0010
1000
0001
1000
1000
,
0200
0000
0001
0000
1300
0001
0100
0010
,
0100
0010
1000
1000
0010
0100
0001
0001
,
0010
0000
0100
1000
0000
0001
0100
0001
,
0010
0000
0000
0000
0010
0000
0100
0000
1000
0000
0100
0000
0010
0001
0010
0001
,
1000
0000
1000
0010
0000
0010
0100
0010
,
0000
0000
0010
0000
1000
0000
0100
0000
0020
0000
0001
0000
0031
0000
1000
0100
,
1000
0000
1000
0001
0000
0001
0010
0001
,
0100
0000
0000
0000
0100
0000
0010
0000
1000
0000
0001
0000
1000
0100
1000
0100
,
0010
0000
0010
0001
0000
0001
1000
0001
,
0000
0000
0100
0000
0010
0000
0100
0000
0020
0000
0100
0000
0130
0000
0001
0010
,
0100
0000
1000
0001
0000
0001
1000
0001
,
0100
0000
0010
0100
0001
1000
0100
0000
,
0010
0000
0010
0001
0000
0001
1000
0100
,
0000
0010
0001
0010
0001
0000
1000
0100
,
1000
0100
0001
0100
1000
0100
0001
0100
,
1000
0010
0001
0010
1000
0010
0001
0010
,
1000
0100
0010
0001
1000
0100
0010
0001
,
0101
0000
1010
0000
1002
0000
0000
2003
3100
0000
0100
1000
0001
0000
0010
0000
,
0010
0000
0001
0100
0010
0000
0001
0000
0010
0000
0010
0100
0001
0000
0010
0100
,
0001
0000
0100
0000
1000
0001
0010
0100
1000
0000
1000
0010
0100
0000
1000
0000
,
1000
0000
0100
0010
0100
0000
0001
0000
0001
0000
1000
0100
0010
0000
1000
0010
,
0200
0000
1000
0000
1300
0010
0100
0001
1000
0000
1000
0010
0100
0000
1000
0000
,
1000
0000
0100
0001
0010
0000
0100
0000
1000
0000
1000
0010
0100
0000
1000
0100
,
0001
0000
0010
0000
0100
1000
0001
0010
0100
0000
0100
1000
0010
0000
0100
0000
,
0100
0000
0010
1000
0100
0000
0010
0000
0010
0000
0001
0100
0010
0000
0010
0100
,
0002
0000
1000
0000
1003
0000
0100
0010
0100
0000
0001
0000
0100
0000
1000
0000
,
0010
1000
0100
0010
0001
0001
1000
1000
,
0010
0000
0100
0000
0001
0100
0001
0100
0010
0000
1000
0000
0100
0000
0010
0000
,
0100
1000
0001
0100
0010
0100
1000
0100
,
0010
1000
1000
0001
0010
0100
1000
0010
,
0100
0010
1000
0010
0100
0001
0010
0100
,
1000
0000
0010
0000
0100
0001
0100
0001
1000
0000
0001
0000
0010
0000
1000
0000
,
0010
0001
1000
0001
0100
0010
0100
0001
,
2000
0000
0001
0000
3001
0000
1000
0100
1000
0000
0000
0000
0100
0000
0010
0000
,
0001
0001
1000
0200
0001
0000
1000
0000
,
0310
0001
0100
0010
0100
1000
0100
0001
,
0010
0000
0100
2000
0000
0001
0001
0001
,
3002
0003
0000
0000
0000
0000
0000
0000
;

//--------------- dance-single - ----------------
#NOTES:
     dance-single:
     :
     Challenge:
     18:
     1.118616,1.231349,0.007624,0,1.646881,1027,1026,1,0,0,0,1.118616,1.231349,0.007624,0,1.646881,1027,1026,1,0,0,0:
0000
0000
0000
0000
,
0000
0000
0000
0000
,
0001
0100
0000
0000
0010
1000
0000
0000
0200
0000
0000
0000
1300
0001
0100
0001
,
1000
0010
0000
0000
0100
0001
0000
0000
0020
0000
0000
0000
0130
1000
0001
0010
,
0200
0000
0000
0000
1300
0010
0000
0000
0100
0001
0000
0000
0010
0100
0010
0001
,
2000
0000
0000
0000
3001
0100
0000
0000
0020
0000
0000
0000
0130
0001
0100
0001
,
0020
0000
0000
0000
0130
1000
0000
0000
0002
0000
0000
0000
0103
0010
0100
0001
,
2000
0000
0000
0000
3001
0100
0000
0000
0002
0000
0000
0000
0103
0000
0001
0000
,
0010
0100
0010
0001
0010
0100
1000
0010
,
0000
0100
0010
0100
0000
0000
1001
0000
,
0001
0100
1000
0100
0001
0010
1000
0010
,
0001
0000
0000
0000
0000
0000
0000
2000
3001
0100
0001
0100
0010
0100
0001
0100
,
0001
0100
0010
1000
0001
1000
0100
1000
0001
0010
0001
0010
0100
1000
0001
1000
,
0010
0000
0000
0100
0000
0000
0001
0000
0000
0010
0000
0000
0001
0000
0100
0000
0010
0000
1000
0000
0001
0000
0100
0000
0010
0000
0000
1000
0000
0000
0010
0000
0000
1000
0000
0000
0001
0000
0000
1000
0000
0000
0010
0000
0000
1000
0000
0000
,
0010
0000
0000
1000
0000
0000
0001
0000
0000
0100
0000
0000
0001
0000
0000
0100
0000
0000
0001
0000
0010
0000
0100
0000
1000
0000
0000
0100
0000
0000
0010
0000
0000
0100
0000
0000
1000
0000
0000
0100
0000
0000
0010
0000
0000
0100
0000
0000
,
2000
0000
0000
0000
0000
0000
0001
0000
0000
0000
0000
0000
3001
0000
0100
0000
0010
0000
0100
0000
0001
0000
0100
0000
0010
0000
0000
1000
0000
0000
0010
0000
0000
1000
0000
0000
0100
0000
0000
1000
0000
0000
0010
0000
0000
1000
0000
0000
,
0010
0000
0000
1000
0000
0000
0001
0000
0000
0010
0000
0000
0100
0000
0000
1000
0000
0000
0100
0000
0010
0000
0001
0000
1000
0000
0000
0010
0000
0000
1000
0000
0000
0010
0000
0000
0100
0000
0000
0010
0000
0000
1000
0000
0000
0010
0000
0000
,
0100
0000
0000
0001
0000
0000
1000
0000
0000
0001
0000
0000
0100
0000
0001
0000
1000
0000
0010
0000
0100
0000
0001
0000
1000
0000
0000
0100
0000
0000
1000
0000
0000
0100
0000
0000
0010
0000
0000
0100
0000
0000
1000
0000
0000
0100
0000
0000
,
1000
0000
0000
0100
0000
0000
0010
0000
0000
0001
0000
0000
0010
0000
0000
0001
0000
0000
1000
0000
0001
0000
0010
0000
0100
0000
0000
1000
0000
0000
0001
0000
0000
0100
0000
0000
0010
0000
0000
0100
0000
0000
0001
0000
0000
0100
0000
0000
,
0020
0000
0000
0100
0000
0000
0130
0001
1000
0010
0100
0001
1000
0000
0000
0100
0000
0000
1000
0000
0000
0100
0000
0000
,
0010
0010
0001
1000
0010
0100
0010
0100
,
0010
0000
0000
1000
0000
0000
0001
1000
0100
0010
0001
1000
0100
0000
0000
0010
0000
0000
0100
0000
0000
1000
0000
0000
,
0010
0100
0010
0100
0010
0100
0020
0000
0000
0000
1000
0000
0100
0000
1000
0000
,
0130
0000
0000
0110
0000
0000
0001
0010
0001
0010
0100
1000
,
0010
0000
0000
0100
0000
0000
0001
0000
0000
1000
0000
0000
0001
0000
0000
0000
0100
0000
0000
0000
0010
0000
0000
0000
0100
0000
0001
0000
0000
0000
0001
0000
0010
0000
0000
0000
0010
0000
0100
0000
0000
0000
0100
0000
1000
0000
0000
0000
,
0010
0000
0000
0100
0000
0000
0010
0000
0000
1000
0000
0000
0100
0000
0010
0000
0100
0000
1000
0000
0100
0000
0010
0000
0100
0000
1000
0000
0000
0000
1000
0000
0010
0000
0000
0000
0010
0000
0100
0000
0000
0000
0100
0000
0001
0000
0000
0000
,
0010
0000
1000
0000
0010
0000
0001
0100
0010
0000
0100
0000
0001
0000
0000
1000
0000
0000
0100
0000
0000
1000
0000
0000
,
0001
0000
0000
0000
0000
0000
0100
0000
0000
0000
0000
0000
0010
0000
0000
1000
0000
0000
0010
0000
0000
1000
0000
0000
0100
0000
0000
0000
0001
0000
0000
0000
0100
0000
0000
0000
1000
0000
0000
0000
0010
0000
0000
0000
0100
0000
0000
0000
,
0010
0000
1000
0000
0001
0000
0100
0010
0000
0010
1000
0000
1000
0100
0000
0100
0010
0100
0010
0000
0001
0000
1000
0000
,
0010
0000
0100
0000
0001
0000
0010
0000
0100
1000
0100
1000
0001
0000
0010
0000
1000
0000
0010
0000
0001
0000
0100
0010
,
0100
0000
0100
0001
0100
0001
1000
0000
0001
0000
0010
0000
0010
0100
0000
0000
0000
0000
1000
0001
0000
0000
0000
0000
,
0001
0000
1000
0000
0000
0000
0000
0000
0000
0000
0000
0000
1000
0000
0000
0100
0000
0000
1000
0000
0000
0100
0000
0000
0010
0000
0000
0000
0000
0000
0001
0000
0000
0010
0000
0000
0001
0000
0000
0000
0000
0000
1000
0000
0000
0000
0000
0000
,
0001
0100
0001
0000
1000
0000
0001
0010
0001
0000
1000
0100
0010
0100
1000
0001
,
0100
1000
0100
0010
0000
0010
1000
0100
,
0001
0100
1000
0001
0000
0001
0100
0010
,
0000
0000
0110
0000
0000
0000
0100
0001
1000
0000
0001
0000
1000
0000
0000
0000
,
1001
0000
0000
0000
0001
0000
1000
0100
1000
0001
0010
0000
0100
0000
1000
0000
,
0000
0001
0100
1000
0001
0010
1000
0100
,
0001
0000
0000
0000
0000
0000
0000
0000
0100
0000
0000
0000
0000
0000
0000
0000
1000
0000
0000
0000
0010
0000
0000
0000
0100
0000
0000
0000
0010
0000
0000
0000
0200
0000
0000
0000
0000
0000
0301
0000
1000
0000
0001
0000
1000
0000
0001
0000
0100
0010
0100
0000
0001
0000
0000
0000
1000
0000
0000
0000
0001
0000
0000
0000
,
1000
0100
1000
0100
0010
0100
1000
0100
1000
0100
0010
0001
1000
0001
0100
0001
,
1000
0000
0000
0010
0000
0000
1000
0000
0000
0010
0000
0000
0100
0000
0000
0001
0000
0000
1000
0000
0000
0001
0000
0000
0010
0000
0000
0100
0000
0000
1000
0000
0000
0010
0000
0000
1000
0000
0100
0000
0010
0000
0001
0000
1000
0000
0100
0000
,
0010
0000
0000
0001
0000
0000
0010
0000
0000
0001
0000
0000
1000
0000
0000
0001
0000
0000
0010
0000
0000
0001
0000
0000
0010
0000
0000
0001
0000
0000
1000
0000
0000
0100
0000
0000
1000
0000
0000
0100
0000
0000
1000
0000
0010
0000
0100
0000
,
0001
0000
0000
0100
0000
0000
0010
0000
0000
0100
0000
0000
0001
0000
0000
0100
0000
0000
0010
0000
0000
0100
0000
0000
0002
0000
0000
0000
0000
0000
1000
0000
0000
0000
0000
0000
1003
0000
0100
0000
0010
0000
0100
0000
1000
0000
0100
0000
,
0010
0000
0000
0001
0000
0000
0010
0000
0000
0001
0000
0000
0100
0000
0000
0001
0000
0000
0010
0000
0000
0001
0000
0000
0010
0000
0000
0001
0000
0000
1000
0000
0000
0010
0000
0000
0100
0000
0000
0001
0000
0000
0100
0000
0010
0000
1000
0000
,
0001
0000
0000
0010
0000
0000
0001
0000
0000
0010
0000
0000
0100
0000
0000
0010
0000
0000
0001
0000
0000
0010
0000
0000
0100
0000
0000
1000
0000
0000
0001
0000
0000
1000
0000
0000
0100
0000
1000
0000
0001
0000
0010
0000
0100
0000
1000
0000
,
0001
0000
0000
0100
0000
0000
0001
0000
0000
0100
0000
0000
0010
0000
0000
0100
0000
0000
0001
0000
0000
0100
0000
0000
0001
0000
0000
0100
0000
0000
0010
0000
0000
1000
0000
0000
0010
0000
0000
1000
0000
0000
0001
0000
1000
0000
0010
0000
,
0100
0000
0000
0001
0000
0000
1000
0000
0000
0100
0000
0000
0010
0000
0000
0100
0000
0000
1000
0000
0000
0100
0000
0000
0020
0000
0000
0000
0000
0000
0100
0000
0000
0000
0000
0000
0130
0000
1000
0000
0001
0000
0010
0000
0100
0000
1000
0000
,
0001
0100
0001
0100
0010
0010
1000
0001
,
0010
0000
0000
0100
0000
0000
0010
0000
0000
0100
0000
0000
0010
0000
0000
0001
0000
0000
1000
0001
0100
0010
1000
0001
,
0100
0000
0010
0000
0100
0000
0001
0000
0010
0100
0010
0100
0010
0100
0020
0000
,
0031
1000
0000
0000
0000
0000
1000
0010
0000
0100
0010
0000
0000
0000
0000
1000
0100
0000
0010
0100
0000
1000
0100
0010
,
0100
1000
0000
0000
0000
0000
0001
0100
0000
0010
0100
0000
1000
0100
0000
0010
0100
0000
0001
0100
0010
1000
0001
0100
,
0010
1000
0000
0000
0000
0000
1000
0100
0000
1000
0001
0000
0000
0000
0000
0001
0100
0000
0001
1000
0000
0010
1000
0000
,
0000
0000
0000
1000
0100
0000
0010
0100
0000
0001
0100
0000
0010
0100
0000
1000
0100
1000
0100
0010
0100
0010
0001
0010
,
0001
1000
0000
0000
0000
0000
1000
0100
0000
0010
0100
0000
0000
0000
0000
1000
0010
0000
0100
0010
0000
1000
0010
0100
,
0010
1000
0000
0000
0000
0000
0001
0010
0000
0100
0010
0000
1000
0010
0000
0100
0010
0000
0001
0010
0100
1000
0001
0010
,
0100
1000
0000
0000
0000
0000
1000
0010
0000
1000
0001
0000
0000
0000
0000
0001
0010
0000
0001
1000
0000
0100
1000
0000
,
0000
0000
0000
1000
0010
0000
0100
0010
0000
0001
0010
0000
0100
0010
0000
1000
0010
1000
0010
0100
0010
0100
0001
0100
,
0001
1000
0000
0000
0000
0000
1000
0000
0000
0100
0000
0000
0000
0000
0000
0100
0000
0000
1000
0000
0000
0001
0000
0000
,
0010
0000
0010
0100
1000
0001
0100
0000
,
0010
0000
0010
1000
0000
0001
0010
0100
,
0000
1000
0100
0010
0001
0000
1000
0100
,
1000
0001
1000
0001
0100
0001
0100
0001
,
1000
0010
1000
0010
0100
0010
0100
0010
,
1000
0000
0100
0000
0001
0000
0100
0000
1000
0000
0001
0000
0100
0010
0100
0010
,
0200
0000
0000
0000
0310
0000
1000
0000
0000
0000
1000
0000
0002
0000
0000
0000
0000
0000
0000
0000
0000
2003
0000
0000
3010
0000
0000
0100
0000
0000
0010
0000
0000
0100
0000
0000
0001
0000
0000
0100
0000
0000
0010
0000
0000
0100
0000
0000
,
0010
0100
1000
0100
0001
0010
0100
1000
0001
0010
0001
0010
0100
1000
0001
1000
,
0100
0000
0000
0010
0000
0000
1000
0000
0000
0010
0000
0000
0001
0000
0010
0000
0100
0000
1000
0000
0001
0000
0010
0000
0100
0000
0000
1000
0000
0000
0100
0000
0000
1000
0000
0000
0001
0000
0000
0100
0000
0000
0010
0000
0000
0100
0000
0000
,
0010
0000
0000
0100
0000
0000
1000
0000
0000
0100
0000
0000
1000
0000
0000
0100
0000
0000
0001
0000
0010
0000
0100
0000
1000
0000
0000
0100
0000
0000
0010
0000
0000
0100
0000
0000
1000
0000
0000
0010
0000
0000
0001
0000
0000
0010
0000
0000
,
2000
0000
0000
0000
0000
0000
0001
0000
0000
0000
0000
0000
3001
0000
0100
0000
0010
0000
0100
0000
0001
0000
1000
0000
0010
0000
0000
0100
0000
0000
0010
0000
0000
0100
0000
0000
1000
0000
0000
0100
0000
0000
0010
0000
0000
0100
0000
0000
,
0010
0000
0000
1000
0000
0000
0001
0000
0000
0010
0000
0000
0100
0000
0000
1000
0000
0000
0100
0000
0010
0000
0001
0000
0010
0000
0000
0100
0000
0000
0010
0000
0000
0100
0000
0000
0001
0000
0000
0100
0000
0000
0010
0000
0000
0100
0000
0000
,
1000
0000
0000
0001
0000
0000
0100
0000
0000
0001
0000
0000
1000
0000
0001
0000
0100
0000
0010
0000
0100
0000
0001
0000
0010
0000
0000
0100
0000
0000
0010
0000
0000
0100
0000
0000
1000
0000
0000
0100
0000
0000
0010
0000
0000
0100
0000
0000
,
0010
0000
0000
0100
0000
0000
0001
0000
0000
0100
0000
0000
0001
0000
0000
0100
0000
0000
1000
0000
0100
0000
0010
0000
0001
0000
0000
1000
0000
0000
0001
0000
0000
0100
0000
0000
0010
0000
0000
0100
0000
0000
1000
0000
0000
0100
0000
0000
,
0020
0000
0000
0100
0000
0000
0130
0001
1000
0010
0100
0001
1000
0000
0000
0010
0000
0000
1000
0000
0000
0010
0000
0000
,
0100
1000
0100
0001
1000
1000
0001
0001
,
0010
0000
0000
0100
0000
0000
1000
0100
0010
0001
1000
0100
0010
0000
0000
0001
0000
0000
0100
0000
0000
1000
0000
0000
,
0100
0010
0100
1000
0100
0001
0010
0100
,
0010
0000
0000
1000
0000
0000
0010
0001
1000
0100
0010
0001
1000
0000
0000
0100
0000
0000
1000
0000
0000
0100
0000
0000
,
0001
0100
1000
0010
0100
0001
0100
1000
,
0100
0000
0000
0000
0000
0000
0010
0000
0000
0000
0000
0000
1000
0000
0010
0000
0100
0000
0001
0000
1000
0000
0010
0000
0100
0000
0000
0001
0000
0000
0010
0000
0000
0100
0000
0000
0001
0000
0000
1000
0000
0000
0010
0000
0000
0100
0000
0000
,
1000
0000
0000
0100
0000
0000
0010
0000
0000
1000
0000
0000
0001
0000
0000
0100
0000
0000
1000
0000
0001
0000
0100
0000
0010
0000
0000
0100
0000
0000
1000
0000
0000
0100
0000
0000
0001
0000
0000
1000
0000
0000
0100
0000
0000
0010
0000
0000
,
0002
0000
0000
0000
0000
0000
1000
0000
0000
0003
0000
0000
1000
0000
0010
0000
0100
0000
0001
0000
1000
0000
0010
0000
0100
0000
0000
0000
0000
0000
0001
0000
0000
0000
0000
0000
0100
0000
0000
0000
0000
0000
0010
0000
0000
0000
0000
0000
,
0100
0100
1000
0100
0001
1000
0100
0010
,
0001
0000
0000
1000
0000
0000
0001
0010
0100
1000
0001
0010
0100
0000
0000
1000
0000
0000
0001
0000
0000
0100
0000
0000
,
0001
1000
0100
0010
0001
1000
0020
0000
0000
0000
0001
0000
0100
0000
1000
0000
,
0230
0300
0000
0000
0000
0000
0000
0000
;
