#VERSION:0.83;
#TITLE:Come to Life (かめりあ's "Not on your life though!" Remix);
#SUBTITLE:;
#ARTIST:かめりあ;
#TITLETRANSLIT:;
#SUBTITLETRANSLIT:;
#ARTISTTRANSLIT:;
#GENRE:;
#CREDIT:;
#MUSIC:Come to Life (Camellia Not on your life though Remix).ogg;
#BANNER:Come to Life (Camellia Not on your life though Remix).png;
#BACKGROUND:Come to Life (Camellia Not on your life though Remix)-bg.png;
#CDTITLE:;
#SAMPLESTART:1.740;
#SAMPLELENGTH:9.714;
#SELECTABLE:YES;
#OFFSET:-0.026;
#BPMS:0.000=105.000
,29.500=52.500
,29.750=26.250
,29.875=13.125
,30.000=840.000
,60.000=105.000
,60.500=420.000
,88.500=105.000
,89.500=420.000
,113.500=210.000
,117.500=420.000
,177.500=210.000
,179.500=420.000
,235.500=210.000
,239.500=420.000
,417.500=210.000
,418.500=420.000
,446.500=210.000
,448.500=420.000
,480.500=210.000
,496.500=420.000
,608.500=210.000
,616.500=420.000
,632.500=210.000
,640.500=420.000
;
#STOPS:30.000=0.500
,60.000=1.214
,239.500=0.143
,240.500=0.143
,241.500=0.143
,242.000=0.143
,251.500=0.143
,252.500=0.143
,253.500=0.143
,254.000=0.143
,262.500=0.143
,264.500=0.143
,265.500=0.143
,266.000=0.143
;
#WARPS:30.000=6.000;
#SPEEDS:0.000=1.000=0.000=0;
#SCROLLS:0.000=1.000;
#TICKCOUNTS:0.000=4;
#TIMESIGNATURES:0.000=4=4;
#LABELS:0.000=Song Start;
#COMBOS:0.000=1;
#DISPLAYBPM:105.000:420.000;
#ORIGIN:;
#PREVIEWVID:;
#JACKET:Come to Life (Camellia Not on your life though Remix)-jacket.png;
#CDIMAGE:;
#DISCIMAGE:;
#BGCHANGES:;
#FGCHANGES:;

//--------------- dance-single - ----------------
#NOTEDATA:;
#STEPSTYPE:dance-single;
#DESCRIPTION:;
#DIFFICULTY:Easy;
#METER:13;
#RADARVALUES:0,0,0,0,0;
#NOTES:
0000
0000
0000
0000
,
1000
0000
0000
0001
0000
0000
1001
0000
0000
0000
0000
0000
1000
0000
0010
0000
,
0100
0000
0000
0001
0000
0000
1000
0000
0000
0000
0001
0000
0010
0000
0100
0000
,
1000
0000
0000
0001
0000
0000
1001
0000
0000
0000
1000
0000
0000
0000
0001
0000
,
0100
0000
0010
0000
1000
0000
0001
0000
0010
0000
0000
0100
0000
0000
1000
0000
,
0001
0000
0000
1000
0000
0000
1001
0000
0000
0000
0001
0000
0100
0000
0001
0000
,
1000
0000
0000
0000
1000
0000
0010
0000
1000
0000
0000
0001
0000
0000
0010
0000
,
0110
0000
0000
2000
0000
0000
0002
0000
0000
0000
0000
0000
0000
0000
0000
0000
,
0000
0000
0000
0000
,
0000
0000
0000
0000
,
0000
0000
0000
0000
,
0000
0000
0000
0000
,
0000
0000
0000
0000
,
0000
0000
0000
0000
,
0000
0000
0000
0000
,
3003
0001
0000
0000
0000
0100
0000
0000
,
0000
0001
0000
0000
0000
1000
0000
0000
,
0000
0001
0000
0000
0000
0010
0000
0000
,
0000
0100
0000
0000
0000
1000
0000
0000
,
0000
0010
0000
0000
0000
1000
0000
0000
,
0000
0100
0000
0000
0000
1000
0000
0000
,
0000
0010
0000
0000
0000
0100
0000
0000
,
0000
0002
2003
3001
0000
0010
0000
0001
,
0000
0010
0000
0100
0000
1000
0000
0100
,
0000
1000
0000
0001
0000
0100
0000
0001
,
0000
0100
0000
0010
0000
1000
0000
0010
,
0000
1000
0000
0001
0000
0010
0000
0100
,
0000
0000
0000
1000
0000
0010
0000
0100
,
0000
0000
0000
0020
0000
0230
0000
0301
,
0000
1001
0000
0001
0000
0010
0000
0100
,
0000
0000
0000
1000
0000
0100
0000
0010
,
0000
0000
0000
0001
0000
0100
0000
0010
,
0000
0000
0000
1000
0000
0010
0000
0100
,
0000
0000
0000
0001
0000
0100
0000
0001
,
0000
1000
0000
0100
0000
1000
0000
0020
,
0000
0000
0000
0230
0000
0000
0000
0000
,
0000
0000
0000
0310
0000
0000
0000
0110
,
0000
0000
0000
1000
0000
0010
0000
0100
,
0000
0000
0000
0001
0000
0100
0000
0010
,
0000
0000
0000
1000
0000
0100
0000
0010
,
0000
0000
0000
0001
0000
0010
0000
0100
,
0000
1000
0000
0000
0000
0011
0000
0000
,
0000
1100
0000
0000
0000
0011
0000
0000
,
0000
1100
0000
1000
0000
0100
0000
1000
,
0000
0000
0000
0002
0000
2003
0000
3010
,
0000
0100
0000
0010
0000
0000
0000
1000
,
0000
0001
0000
1000
0000
0000
0000
0100
,
0000
0010
0000
0100
0000
0000
0000
1000
,
0000
0001
0000
1000
0000
0000
0000
0001
,
0000
0100
0000
0001
0000
1000
0000
0100
,
0000
1000
0000
0001
0000
0100
0000
0020
,
0000
0000
0000
0000
0000
0000
0000
0130
,
0000
0000
0000
0110
0000
0000
0000
0010
,
0000
1000
0000
0000
0000
1000
0000
0100
,
0000
0000
0000
0100
0000
0001
0000
0000
,
0000
0001
0000
1000
0000
0000
0000
1000
,
0000
0010
0000
0001
0000
0100
0000
0020
,
0000
0000
0000
2030
0000
0000
0000
3002
,
0000
0000
0000
0203
0000
0000
0000
0320
,
0000
0000
0000
0000
0000
1030
0000
1001
,
0000
1001
0000
0010
0010
1000
0000
0001
,
0000
0100
0000
0001
0000
0000
0000
1000
,
0000
0001
0000
1000
0000
0000
0000
1001
,
0000
1001
0000
0010
0010
0001
0000
1000
,
0000
0100
0000
1000
0000
0000
0000
0001
,
0000
1000
0000
0001
0000
1000
0000
0010
,
0000
0010
0000
0100
0010
0100
0000
0002
,
0000
0000
0000
0023
0000
0000
0000
0230
,
0000
0000
0000
1300
0000
0001
0000
0000
,
0000
1000
0000
0100
0000
0001
0000
0000
,
0000
0001
0000
0100
0000
1000
0000
0000
,
0000
0001
0000
0100
0000
1000
0000
0100
,
0000
0001
0000
1000
0000
0001
0000
1000
,
0000
0100
0000
0010
0000
0001
0000
0010
,
0000
0100
0000
1000
0000
0000
0000
0001
,
0000
0100
0000
0010
0000
1000
0000
0010
,
0000
0100
0000
0001
0000
0000
0000
0001
,
0000
0010
0000
0100
0000
1000
0000
0100
,
0000
0010
0000
0001
0000
0000
0000
1000
,
0000
0010
0000
0100
0000
0001
0000
0100
,
0000
0010
0000
1000
0000
0000
0000
0010
,
0000
0100
0000
0001
0000
1000
0000
0100
,
0000
0010
0000
0001
0000
0000
0000
0010
,
0000
0100
0000
1000
0000
0001
0000
0100
,
0000
0010
0000
1000
0000
0000
0000
0001
,
0000
0100
0000
1000
0000
0100
0000
0010
,
0000
1000
0000
0001
0000
0000
0000
1000
,
0000
0100
0000
0010
0000
0000
0000
0100
,
0000
1000
0000
0001
0000
0000
0000
0011
,
0000
0000
0000
1010
0000
0000
0000
1100
,
0000
0000
0000
0011
0000
0000
0000
1000
,
0000
0001
0000
0010
0000
1000
0000
0010
,
0000
0001
0000
1000
0000
0000
0000
1010
,
0000
0000
0000
0011
0000
0000
0000
0101
,
0000
0000
0000
1010
0000
0000
0000
0001
,
0000
1000
0000
0010
0000
0001
0000
0010
,
0000
1000
0000
0001
0000
0000
0000
0110
,
0000
0000
0000
0001
0000
0100
0000
1000
,
0000
0000
0000
1000
0000
0100
0000
0001
,
0000
0010
0000
1000
0000
0000
0000
0010
,
0000
0001
0000
1000
0000
0010
0000
0100
,
0000
0001
0000
0100
0000
0001
0000
1000
,
0000
0010
0000
1000
0000
0010
0000
0100
,
0000
0001
0000
0010
0000
1000
0000
0001
,
0000
0100
0000
1000
0000
0001
0000
0100
,
0000
0010
0000
0000
0000
1000
0000
0010
,
0000
0100
0000
0000
0000
1000
0000
0100
,
0000
0001
0000
0000
0000
1000
0000
0100
,
0000
0010
0000
0000
0000
1000
0000
0010
,
0000
0100
0000
0000
0000
0001
0000
0100
,
0000
1000
0000
0000
0000
0001
0000
0100
,
0000
0010
0000
1000
0000
0001
0000
1001
,
0000
1000
0000
0100
0000
0010
0000
0001
,
0000
1000
0000
0100
0000
0010
0000
0000
,
0000
0001
0000
0100
0000
0010
0000
1000
,
0000
0001
0000
0100
0000
0010
0000
0000
,
0000
1000
0000
0100
0000
0001
0000
0100
,
0000
1000
0000
0010
0000
0001
0000
0010
,
0000
2000
0000
0000
0000
0000
0000
0000
,
0000
0000
0000
0000
0000
0000
0000
3000
,
0000
0001
0000
1000
0010
0000
0000
0100
,
0001
0000
0000
0000
0000
0010
0000
0001
,
0000
1000
0000
0001
0100
0000
0010
1000
,
0000
1001
0000
1001
0000
0010
0100
0010
,
0000
1000
0000
0001
0000
0010
0000
0000
,
0000
0100
0000
0000
0000
0100
0000
0000
,
0000
1000
0000
0001
0000
0100
0000
0000
,
0000
0010
0000
0000
0000
0010
0000
0000
,
0000
1000
0000
0100
0000
0010
0000
0000
,
0000
0010
0000
0100
0000
1000
0000
0000
,
0000
0001
0000
0100
0000
0010
0000
0100
,
0000
0010
0000
0100
0000
0001
0000
0000
,
0000
1000
0000
0001
0000
1001
0000
0000
,
0000
1001
0000
0000
0000
1001
0000
0000
,
0000
0001
0000
1000
0000
0100
0000
0000
,
0000
0010
0000
0000
0000
0010
0000
0000
,
0000
0001
0000
1000
0000
0001
0000
0000
,
0000
1000
0000
0001
0000
1000
0000
0000
,
0000
0010
0000
0100
0000
0010
0000
0100
,
0000
0001
0000
1000
0000
0001
0000
0000
,
0000
0010
0000
0001
0000
0100
0000
1000
,
0000
0001
0000
1000
0000
0100
0000
0000
,
0000
0010
0000
1000
0000
0100
0000
0001
,
0000
1000
0000
0001
0000
0100
0000
0000
,
0000
0220
0000
0000
0000
0330
0000
0022
,
0000
0000
0000
0033
0000
2200
0000
0000
,
0000
0000
0000
0000
,
0000
0000
0000
3300
0000
1001
0000
0000
,
0000
1000
0000
0000
0000
0100
0000
1000
,
0000
0010
0000
0000
0000
0100
0000
0001
,
0000
0010
0000
0000
0000
0100
0000
1000
,
0000
0001
0000
0000
0000
0010
0000
0001
,
0000
1000
0000
1000
0000
0010
0000
0010
,
0000
0100
0000
0100
0001
0000
1000
0001
,
1000
0001
0000
0000
0000
0100
0000
0001
,
0000
0010
0000
0000
0000
0100
0000
1000
,
0000
0010
0000
0000
0000
0100
0000
0001
,
0000
1000
0000
0000
0000
0100
0000
1000
,
0000
0001
0000
0001
0000
1000
0000
1000
,
0100
0000
0100
0001
0000
0100
0000
1000
,
0000
0001
0000
1000
0000
0100
0000
0010
,
0000
0100
0000
1000
0000
0001
0000
0000
,
0000
1000
0000
0001
0000
0100
0000
0010
,
0000
0100
0000
0001
0000
1000
0000
0000
,
0000
0100
0000
0010
0000
0100
0000
0000
,
0000
0010
0000
0100
0000
0010
0000
0000
,
0000
0011
0000
0000
0011
0000
0000
1100
,
0000
0000
0000
1000
0000
0100
0000
0010
,
0000
0001
0000
0000
0001
0000
0000
0100
,
0000
1000
0000
0000
1000
0000
0000
0100
,
0000
0001
0000
0000
0001
0000
0000
0010
,
0000
1000
0000
0001
0000
0100
0000
1000
,
0000
0020
0000
0000
0000
0000
0000
0230
,
0000
0000
0000
0000
0000
0302
0000
0000
,
0000
0000
0000
0000
,
0000
0000
0000
0000
,
0003
0000
0000
0000
;

//--------------- dance-single - ----------------
#NOTEDATA:;
#STEPSTYPE:dance-single;
#DESCRIPTION:;
#DIFFICULTY:Medium;
#METER:15;
#RADARVALUES:0,0,0,0,0;
#NOTES:
0000
0000
0000
0000
,
1010
0000
0000
2000
0000
0000
3002
0000
0000
0000
1003
0000
0100
0000
0010
0000
,
0001
0000
1000
0000
0001
0100
0001
0100
0002
0000
0000
2003
0000
0000
3010
0000
,
0110
0000
0000
0002
0000
0000
2003
0000
0000
0000
3001
0000
0010
0000
0100
0000
,
1000
0000
0001
0010
0001
0010
0100
1000
0100
0000
0000
0010
0000
0000
0010
0000
,
1002
0000
0000
0203
0000
0000
0320
0000
0000
0000
1030
0000
0100
0000
0010
0000
,
0100
0000
1000
0000
0010
0100
0010
0100
0020
0000
0000
2030
0000
0000
3001
0000
,
1001
0000
0000
0100
0000
0000
0220
0000
0000
0000
0000
0000
0000
0000
0000
0000
,
0000
0000
0000
0000
,
0000
0000
0000
0000
,
0000
0000
0000
0000
,
0000
0000
0000
0000
,
0000
0000
0000
0000
,
0000
0000
0000
0000
,
0000
0000
0000
0000
,
0330
0001
0000
0100
0000
0001
0000
0010
,
0000
0001
0000
0100
0000
0010
0000
0000
,
0000
1000
0000
0100
0000
1000
0000
0010
,
0000
1000
0000
0100
0000
0010
0000
0000
,
0000
0001
0000
0010
0000
0001
0000
1000
,
0000
0001
0000
0010
0000
0100
0000
0000
,
0000
1000
0000
0010
0000
1000
0000
0001
,
0000
0200
0320
1030
0000
1000
0000
0010
,
0000
0010
0000
1000
0000
0010
0000
0100
,
0000
0001
0000
0010
0000
0010
0000
0100
,
0000
0100
0000
1000
0000
0100
0000
0010
,
0000
0001
0000
1000
0000
1000
0000
0100
,
0000
0010
0000
0001
0010
0100
0010
0001
,
0010
0100
0010
0001
0000
1000
0000
1001
,
0000
1001
0000
0001
0000
1000
0010
1000
,
0000
0010
0000
0100
0000
0001
0000
1001
,
0000
0000
0000
1000
0000
0001
0010
0001
,
0000
0010
0000
0100
0000
1000
0000
1001
,
0000
0000
0000
0001
0000
0010
0100
0010
,
0000
0001
0000
0100
0010
0100
0000
0010
,
0000
1000
0000
0001
0000
0101
0000
0000
,
0000
1010
0000
0000
0000
0010
0000
1000
,
0000
0100
0000
0010
0000
0001
0010
0001
,
0000
0010
0000
0100
0000
1000
0000
1001
,
0000
0000
0000
0001
0000
1000
0010
1000
,
0000
0010
0000
0100
0000
0001
0000
1001
,
0000
0000
0000
0001
0000
0101
0000
0000
,
0000
1100
0000
0000
0000
0101
0000
0000
,
0000
1001
0000
1000
0000
0100
0000
0010
,
0000
0100
0000
2000
0000
3002
0000
1003
,
0000
0001
0100
0001
0000
1000
0000
0100
,
0000
0010
0100
0010
0000
0000
0000
0001
,
0000
1000
0100
1000
0000
0001
0000
0100
,
0000
0010
0100
0010
0000
0000
0000
1000
,
0000
0100
0010
0100
0000
1000
0000
0010
,
0100
0010
0000
1000
0000
0001
0000
0100
,
0000
0101
0000
0000
0000
1010
0000
0000
,
0000
0010
0000
1000
0000
0100
0000
0010
,
0000
0020
0000
0000
0000
0031
0000
0002
,
0000
0000
0000
1003
0000
2000
0000
0000
,
0000
3001
0000
0100
0000
0010
0000
1000
,
0000
0001
0000
0100
0000
0010
0000
1000
,
0010
1000
0010
0100
0000
0001
0010
0001
,
0010
0100
0000
1000
0000
0001
0000
2000
,
0000
3002
0000
0103
0000
0110
0000
1000
,
0000
0001
0000
1000
0100
1000
0000
0001
,
0000
0001
0000
0100
0000
0001
0000
1000
,
0000
1000
0000
0001
0000
0100
0000
0001
,
0000
1000
0000
0001
0100
0001
0000
1000
,
0000
1000
0000
0100
0000
1000
0000
0001
,
0000
0001
0000
0100
0000
0001
0000
1000
,
0000
0001
0000
0100
0010
0100
0000
0001
,
0000
0100
0000
0000
0000
0001
0000
0000
0000
1000
0000
0000
0000
0100
0000
0000
0000
1000
0000
0000
0000
0001
0000
0000
,
0000
0100
0000
0000
0000
0001
0000
0000
0000
1000
0000
0000
0000
0000
0000
0100
0000
0000
0000
0000
0000
1000
0000
0000
,
0000
0001
0000
0100
0000
0001
0000
1000
,
0000
0010
0000
0100
0000
0001
0000
0100
,
0000
0010
0000
1000
0000
0001
0000
2000
,
0000
0000
0000
3002
0000
0000
0000
1003
,
0000
0001
0000
1000
0000
0010
0000
1000
,
0000
0100
0000
0010
0000
0000
0000
0001
,
0000
1000
0000
0001
0000
0010
0000
0001
,
0000
0100
0000
0010
0000
0000
0000
1000
,
0000
0100
0000
0001
0000
0100
0000
1000
,
0000
0001
0000
0100
0000
0000
0000
0001
,
0000
0100
0000
1000
0000
0100
0000
0001
,
0000
1000
0000
0100
0000
1000
0001
1000
,
0000
0100
0000
0010
0000
0001
0000
1000
,
0000
0001
0000
0100
0000
0000
0000
0001
,
0000
0100
0000
0010
0000
1000
0000
0001
,
0000
1000
0000
0100
0000
0000
0000
0010
,
0000
0001
0000
1000
0000
0001
0000
0010
,
0000
1000
0000
0010
0000
0000
0000
0001
,
0000
1000
0000
0010
0000
1000
0000
0100
,
0000
0010
0001
0010
0000
0100
0000
1100
,
0000
0000
0000
1001
0000
1000
0000
0100
,
0000
0010
0000
0011
0000
0000
0000
1000
,
0000
0001
0100
0001
0000
1000
0100
1000
,
0000
0010
0100
0010
0000
1000
0000
1001
,
0000
0000
0000
1001
0000
0001
0000
0100
,
0000
0010
0000
1010
0000
0000
0000
0001
,
0000
1000
0100
1000
0000
0001
0100
0001
,
0000
0100
0010
0100
0000
0001
0000
1001
,
0000
0000
0000
0001
0000
0100
0000
1000
,
0000
0000
0000
1000
0000
0100
0000
0001
,
0000
0010
0000
0100
0000
0000
0000
0100
,
0000
0010
0000
0001
0000
0100
0000
1000
,
0000
0001
0000
0010
0000
1000
0000
0100
,
0000
0010
0000
0001
0000
1000
0000
0100
,
0000
1000
0000
0001
0000
0100
0000
1001
,
0000
0000
0000
1001
0000
1000
0000
0100
,
0000
1000
0000
0100
0000
0010
0000
0001
,
0000
0010
0000
0001
0000
1000
0000
0010
,
0000
1000
0000
0010
0000
0100
0000
0001
,
0000
0100
0000
0001
0000
1000
0000
0100
,
0000
0010
0000
0001
0000
1000
0000
0100
,
0000
0010
0000
0100
0000
1000
0000
0001
,
0000
0100
0000
0010
0000
2000
0000
3002
,
0000
1003
0100
1000
0000
0001
0000
1000
,
0000
0001
0100
0001
0000
1000
0000
0001
,
0000
1000
0010
1000
0000
0010
0000
0100
,
0000
0001
0010
0001
0000
0010
0000
0100
,
0000
1000
0100
1000
0000
0100
0010
0100
,
0000
0010
0001
0010
0000
0001
1000
0100
,
0010
0001
2000
0000
0000
0000
0000
0000
,
0000
0000
0000
0000
,
0000
3200
0000
1000
2300
0000
0000
0001
,
3002
0000
0000
0000
0000
0203
0000
0320
,
0000
2030
0000
0001
3002
0000
0013
0020
,
0000
0130
0000
1100
0000
0101
0000
1001
,
0000
1000
0000
0001
0000
0010
0000
0100
,
0000
0010
0000
0001
0000
0100
0000
0000
,
0000
0001
0000
1000
0000
0010
0000
0100
,
0000
0010
0000
1000
0000
0100
0000
0000
,
0000
1000
0000
0100
0000
0101
0000
0000
,
0000
0001
0000
0100
0000
1100
0000
0000
,
0000
1000
0000
0010
0100
0010
0000
0001
,
0000
1000
0000
0100
0010
0100
0000
0000
,
0000
0001
0000
1000
0000
1001
0000
0000
,
0000
1000
0000
0100
0000
0001
0000
1000
,
0000
0001
0000
0100
0000
1000
0000
0001
,
0000
0100
0000
0010
0000
1000
0000
0000
,
0000
0001
0000
1000
0100
1000
0000
0010
,
0000
0100
0000
0001
0100
0001
0000
0010
,
0000
0100
0000
1000
0100
1000
0000
0100
,
0010
0100
0000
0001
0100
0001
0000
0100
,
1000
0001
0000
0100
0000
0010
0000
1000
,
0000
0100
0000
0010
0000
0011
0000
0000
,
0000
0001
0000
0100
0000
0010
0000
1000
,
0000
0001
0000
0100
0000
0110
0000
0000
,
0000
2020
0000
0000
3030
0000
0000
0202
,
0000
0000
0303
0000
0000
2002
0000
0000
,
0000
0000
0000
0000
,
0000
0000
0000
3003
0000
1001
0000
0000
,
0000
1000
0000
0000
0000
0100
0000
1000
,
0000
0001
0000
0100
0000
0010
0000
0100
,
0000
0001
0000
0000
0000
1000
0000
0001
,
0000
0010
0000
0100
0000
0010
0000
0001
,
0000
1000
0000
1000
0000
0001
0000
0001
,
0100
0010
0000
0010
0100
0000
0100
0001
,
1000
0001
0000
0000
0000
0010
0000
0001
,
0000
0010
0000
0100
0000
0010
0000
0001
,
0000
1000
0000
0000
0000
0010
0000
1000
,
0000
0010
0000
0100
0000
0010
0000
1000
,
0000
0001
0000
0001
0000
1000
0000
1000
,
0010
0000
0010
0100
0000
0100
0001
1000
,
0000
0001
0000
0010
0000
0100
0000
1000
,
0000
0001
0000
1000
0000
0100
0000
0010
,
0100
0010
0000
0001
0000
0100
0000
0010
,
0000
1000
0000
0001
0000
0010
0000
0001
,
0100
0001
0000
0010
0000
0100
0000
0010
,
0000
0001
0000
1000
0000
0001
0000
0100
,
0000
0110
0000
0000
1010
0000
0000
1001
,
0000
0000
0000
0001
0000
0010
0000
0100
,
0000
0010
0000
0000
0001
0000
0000
1000
,
0000
0100
0000
0000
0010
0000
0000
0001
,
1000
0001
0000
0000
0100
0000
0000
0010
,
0000
1000
0000
0010
0000
0100
0001
0100
,
0001
0200
0000
0000
0000
0000
0000
0302
,
0000
0000
0000
0000
0000
2000
0000
0000
,
0000
0000
0000
0000
,
0000
0000
0000
0000
,
3003
0000
0000
0000
;

//--------------- dance-single - ----------------
#NOTEDATA:;
#STEPSTYPE:dance-single;
#DESCRIPTION:;
#DIFFICULTY:Hard;
#METER:18;
#RADARVALUES:0,0,0,0,0;
#NOTES:
0000
0000
0000
0000
,
1010
0000
0000
0101
0000
0000
1002
0000
0000
0000
1003
0000
0100
0000
0010
0100
,
0010
0000
0001
0000
1000
0010
1000
0010
0200
0000
0000
0302
0000
0000
0013
0000
,
0110
0000
0000
1100
0000
0000
2001
0000
0000
0000
3001
0000
0100
0000
0010
0000
,
0100
0000
0001
0010
0100
1000
0001
0010
0100
0000
0000
1100
0000
0000
1100
0000
,
1001
0000
0000
0101
0000
0000
2010
0000
0000
0000
3001
0000
0100
0000
0001
0100
,
0001
0000
1000
0000
0001
1000
0100
0010
0002
0000
0000
2003
0000
0000
3010
0000
,
1001
0000
0000
0100
0000
0000
0220
0000
0000
0000
0000
0000
0000
0000
0000
0000
,
0000
0000
0000
0000
,
0000
0000
0000
0000
,
0000
0000
0000
0000
,
0000
0000
0000
0000
,
0000
0000
0000
0000
,
0000
0000
0000
0000
,
0000
0000
0000
0000
,
0330
0001
0000
0100
0000
0001
0000
0100
,
0000
0010
0000
1000
0000
0010
0000
1000
,
0000
0001
0000
0010
0000
0001
0000
0010
,
0000
0100
0000
1000
0000
0100
0000
1000
,
0000
0010
0000
1000
0000
0100
0000
0010
,
0000
0001
0000
0100
0000
0010
0000
1000
,
0000
0010
0000
0100
0000
0001
0000
1000
,
0000
0002
0023
0031
0100
0001
0000
1000
,
0100
1000
0000
0010
0100
0010
0000
1000
,
0001
1000
0000
0001
0010
0001
0000
1000
,
0010
1000
0000
0100
0010
0100
0000
1000
,
0001
1000
0000
0001
0100
0001
0100
0010
,
0000
1000
0100
1000
0100
0010
0000
0001
,
1000
0001
1000
0020
0000
0230
0000
0301
,
1000
0001
1000
0100
0000
0010
0100
0010
,
0000
0001
0000
1000
0000
0100
0010
0100
,
0000
1000
0000
0001
0000
0100
0010
0100
,
0000
0001
0000
1000
0000
0010
0100
0010
,
0000
1000
0000
0001
1000
0100
1000
0001
,
0000
1000
0001
0100
0001
1000
0000
0020
,
0000
0000
0000
0130
0001
0000
0001
0000
,
0001
0000
0001
1000
0000
0010
0100
0010
,
0000
1000
0000
0100
0000
0010
0001
0010
,
0000
0100
0000
1000
0000
0001
0010
0001
,
0000
0100
0000
0001
0000
1000
0010
1000
,
0000
0001
0000
0100
0000
0010
1000
0010
,
0000
1000
0000
0001
0000
1100
0000
0000
,
0000
0101
0000
0000
0000
1100
0000
0000
,
0000
1001
0000
1000
0000
0001
0000
0010
,
0000
0100
0000
1000
0100
2000
0000
3010
,
0000
0100
0001
0010
0000
0100
0000
0010
,
0001
0100
0010
0100
0000
0001
0000
0010
,
0000
0100
1000
0010
0000
0100
0000
0010
,
1000
0100
0010
0100
0000
1000
0000
0001
,
0100
0010
0100
0001
0000
1000
0100
0010
,
0100
1000
0000
0020
0000
0230
0000
0310
,
1000
0000
1000
0000
1000
0000
1000
0001
,
0000
0010
0100
0010
0000
1000
0000
0010
,
0000
0110
0000
0000
0000
0001
0000
0011
,
0000
0000
0000
1000
0000
1010
0000
0000
,
0000
0001
0000
0110
0000
1000
0000
0110
,
0000
0001
0000
0110
0000
1001
0000
1000
,
0100
1000
0100
0010
0000
0001
1000
0001
,
1000
0010
0000
0100
0000
0100
0000
0001
,
1000
0001
0000
0100
0010
0110
0000
1001
,
0000
1001
0000
0010
0100
0010
0000
1000
,
0000
0100
0000
0100
0000
0001
0000
1000
,
0000
0010
0000
0010
0000
0001
0000
1001
,
0000
1001
0000
0010
0100
0010
0000
0001
,
0000
0100
0000
0100
0000
1000
0000
0001
,
0000
0010
0000
0010
0000
1000
0000
1001
,
0000
1001
0000
0100
0010
0100
0000
0001
,
0000
0100
0000
0000
0000
0001
0000
0000
0000
1000
0000
0000
0000
0100
0000
0000
0000
1000
0000
0000
0000
0001
0000
0000
,
0000
0010
0000
0000
0000
1000
0000
0000
0000
0010
0000
0000
0000
0000
0000
0100
0000
0000
0000
0000
0000
1000
0000
0000
,
0000
0001
0000
0001
0000
0100
0000
0010
,
0000
1000
0000
1000
0000
0001
0000
0010
,
0000
0001
0000
0100
0000
0100
1000
0020
,
0000
0230
0000
0302
0000
2003
0000
3001
,
0000
0010
0100
0010
0000
0100
1000
0100
,
0000
1000
0001
1000
0000
0010
0000
0100
,
0000
0001
0100
0001
0000
0100
0010
0100
,
0000
0001
1000
0001
0000
0010
0000
0100
,
0000
1000
0100
1000
0000
0001
0100
0001
,
0000
1000
0100
1000
0000
0010
0000
0100
,
0000
0001
0100
0001
0000
1000
0100
1000
,
0000
0001
0100
0010
1000
0001
0100
0010
,
0000
0100
0010
0100
0000
0001
0100
0001
,
0000
0100
0010
0100
0000
0001
0000
1000
,
0000
0100
0010
0100
0000
1000
0100
1000
,
0000
0100
0010
0100
0000
1000
0000
0001
,
0000
0100
0010
0100
0000
1000
0100
1000
,
0000
0100
0010
0100
0000
0001
0000
1000
,
0000
0001
0010
0001
0000
0010
0100
0010
,
0000
0001
0010
0001
1000
0100
0000
0011
,
0000
0000
0000
1010
0000
1000
0000
0100
,
0000
0010
0000
0011
0000
0000
0000
1000
,
0000
0002
0100
0013
0000
2000
0100
3010
,
0000
0002
0010
1003
0000
0010
0000
0110
,
0000
0000
0000
0011
0000
0001
0000
0100
,
0000
0010
0000
1010
0000
0000
0000
0001
,
0000
2000
0100
3010
0000
0002
0100
0013
,
0000
2000
0010
3001
0000
0010
0000
0110
,
0000
0000
0000
0001
0000
0100
0000
1010
,
0000
0000
0000
0100
0000
0010
0000
1001
,
0000
0100
0000
1001
0000
0000
0000
1000
,
0000
0100
0000
0010
0000
0001
0000
1000
,
0100
1000
0000
0010
0100
0010
0000
0100
,
0001
0100
0000
0001
1000
0001
0000
1000
,
0100
1000
0100
0010
0001
0010
0001
1000
,
0100
0010
0001
2000
0000
3100
0000
0010
,
0000
0001
0000
0100
0000
0010
0000
1000
,
0000
0001
0000
0100
0000
0010
0000
0100
,
0000
0001
0000
1000
0000
0001
0000
1000
,
0000
0100
0000
0010
0000
0001
0000
0100
,
0000
0010
0000
1000
0000
0001
0000
0010
,
0000
0100
0000
1000
0000
0001
0000
0100
,
0000
0010
0000
1000
0000
0001
1000
0002
,
0000
1003
0100
1000
0000
0100
0010
0100
,
0000
0010
0001
0010
0000
0001
1000
0001
,
0000
1000
0010
1000
0000
0010
0100
0010
,
0000
0100
0001
0100
0000
0001
1000
0001
,
0000
1000
0010
1000
0010
0100
0001
0100
,
0001
1000
0010
0100
0010
1000
0001
0100
,
0010
1000
0001
0020
0000
0000
0000
0000
,
0000
0000
0000
0000
,
0000
0230
0000
1000
2300
0000
0000
0001
,
3002
0000
0000
0000
0000
0203
0000
0320
,
0000
2030
0000
0001
3002
0000
0010
0023
,
0000
0130
1000
0100
1000
0100
0010
0001
,
0000
1000
0000
0001
0100
0010
0000
0100
,
0001
0010
0000
0001
0010
0100
0000
1000
,
0000
0001
0000
1000
0100
0010
0000
0100
,
1000
0010
0000
1000
0010
0100
0000
0001
,
0000
1000
0000
0100
0001
0100
0000
1000
,
0000
0001
0000
0100
1000
0100
0000
0001
,
0000
1000
0000
0100
0010
0100
0000
0001
,
0000
0100
1000
0010
1000
0100
0000
0000
,
0000
1000
0000
0001
0000
1001
0000
0000
,
0000
1000
0000
0200
0010
0301
0000
1000
,
0000
0001
0000
0200
0010
1300
0000
0001
,
0000
1000
0000
0002
0010
0103
0000
1000
,
0000
0001
0000
1000
0100
1000
0010
1000
,
0000
1001
0000
0001
0100
0001
0010
0001
,
0000
1001
0000
1000
0100
0010
0100
1000
,
0001
0100
0001
1000
0100
0010
0001
1000
,
0010
0100
0000
0100
0000
0001
0000
0001
,
0000
1000
0000
1000
0000
1001
0000
0000
,
0000
0001
0000
0001
0000
0010
0000
0010
,
0000
0100
0000
0100
0000
1001
0000
0000
,
0000
0022
0000
0000
0000
0033
0000
2020
,
0000
0000
0000
3030
0000
2002
0000
0000
,
0000
0000
0000
0000
,
0000
0000
0000
3003
0000
1001
0000
0000
,
0000
1000
0000
0100
0010
0100
0000
1000
,
0000
0001
0000
0100
0000
1000
0000
0100
,
0000
0001
0000
0100
0010
0100
0000
0001
,
0000
0100
0000
1000
0000
0100
0000
0001
,
0000
1000
0001
1000
0001
0010
0000
0001
,
1000
0001
1000
0001
0100
0000
0100
0010
,
1000
0001
0000
0010
0100
0010
0000
0001
,
0000
0010
0000
1000
0000
0010
0000
0001
,
0000
1000
0000
0010
0100
0010
0000
1000
,
0000
0010
0000
0001
0000
0010
0000
1000
,
0000
0001
0000
0010
0001
0100
0000
0100
,
0010
0000
0010
1000
0001
1000
0100
0010
,
0000
0001
0000
1000
0010
0100
0000
1000
,
0000
0100
0010
1000
0000
0001
0000
0001
,
0000
1000
0000
0001
0010
0100
0000
0001
,
0000
0100
0010
0001
0000
1000
0000
1000
,
0000
0001
0000
1000
0010
1000
0000
0001
,
0100
0001
0000
1000
0000
0010
0000
0100
,
0000
0101
0000
0000
1010
0000
0000
1001
,
0000
0000
0100
0001
0000
0010
0000
0100
,
0000
0010
0000
0000
1000
0000
0000
0010
,
0000
0001
0000
0000
0100
0000
0000
1000
,
0100
0001
0000
0000
0010
0000
0000
0100
,
0000
1000
0000
0001
0000
0100
0001
1000
,
0010
2020
0000
0000
0000
3030
0000
0202
,
0000
0000
0000
0303
0000
2002
0000
0000
,
0000
0000
0000
0000
,
0000
0000
0000
0000
,
3003
0000
0000
0000
;

//--------------- dance-single - ----------------
#NOTEDATA:;
#STEPSTYPE:dance-single;
#DESCRIPTION:;
#DIFFICULTY:Challenge;
#METER:19;
#RADARVALUES:1.102412,2.000797,0.564262,0.023842,0.151,971,900,71,3,196,0,0,0,0,1.102412,2.000797,0.564262,0.023842,0.151,971,900,71,3,196,0,0,0,0;
#DISPLAYBPM:105.000:420.000;
#CHARTNAME:;
#CHARTSTYLE:;
#CREDIT:;
#NOTES:
0000
0000
0000
0000
,
1001
0000
0000
1010
0000
0000
0102
0000
0000
0000
1003
0000
0100
1000
0010
0001
,
0010
0000
1000
0000
0001
0010
0100
1000
0001
0000
0010
0100
0000
0100
1000
0000
,
1001
0000
0000
0101
0000
0000
2010
0000
0000
0000
3001
0000
0100
0010
0100
0000
,
0001
0010
0100
0010
0001
1000
0010
0001
0010
0000
0000
1010
0000
0000
1001
0000
,
0011
0000
0010
0100
0000
0100
1000
0000
0001
0100
1000
0100
0010
0000
0100
0001
,
0010
0100
1000
0100
0010
0100
1000
0100
0001
0100
1000
0001
0100
0010
1000
0000
,
1001
0000
0000
0000
0000
0000
0000
0000
0000
0000
0000
0000
0000
0000
0000
0000
0000
0000
0000
0000
0000
0000
0000
0000
0000
0000
0000
0000
0000
0000
0000
0000
0000
0000
0000
0000
0100
0000
0000
0000
0000
0000
0000
0000
0000
0000
0000
0000
0010
0000
0000
0000
0000
0000
0000
0000
0000
0000
0000
0000
0000
0000
0000
0000
0000
0000
0000
0000
0000
0000
0000
0000
0220
0000
0000
0000
0000
0000
0000
0000
0000
0000
0000
0000
0000
0000
0000
0000
0000
0000
0000
0000
0000
0000
0000
0000
0000
0330
0000
0000
0000
0000
0000
0000
0000
0000
0000
0000
0000
0000
0000
0000
0000
0000
0000
0000
0000
0000
0000
0000
0000
0000
0000
0000
0000
0000
0000
0000
0000
0000
0000
0000
0000
0000
0000
0000
0000
0000
0000
0000
0000
0000
0000
0000
0000
0000
0000
0000
0000
0000
0000
0000
0000
0000
0000
0000
0000
0000
0000
0000
0000
0000
0000
0000
0000
0000
0000
0000
0000
0000
0000
0000
0000
0000
0000
0000
0000
0000
0000
0000
0000
0000
0000
0000
0000
0000
0000
0000
0000
0000
0000
0000
,
0000
0000
0000
0000
,
MMMM
MMMM
MMMM
MMMM
,
MMMM
MMMM
MMMM
MMMM
,
MMMM
MMMM
MMMM
MMMM
,
MMMM
MMMM
MMMM
MMMM
,
MMMM
MMMM
MMMM
MMMM
,
MMMM
MMMM
MMMM
MMMM
,
MMMM
0001
0000
0010
0000
0100
0000
1000
,
0000
0010
0000
1000
0000
0001
0000
0010
,
0000
0001
0000
0100
0000
0001
0000
0100
,
0000
0010
0000
0100
0000
0010
0000
1000
,
0000
0001
0000
1000
0000
0100
0000
0010
,
0000
0001
0000
1000
0000
0010
0000
0100
,
0000
0001
0000
0010
0000
0100
0000
1000
,
0000
0000
0010
0100
0010
0000
1000
0000
0100
0000
1000
0000
0001
0000
1000
0000
,
0010
1000
0001
0100
0001
0010
0001
1000
,
0001
1000
0100
1000
0001
0100
0001
1000
,
0010
1000
0001
0100
0001
1000
0100
0010
,
0001
1000
0010
0100
0001
1000
0001
0010
,
0100
1000
0100
0010
0001
1000
0010
0100
,
0001
0000
0100
0000
0010
0000
2000
0000
0000
0000
3001
0100
0001
0000
0010
0000
,
0100
0010
0001
1000
0000
0010
0100
0001
,
0000
0010
0000
0001
1000
0100
0010
0100
,
0000
1000
0000
0001
0000
0010
0100
1000
,
0000
0010
0000
1000
0001
0100
0010
0100
,
0000
1000
0000
0001
0010
1000
0100
0001
,
0000
1000
0010
0001
0100
1000
0000
0100
,
0000
0001
0000
0010
1000
0010
0100
0010
,
0001
0010
0100
0010
0000
0100
1000
0010
,
0000
0100
0000
1001
0000
0001
0100
0010
,
0000
0100
0000
0001
1000
0100
0010
0100
,
0000
1000
0000
0001
0000
1000
0100
0010
,
0000
0100
0000
1000
0001
0100
0010
0100
,
0000
0010
0000
0100
0000
1001
0000
0010
,
0000
1001
0000
0100
0000
1001
0000
0010
,
0000
1001
0000
1000
0100
1000
0000
0001
,
0100
0001
0000
1000
0100
0020
0000
0130
,
0000
0100
1000
0010
0000
0100
0000
0001
,
1000
0100
1000
0001
0000
0100
0000
0010
,
0000
0100
0001
0010
0000
0100
0000
1000
,
0001
0100
0001
1000
0000
0100
0000
0001
,
0100
1000
0010
0001
0000
1000
0100
0001
,
0010
1000
0000
0010
0000
0001
0000
0100
,
1000
0100
0010
0100
0001
0100
0010
0100
,
0000
0010
1000
0100
0000
1100
0000
0110
,
0000
1100
0000
0000
0000
1001
0000
0011
,
0000
0000
0000
0110
0000
1100
0000
0000
,
0000
1100
0000
1001
0000
0001
0000
0110
,
0000
1000
0000
0110
0000
1001
0000
1000
,
0010
1000
0010
0100
0001
0100
0001
1000
,
0100
1000
0001
0100
0001
1000
0010
1000
,
0100
0000
0010
0000
0000
0000
0100
0010
0100
0000
1000
0000
0001
0000
1001
0000
,
0000
1001
0000
1001
0110
1001
0000
1100
,
0000
1100
0000
1100
0000
0011
0000
0101
,
0000
0101
0000
0101
0000
1010
0000
0110
,
0000
0110
0000
0110
1001
0110
0000
0011
,
0000
0011
0000
0011
0000
1100
0000
1010
,
0000
1010
0000
1010
0000
1001
0000
0110
,
0000
0110
0000
1001
1001
0110
0000
1000
,
0000
0100
0000
0000
0000
0001
0000
0000
0000
1000
0000
0000
0000
0010
0000
0000
0000
1000
0000
0000
0000
0001
0000
0000
,
0000
0100
0000
0000
0000
1000
0000
0000
0000
0010
0000
0000
0000
0000
0000
0100
0000
0000
0000
0000
0000
0001
0000
0000
,
0100
0001
0010
0001
1000
0100
1000
0010
,
1000
0100
0010
0100
1000
0001
0100
0010
,
0100
0001
1000
0100
0001
0100
1000
0010
,
0000
0100
0000
0001
0000
1000
0000
0001
,
0000
0010
0100
0010
0000
0100
1000
0010
,
0000
0100
0001
1000
0000
0100
0000
0010
,
0000
0100
1000
0100
0000
0010
0001
1000
,
0000
0010
0100
1000
0100
0010
1000
0001
,
0000
0010
0100
0010
0000
1000
0010
0100
,
0000
1000
0001
0100
0000
1000
0000
0100
,
0000
0010
1000
0010
0000
0100
0001
0010
,
0000
0100
1000
0100
0010
0100
0001
0100
,
0000
0010
0001
0010
0000
0100
1000
0001
,
0000
0100
1000
0100
0000
0010
0000
1000
,
0000
0100
0010
0100
0000
1000
0010
0100
,
0000
1000
0100
0010
0100
1000
0100
0001
,
0000
0100
0001
0010
0000
0100
1000
0010
,
0000
0100
0001
1000
0000
0010
0000
0100
,
0000
0001
1000
0001
0000
0010
0100
0010
,
0001
0010
0000
0100
0000
1000
0000
1001
,
0000
0000
0000
1010
0000
0010
1000
0100
,
0000
0010
0000
0011
0000
0000
0000
2000
,
0100
3010
0100
2000
0001
3020
0100
1030
,
0001
0020
0001
1030
0000
0010
0000
1001
,
0000
0000
0000
0011
0000
0010
0001
0100
,
0000
0010
0000
1010
0000
0000
0000
0002
,
0100
0013
0100
0002
1000
0023
0100
0031
,
1000
0020
1000
0031
0000
1000
0000
0001
,
0000
0000
0000
0101
0000
1100
0000
1001
,
0000
0000
0000
0001
0000
0010
0000
1100
,
0000
0101
0000
1001
0000
0000
0000
1000
,
0000
0100
0000
0010
0000
0001
0000
1000
,
0100
0010
0001
1000
0100
0010
0001
1000
,
0010
0100
0001
1000
0010
0100
0001
1000
,
0100
0010
0001
1000
0010
0100
0001
0010
,
0100
1000
0010
0100
0000
1000
0100
0001
,
0000
0100
0000
0001
0000
1000
0100
0001
,
0000
0100
0000
0001
0000
1000
0010
0001
,
0000
1000
0000
0010
0000
1000
0010
0001
,
0000
1000
0000
0100
0000
0001
0010
1000
,
0000
0010
0000
0100
0000
0001
0100
1000
,
0000
0010
0000
0100
0000
0010
1000
0100
,
0000
0010
0001
0100
0000
0010
1000
0100
,
0010
0001
1000
0001
0010
0001
0100
0001
,
1000
0010
1000
0100
1000
0001
1000
0010
,
0100
0001
0010
0100
1000
0001
1000
0100
,
0010
0001
1000
0001
0100
0010
1000
0001
,
1000
0010
0100
0001
0010
0001
0010
0100
,
1000
0100
1000
0001
0100
0001
1000
0010
,
0001
1000
0100
0002
0000
0000
0000
0000
,
0000
0000
0000
0000
,
0000
0023
0000
0100
0230
0000
0000
1000
,
2300
0000
0001
3001
0000
1010
1000
0001
,
0010
0011
0000
0001
1000
0000
0010
0100
,
0010
0000
1000
0010
1000
0010
0100
0001
0100
0001
1000
0000
0100
0000
0010
0001
,
0010
0001
1000
0000
0000
0000
0001
0000
0010
0000
0100
0000
0000
0000
1000
0000
,
0100
0010
0000
0001
0010
0100
1000
0100
,
0010
0001
0000
1000
0010
0100
0000
0001
,
0100
0010
0000
1000
0010
0100
0001
0100
,
0010
1000
0000
0100
0010
0100
0000
1000
,
0000
0001
0000
0100
0010
0100
0000
0001
,
0000
1000
0000
0100
0010
0100
0000
1000
,
0000
0001
0100
1000
0100
0001
0000
0000
,
0000
0110
0000
0110
0000
1001
0000
0000
,
0000
1000
0000
0200
0010
0302
1000
0023
,
0000
0130
0000
0020
0100
0031
1000
0200
,
0000
0310
0000
0002
0100
0023
1000
0032
,
0000
1003
0000
0002
0010
0203
0010
0302
,
1000
0023
0000
2030
0010
3200
0010
2300
,
0001
3020
0000
0031
0100
0010
1000
0100
,
1000
0001
0010
0001
1000
0010
1000
0001
,
0010
2000
0000
3010
0100
0010
0000
0100
,
1000
0100
0000
0001
0100
0001
0000
0100
,
0000
1000
0000
0010
0100
0010
0000
0001
,
0010
0001
0000
0010
1000
0010
0000
0001
,
0000
0022
0000
0033
0000
0010
0000
2020
,
0000
3030
0000
1000
0000
2002
0000
0000
,
0000
0000
0000
0000
,
0000
0000
0000
3003
0000
1001
0000
0000
,
0000
1000
0000
0001
0010
0001
0000
1000
,
0000
0001
0100
0001
0000
0010
0000
0100
,
0000
1000
0000
0001
0100
0001
0000
1000
,
0000
0001
0010
0001
0000
0100
0000
0010
,
0000
1000
0001
1000
0001
0010
0000
0100
,
1000
0100
1000
0001
0100
0000
0100
0001
,
0010
0100
0000
1000
0010
1000
0000
0001
,
0000
1000
0100
1000
0000
0010
0000
0100
,
0000
0001
0000
1000
0100
1000
0000
0001
,
0000
1000
0010
1000
0000
0100
0000
0010
,
0000
0100
0000
0100
1000
0010
0000
0010
,
0100
0000
0000
0000
0100
0000
0001
0000
1000
0100
1000
0000
0100
0000
0010
0000
,
0001
1000
0000
0001
0100
0010
0000
0100
,
0000
1000
0100
0001
0010
0100
0000
1000
,
0000
0001
0000
1000
0100
0010
0000
0100
,
0000
0001
0100
1000
0010
0100
0000
0001
,
0000
1000
0000
0010
0100
1000
0000
0001
,
0010
0100
0000
0110
0000
1010
0000
0100
,
0000
1001
0000
0000
0011
0000
0000
1100
,
0000
0000
1000
0001
0000
0010
0000
0100
,
1000
0010
0000
0001
1000
0000
0000
0100
,
0001
0010
0000
1000
0001
0000
0000
0100
,
1000
0010
0000
0001
0010
0000
0000
0010
,
1000
0100
0001
1000
0000
0010
0001
0100
,
0010
0220
0000
0000
0000
0330
0000
0202
,
0000
0000
0000
0303
0000
2020
0000
0000
,
0000
0000
0000
0000
,
0000
0000
0000
0000
,
3030
0000
0000
0000
;
